开启辅助访问
 找回密码
 立即注册

【朝鲜战争】全面讲述了朝鲜战争!中国人民志愿军英勇奋战,以长津湖战役到攻打韩城,退守三八线直到停战协议!为中国人民志愿军...

#4k记录视频#时间:2023-04-28 阅读:349 回复:0

1 D5 f% o$ t5 P& H
) p+ }3 R+ v9 B
. u, c; c% m5 B 182210kuj2bex4fep4bejb.jpg.jpg
) F. ^9 o1 @* J- M  m+ P& ^6 E6 _9 F( {1 J0 n$ B' L( _* Z' }

' |) a! G1 `+ g& e' W- A& b! ?" `简       介

5 W8 r% M6 D/ @8 W( T' j! P( J% C1 z/ a: L6 j
       【朝鲜战争】全面讲述了朝鲜战争!中国人民志愿军英勇奋战,以长津湖战役到攻打韩城,退守三八线直到停战协议!为中国人民志愿军致敬!真实影像记录!战地记者拍摄。
6 S* n9 I4 A  k9 ^, e# z
( r) e" {+ z: M: L2 @影片参数
General
: T0 `* F6 S8 q& A( z5 }& FFormat                         : MPEG-4+ k! o% t0 p: r8 x" D
Format profile                 : Base Media# m7 L+ H9 I. B% U8 `" B8 H7 X
Codec ID                       : isom (isom/iso2/avc1/mp41)
$ N5 N( f( E$ ?3 ?: P/ J; h/ Z& p; x# ]File size                      : 3.38 GiB4 A1 ]2 v; o, k4 V0 `" e/ `
Duration                       : 2 h 47 min
( \) ~* w# C8 E& [Overall bit rate               : 2 881 kb/s4 t: f% k4 ^$ V( M

0 J5 m- Q! N' ^+ R, A! C

* G* P/ s4 V' U# @  H7 JVideo
: y/ p5 S7 d3 T+ ~+ qID                             : 1
- B% r/ B* i" b: y  YFormat                         : AVC8 n& D! E, |5 A! G
Format/Info                    : Advanced Video Codec* t2 C/ {6 ^' W0 E) e6 J
Format profile                 : High@L4.2' A3 B8 `5 J3 y, U2 m% h7 E
Format settings                : CABAC / 3 Ref Frames5 ^0 V% n+ A+ c+ o7 f
Format settings, CABAC         : Yes  \: {2 W9 L( J: n( z9 ^" J, l+ D
Format settings, Reference fra : 3 frames, b3 y! s* G" A. @) _- O$ [
Codec ID                       : avc13 Y! X# ^" |. X: S- A6 C' m
Codec ID/Info                  : Advanced Video Coding- @) i, E4 y) T8 z, v: Z$ ^( \, N: [/ p
Duration                       : 2 h 47 min
% m( O* S4 S. u* w6 OBit rate                       : 2 743 kb/s5 b1 Q: C1 |' N. ^: _# d
Width                          : 1 920 pixels
4 j- M" ?6 O# J' L! |2 CHeight                         : 1 080 pixels
8 ?3 }- X0 C! B) b; a, EDisplay aspect ratio           : 16:9
. x- A( }" b8 M" X& p& h8 L4 F# {Frame rate mode                : Constant' t" J' M2 S6 y" h: Z
Frame rate                     : 60.000 FPS. ~3 n& N- N( w  z$ x! ]5 ~
Color space                    : YUV
: j8 E! J% _1 f9 U) V/ d( eChroma subsampling             : 4:2:0
4 T) w$ G; F+ JBit depth                      : 8 bits; @, ^) r4 D4 }
Scan type                      : Progressive
8 @" ^4 u0 ?$ A, H5 E. e$ }Bits/(Pixel*Frame)             : 0.022& s1 J3 H! ~" n; S+ a- F/ i+ U
Stream size                    : 3.22 GiB (95%)4 J4 P2 O, ?7 ?
Title                          : ISO Media file produced by Google Inc.
# O6 V& u- k* v" D3 i0 yColor range                    : Limited) v8 {/ N/ w9 E: d: E4 Z, j
Color primaries                : BT.709& h! g$ i' d4 s/ ?# z
Transfer characteristics       : BT.709# \& K& U) W/ j: J% S5 X3 B' w
Matrix coefficients            : BT.709# P" l- G) @* q2 k; \3 m: \
Codec configuration box        : avcC
* P7 e+ Y/ W4 J; I- S
6 u+ ]) C7 ?4 a( @" ^, R

9 B. ~  c! y( u3 }; o. R0 }Audio
8 ^* l- l+ x1 W' h5 LID                             : 2
7 `* P* E4 d0 S1 z2 j* |Format                         : AAC LC8 v0 O9 Y3 i6 N' a  _3 U
Format/Info                    : Advanced Audio Codec Low Complexity9 }0 h! X- ~' _8 D5 p
Codec ID                       : mp4a-40-26 V; L! a+ c( W
Duration                       : 2 h 47 min
% {7 d2 L' Q) [1 h$ u. UBit rate mode                  : Constant  X, R6 A& f7 a& T
Bit rate                       : 128 kb/s
, ^5 A& v: c+ o1 y& D1 \+ P/ }: ZChannel(s)                     : 2 channels7 j4 _( @! ~5 j+ V) v- f
Channel layout                 : L R, U9 W, {$ B/ K, u2 C1 G
Sampling rate                  : 44.1 kHz
4 p4 B& O  r. N/ iFrame rate                     : 43.066 FPS (1024 SPF)0 L4 R2 G: a- j7 E* f( v( C+ n" e/ A
Compression mode               : Lossy
1 R' G9 @4 S3 h  s, OStream size                    : 154 MiB (4%)
! e9 w* u' I" B% M: |Title                          : ISO Media file produced by Google Inc.) `- `0 t9 S9 K8 ?1 ]
Language                       : English
7 l+ H0 q+ R4 \9 I8 h8 eDefault                        : Yes
; B/ ~4 g  |+ cAlternate group                : 1
7 ^3 u( T7 q3 B7 }
182252huwfmmo4if40zjd2.png.jpg 182259bi33cpg33i3m5am1.png.jpg 182304refl0a4ac4er7sq7.png.jpg & G9 J8 u; M0 r, U5 G9 t# T1 h

8 @) W+ O4 n' v  j' ?0 Z9 g, `" v$ r0 E9 j5 b

, _4 m; U; [0 I7 u6 K《纪录片》 【朝鲜战争】全面讲述了朝鲜战争
/ s9 V' i) m2 ]+ Z3 o  p  x该版本为1080p版本 - X/ s8 W6 i8 I
由于本篇很多镜头为真实战地记者拍摄,受制于当时拍摄器材,清晰度不是很高,喜欢历史的可以下载观摩
' \2 D: R( b( S  b8 A

《纪录片》 【朝鲜战争】...!战地记者拍摄.txt ( 193 Bytes )

+ O8 e& K# z* {: {/ O  u9 X( y% q

, |1 A, d6 L+ W+ R: S4 f
  q. i: w6 L. X- L# ^7 |) R: v2 m
登录 发布 快速回复 返回顶部 返回列表