开启辅助访问
 找回密码
 立即注册

轮回 4k.Samsara.2011.2160p.WEB-DL.x265.10bit.HDR.DTS-HD.MA.5.1 纪录片—22.84 GB

#4k记录视频#时间:2023-04-28 阅读:203 回复:0
111926jypddzp78y45amqd.png.jpg 8 M  v7 y( `9 W+ f" x

, S/ u' Q! w) e8 D( w简       介

6 z  B' f3 n1 R( T6 q7 X+ s& X9 v! H2 _; y7 _+ s% ?7 M0 K
  灵动的音符与舞步,天真无邪且充满信仰的双眸,开启了一段关于无始劫来轮回不休的沉思之旅。塔庙林立的蒲甘,华丽庄严的教堂,是人类千百年来对神性乃至觉悟的向往。斗转星移,物我两忘,风水雨火肆意涂抹着大地的容貌,所谓崇高的生命在自然的心中不著痕迹,蕞尔不及碎遍三千大千世界后的一抹微尘。只是,颠倒众生,刹那视若永恒,朝夕奔忙,不曾停歇,以污泥、刀锋涂改着各自的容颜。自诩万物之主,左右你我他的生命。从天上到地下,从高山到深洋,征服了如梦如幻的器世界,用光怪陆离的玩具将其装点,终不免在永业的轮回中败下阵来。一切无常,正如华美庄严的坛城,轻轻拂拭,还为尘沙……. j  f% ^2 |* G( r8 {) i" I
  本片历时5年拍摄,足迹遍布五大洲25个国家,荣获2012年读柏林国际电影节影评人最佳纪录片奖。
( g) d- T: E) t3 [4 \, s( o

8 L$ c0 D0 P( K- r
; ^( d" Q) m; o* F
影片参数
! }0 C; o$ e2 p$ G) u) C/ W
轮回4k.Samsara.2011.2160p.WEB-DL.x265.10bit.HDR.DTS-HD.MA.5.1电影信息
; C% k! N" i* A2 [% gVideo3 N  z9 g( u, S: y! G; m
ID : 1* B" \; O! g) Y. M) G
Format : HEVC* }& s5 r) Q$ o! }5 S) f
Format/Info : High Efficiency Video Coding9 X' r/ ^* p* U$ p# Y0 L, J
Format profile : Main 10@L5@High
& h5 |9 P  O9 M' ^( q+ UHDR format : SMPTE ST 2086, HDR10 compatible
- [4 g$ F. V, |% CCodec ID : V_MPEGH/ISO/HEVC% z0 x2 v! `1 E6 E2 v: l/ L
Duration : 1 h 42 min9 t: q4 D  `/ {4 ~( G; H- ^) o5 x
Bit rate : 24.3 Mb/s; {, q8 P9 N# M8 T/ Z0 p
Width : 3 840 pixels
2 E7 Z& \- s3 S6 |" QHeight : 1 596 pixels) \' I" a/ c5 |$ [. u! M
Display aspect ratio : 2.40:1
5 |  z2 Y8 J9 K2 LFrame rate mode : Constant* P: U: v+ o' W
Frame rate : 23.976 FPS
$ x' P& T9 u; N) ^Color space : YUV
7 `- ^0 x1 p* s- O- j) sChroma subsampling : 4:2:0 (Type 2)! ~/ Q$ G0 [9 |5 W& Z
Bit depth : 10 bits  l8 d, w. I1 G
Bits/(Pixel*Frame) : 0.1667 W$ Q9 l& p: L0 C% J  A& _
Stream size : 17.4 GiB (76%)) a6 y8 X8 h9 h( E8 k7 L! h
Default : Yes
- B8 D! ~8 F7 _$ E% `3 @" h% rForced : No
9 Y& w7 v3 r2 ~* hColor range : Limited) L' Q. H. }$ y* X
Color primaries : BT.20207 `0 u- n# X9 Q! o
Transfer characteristics : PQ5 s  t8 Y/ `6 d& \
Matrix coefficients : BT.2020 non-constant4 K: r, G9 S$ {7 J5 N
Mastering display color primaries : BT.20209 O9 |6 T3 E( b" q; J
Mastering display luminance : min: 0.0050 cd/m2, max: 4000 cd/m2! ]. R7 p( r5 H
Maximum Content Light Level : 999 cd/m24 m! ?: }) B7 d* w' q
Maximum Frame-Average Light Level : 468 cd/m2) t6 I4 _1 Y/ N7 [. @1 j3 `
$ L6 y5 o7 k9 {5 j( _3 w
7 b; C. X" U0 w( m
Audio #1% t- x' C4 ]" ~
ID : 2
" g; t6 L8 s) _$ Y  l, H" Z% zFormat : DTS XLL1 j. ^5 F6 k* N. ]: i; Y0 ]
Format/Info : Digital Theater Systems  u4 M# ]. @8 D
Commercial name : DTS-HD Master Audio
" L9 C, n. s; XCodec ID : A_DTS4 @; k- h" _8 Z0 ~  X) S
Duration : 1 h 42 min( L( Z% i- h" _' t
Bit rate mode : Variable
6 Z% U7 n$ V1 g8 v9 @1 PBit rate : 6 881 kb/s
- }0 e4 B+ n) o9 }/ {' pChannel(s) : 8 channels
1 P: ^' G' A1 J' ?- @0 Y9 NChannel layout : C L R LFE Lb Rb Lss Rss* B* J- \5 H. }: y6 n
Sampling rate : 96.0 kHz" E! C  A& ~/ n- f  y8 x; z
Frame rate : 187.500 FPS (512 SPF)
7 Z! c7 k1 \( n# DBit depth : 24 bits% }4 s7 [5 H( f8 L$ K, g
Compression mode : Lossless' @7 I8 a3 @7 v* S
Delay relative to video : 7 s 90 ms- {& K- Q7 g* Z7 ?  X( Y6 P: ^0 l
Stream size : 4.91 GiB (21%)
7 J9 q& ?& u% q2 wLanguage : English1 Q# V! q% p6 a1 N
Default : Yes) \# j1 i( H# d7 ]
Forced : No
$ j4 W4 |& e& v$ L/ e0 |/ @( k. U& A- X1 N9 u7 D
  L* ^( M) Q; q* ^. T: A
Audio #2' F$ |  Q7 e' L$ ]
ID : 3( t. u7 w0 t7 k& Y0 y
Format : E-AC-3 JOC
9 V4 g! |3 h$ j  T) I0 G; z1 QFormat/Info : Enhanced AC-3 with Joint Object Coding7 j- ]" v. ]' {) F+ m; e
Commercial name : Dolby Digital Plus with Dolby Atmos" C4 R% Z+ G. C8 `
Codec ID : A_EAC3  J8 m% O8 S2 p' X% X/ U, I
Duration : 1 h 42 min
7 G. i6 H' F6 X& D5 D+ OBit rate mode : Constant+ e; y& g0 n# \3 r3 B
Bit rate : 768 kb/s
: D/ V' Q  `1 z2 x4 O+ |6 xChannel(s) : 6 channels2 M- ^" d2 t" g8 C3 I
Channel layout : L R C LFE Ls Rs  X9 x9 X; ^- C, p' [3 x1 |, U  H
Sampling rate : 48.0 kHz
' U" L; |! c' S" WFrame rate : 31.250 FPS (1536 SPF)2 `& W& R0 P: L4 G! R2 I
Compression mode : Lossy; o) K5 [3 V6 p' v9 _
Stream size : 562 MiB (2%)# ?" j; o* D  _4 G  R
Title : WEB / Compatibilty
4 g% s+ X8 D3 }0 |8 F8 zLanguage : English% A1 q8 Y0 E! ]3 y3 y
Service kind : Complete Main
. f2 y1 T# E1 V0 J* I6 K! [8 ZDefault : No
. z( _, [( V* Y. ^Forced : No( A6 d3 C$ J" V5 P, e/ l( w& c1 {
Complexity index : 16
* k' f4 u  N  o& j2 E+ LNumber of dynamic objects : 155 n4 P3 a: o9 z1 [0 p- c1 r/ Z
Bed channel count : 1 channel
. G% L9 X  A4 |2 M/ uBed channel configuration : LFE

( |7 x; P8 K! M6 B; K3 u" Z( {+ f% l( a% X/ J

( Z# z; R/ N; N/ S( y$ r: B1 N1 A1 d, q
轮回4k.Samsara.2011.2160p.WEB-DL.x265.10bit.HDR.DTS-HD.MA.5.1电影下载
! F- `: ?. K# F, @) B6 C! z% C- r. a6 Z$ H# P
轮回4k.Samsara.2011.2160p.WEB-DL.x265.10bit.HDR.DTS-HD.MA.5.1【22.84 GB】* v, r  U+ p2 c) j: n

0 d5 p: B! R8 C8 z+ _
' W5 `: X6 A% _1 G轮回中文字幕下载  匹配4k收藏网4k版本
* N1 z; }: U2 @/ Y( b
5 d  u; |  P# F  _
: A2 K7 N- B0 Q6 k

) q3 m; [  \/ r& U3 I) S: Y" o) i. e/ @) @0 j9 `6 q3 @  B( n/ X! F+ t
- p- N. Y" ?  t" j

; p9 [& t. Q8 Q% ~; v) L$ u
登录 发布 快速回复 返回顶部 返回列表