开启辅助访问
 找回密码
 立即注册

胶合板 PoliWood.2009.1080p.BluRay.x264.DD2.0-HANDJOB 7.16GB

#4k记录视频#时间:2023-04-28 阅读:223 回复:0
◎片  名 PoliWood
7 J+ L! A  b; X+ u% H, O; N% H# R◎产  地 美国
$ |: e# _, R( i) ^& @◎语  言 英语+ }* \8 L; D- [: s9 ~* n1 {
◎导  演 巴瑞·莱文森 Barry Levinson
* z% Z) G6 F1 o! ~. u8 @# v  z7 y/ O       斯派克·李 Spike Lee
  {* z1 c0 H) p* a6 ~- ?4 {. f       凯丽·华盛顿 Kerry Washington
! \) [9 ?* ]! H8 d0 G简  介
( i( |+ g) E6 X" i0 q* f
( G2 `* \' N  A* i1 m5 N  An in-depth look at the Democratic and Republican national conventions held during the 2008 U.S. Presidential election year." C7 V) `6 c1 L1 @' R5 H4 m" a
影片参数& [0 p, A+ F, E3 {
Video0 b% l* }5 j  c5 l( S# B- ~
ID                                       : 1
4 Z+ T! d, Y# E) k& ?4 V5 IFormat                                   : AVC1 s6 y9 C5 T' F! A/ [4 k
Format/Info                              : Advanced Video Codec
+ @" `; U$ L4 P6 }3 wFormat profile                           : [email protected]9 V7 w, b6 H% [
Format settings                          : CABAC / 4 Ref Frames6 s0 t7 F" ~7 M$ T3 M$ Y+ B+ p7 e( f
Format settings, CABAC                   : Yes; }, @  L, D+ y0 @0 X" o3 |4 I$ \
Format settings, Reference frames        : 4 frames3 N, \8 S" f" u
Codec ID                                 : V_MPEG4/ISO/AVC
! [, j2 C% [8 o7 v$ E! w0 @Duration                                 : 1 h 30 min
/ o- `8 f7 W) D! M$ d$ Q# C$ W) hBit rate                                 : 11.2 Mb/s
8 `0 H5 Y6 r( }4 @4 x% z: [, S9 _. T; `1 X/ EWidth                                    : 1 920 pixels
" j% z# o* u8 B2 U! b- E! hHeight                                   : 1 080 pixels
. v& |# H% s& rDisplay aspect ratio                     : 16:9
" p; [4 x- [, p8 ?6 WFrame rate mode                          : Constant0 z3 P: m4 [; L  G. K
Frame rate                               : 29.970 (30000/1001/189150) FPS
: h( z* W7 f) y$ l7 p( {Color space                              : YUV# Q- e; w; N/ Z9 u
Chroma subsampling                       : 4:2:0: D( q; w" |& J; M% Z
Bit depth                                : 8 bits
5 b& u; y6 U) Q8 c4 u, d4 gScan type                                : Progressive
' F( w" o# V9 n2 i5 Y' x. kBits/(Pixel*Frame)                       : 0.180
1 h* e# K  M$ h3 A, S2 x+ v' ~Stream size                              : 7.04 GiB (98%)
, g) q! p; |" M& Y& IWriting library                          : x264 core 155 r2917 0a84d98' M! @' q* S( v/ A1 o
Encoding settings                        : cabac=1 / ref=4 / deblock=1:-3:-3 / analyse=0x3:0x133 / me=umh / subme=10 / psy=1 / psy_rd=1.00:0.00 / mixed_ref=1 / me_range=32 / chroma_me=1 / trellis=2 / 8x8dct=1 / cqm=0 / deadzone=21,11 / fast_pskip=0 / chroma_qp_offset=-2 / threads=6 / lookahead_threads=1 / sliced_threads=0 / nr=0 / decimate=0 / interlaced=0 / bluray_compat=0 / constrained_intra=0 / bframes=16 / b_pyramid=2 / b_adapt=2 / b_bias=0 / direct=3 / weightb=1 / open_gop=0 / weightp=1 / keyint=300 / keyint_min=30 / scenecut=40 / intra_refresh=0 / rc_lookahead=60 / rc=crf / mbtree=0 / crf=18.0 / qcomp=0.60 / qpmin=0 / qpmax=69 / qpstep=4 / vbv_maxrate=62500 / vbv_bufsize=78125 / crf_max=0.0 / nal_hrd=none / filler=0 / ip_ratio=1.40 / pb_ratio=1.30 / aq=1:0.70
/ ?* a3 K; o6 L8 B9 EDefault                                  : Yes
# S4 E9 j1 |/ {# FForced                                   : No
+ F8 g; ]  G, L5 d8 vColor range                              : Limited
0 g5 M' d0 G7 \* U1 s; aColor primaries                          : BT.709
: D0 Y! b" a( T1 r8 _% b" L" ]Transfer characteristics                 : BT.709
7 r1 Z9 c6 b* V+ rMatrix coefficients                      : BT.709
# F' G% L: {! K' }; YAudio
5 C+ X. L3 Y# _2 N+ n, q6 KID                                       : 2
) X% k. A$ m0 A$ \2 v5 v$ r3 z9 nFormat                                   : AC-3
; `  E; k2 k' Y- h  \+ lFormat/Info                              : Audio Coding 3
. w8 k" ^  B% ?, _6 r1 \Commercial name                          : Dolby Digital0 i/ I1 Y7 O7 s7 z) d, A$ H2 a" j$ l- K
Codec ID                                 : A_AC3
. q, m+ r# j# c$ C) sDuration                                 : 1 h 30 min
6 |, ?8 `+ |" O- ]  {+ Y6 W4 wBit rate mode                            : Constant" ]2 x( c! ~8 U
Bit rate                                 : 192 kb/s
! @5 i( R  E& T+ k0 }/ RChannel(s)                               : 2 channels0 m5 ]1 }$ n+ e% k3 y, V; X3 W' n
Channel layout                           : L R' T* v- ~% _7 ~2 Q8 v! _5 l6 z: E
Sampling rate                            : 48.0 kHz
! o( ?+ W) D5 x1 Q; U$ DFrame rate                               : 31.250 FPS (1536 SPF)
, O% h" G, d& [  M) ^6 NCompression mode                         : Lossy
" q/ S$ \3 U5 T, S, q! p/ kStream size                              : 124 MiB (2%)4 O7 s$ V/ o: _* E* B" s
Language                                 : English) [4 F/ w( E" W/ A4 f8 [
Service kind                             : Complete Main: F+ e% O2 i) w/ S
Default                                  : Yes2 k7 d5 z- w' u
Forced                                   : No: c  d$ G: j* ^* _" D
Text #1# h6 Y1 w) D9 P7 O
ID                                       : 3
% o* y9 N; v7 @, b; JFormat                                   : UTF-8
/ n- }) G. T' B& k* KCodec ID                                 : S_TEXT/UTF8
, m7 W, N- D& w; ^Codec ID/Info                            : UTF-8 Plain Text
7 S& _2 f: L: D) }" ^4 s- LDuration                                 : 1 h 30 min
6 C! a- n6 r3 }: R$ {# M7 UBit rate                                 : 104 b/s9 x. G& b8 D' _6 W; W. c) d
Count of elements                        : 1893
2 W7 S7 _% I# [& M4 qStream size                              : 68.8 KiB (0%)
, D- f* U# M: X+ B' E! V, m. }Language                                 : English
" p( w% q1 R/ H* nDefault                                  : No
1 H" x+ Q" N( f3 p3 ^# R2 u4 QForced                                   : No5 m. h; M, ?- @
Text #2
/ j; h/ }+ B4 rID                                       : 4) ~3 g' l5 _& n# S1 K
Format                                   : UTF-8) d$ n( X$ ^5 k' P9 u, {, n
Codec ID                                 : S_TEXT/UTF89 g, G# A6 Z$ k; z) a
Codec ID/Info                            : UTF-8 Plain Text
% j& ~; Z# s" S- ?Duration                                 : 1 h 30 min
- B5 f  h8 U: p1 [5 p. YBit rate                                 : 113 b/s
; s) Z! j6 n6 v- FCount of elements                        : 2126- Z. p+ l6 j6 |+ C$ y& U1 a
Stream size                              : 75.1 KiB (0%)8 `6 A+ H: N1 I. D
Title                                    : SDH
2 d' A. f9 ?3 i% ILanguage                                 : English7 M( ]- J# w+ V% ^& f. L3 D
Default                                  : No  o" L3 S& w. N; H9 P
Forced                                   : No9 d& v+ H7 A2 M2 O1 s
Text #3
6 m/ S8 P- P6 F% l4 B& m: B# {ID                                       : 5. ?( `4 i. `! n  E- t
Format                                   : UTF-8
$ A  i) h# l# R( ]Codec ID                                 : S_TEXT/UTF8$ h) l( f3 m; }' ?9 L8 g
Codec ID/Info                            : UTF-8 Plain Text8 Q3 m' _8 V0 [; l
Duration                                 : 1 h 29 min; J. ^) u8 \. _0 A( c( W% e
Bit rate                                 : 111 b/s1 E# X8 ^5 y1 L0 j2 l
Count of elements                        : 17872 I5 ~% }" j8 R. [. ?
Stream size                              : 73.2 KiB (0%)9 ]7 K* O. B4 P2 d2 i: y( H
Language                                 : Spanish
9 Z( }* ^: v2 N! e" `' CDefault                                  : No
; B  O% s+ n+ i! n1 S! }( i/ z# xForced                                   : No* \% n& T8 ?3 ?& ~" A% s7 u# a
Menu
& F3 P0 _* l3 I# y4 x" |' O1 u00:00:00.000                             : :Chapter 1
3 f" y& b7 x! r4 G3 e+ X! |" V00:13:24.871                             : :Chapter 26 A( p' R. C2 V) v2 M$ p& u% ^4 B& N
00:25:01.066                             : :Chapter 3
% y5 @1 d/ d! @) {+ L& |# ]2 e) D3 q( O00:36:21.446                             : :Chapter 4
: o8 i0 T( V- u* t3 ?1 \00:46:40.064                             : :Chapter 5# v5 R/ y. w. t  ?
00:58:42.119                             : :Chapter 6
; O- r( |- o( m9 X: L0 {01:09:42.779                             : :Chapter 7
$ y5 m+ @+ c" H$ I0 _01:20:36.398                             : :Chapter 8
7 a! ]! l# M1 L% `( @' C5 }6 f
# A' u' E$ w9 N$ J

) j& G- ^* ?' @( Y5 s& v/ R  C. B- }
112618gmpp5op4ojpy2o4y.jpg.jpg , c$ `' q+ B, u9 R8 P( y
112620sardkm5svjv4vp7m.jpg.jpg & v' r8 `& g' d' H

$ q' d; f$ x: G$ v, ?4k收藏网提示您 点击下方附件名称 即可开始下载
* {6 K- v6 k! l9 \. |
% X0 s1 J. D5 p( m! n3 h8 h: Z胶合板 PoliWood.2009.1080p.BluRay.x264.DD2.0-HANDJOB 7.16GB; ?3 x. ~* Z2 r

PoliWood.2009.1080p.BluRay.x264.DD2.0-HANDJOB.torrent ( 18.51 KB )


" P- R' W+ Y, Q" E$ j
( K! x  X7 l& @9 f- u' {' ?; L5 _. o. O$ H1 Y3 s& H- g2 |
* Q+ S+ e5 f- n, W$ @) L5 C
$ `" X( u0 Q6 A7 {4 P* p
登录 发布 快速回复 返回顶部 返回列表