开启辅助访问
 找回密码
 立即注册

一直游到海水变蓝 Swimming.Out.Till.the.Sea.Turns.Blue.2020.CHINESE.1080p.BluRay.x264.DD5.1-EA 12.80GB

#4k记录视频#时间:2023-04-28 阅读:223 回复:0
9 b8 J0 ^2 U& C* o3 r3 }
083714m5h3sdtbbhgz9ei9.png.jpg # b* }# ]/ ?1 G1 S. T4 N7 e
◎年  代 2020
( b9 ]2 w1 k! S1 Z◎类  别 纪录片- s' r+ k7 g; G* j
◎上映日期 2021-09-19(中国大陆) / 2020-02-21(柏林电影节)
/ V# W9 @4 K( ?; Y◎豆瓣评分 6.7/10 (51694人评价)( U) m5 j! ^- X
◎片  长 112分钟
% E: g7 L) V) c2 N/ ?$ h◎编  剧 贾樟柯 Zhangke Jia 7 o  n& C( q3 u- H
◎演  员 贾平凹 Pingwa Jia$ A# W+ P# `) l7 i) j* T/ h
       梁鸿 Hong Liang
3 W6 N# \4 H3 s) Q       莫言 Yan Mo# R0 G: P. ~* i
       龚宇 Yu Gong8 d  V/ e' {( W0 M. S% Z: M
简  介
. T1 }/ |. Z& z6 ~" D* `
( S& U2 x' R8 B9 y( `# t9 o& v' Y1 O9 b% J' f+ T0 n

0 Q6 ^% C7 t% A$ B7 F% @: ~  第4届平遥国际电影展 (2020)
$ J; K2 \9 p: B/ C6 t  第13届澳门国际电影节 (2021)7 X" F- _* _0 s7 e0 t
   └──贾樟柯 (id:1274261)8 m. N3 a5 E. Z; e
  最值得期待的华语电影(提名)
2 t; `; x1 z2 F) C: J2 Y$ Y" j
6 N* G8 i& u) o3 C6 ]
Video
" t6 P/ o8 B0 GID                                       : 1+ `: B" X6 [- X
Format                                   : AVC6 n% o& L! P. r
Format/Info                              : Advanced Video Codec; ?, f8 d* o8 \0 _
Format profile                           : [email protected]+ _& j# i) Y$ C0 \# C5 s4 h
Format settings                          : CABAC / 4 Ref Frames8 g+ Q7 O0 b; ]% ]' f9 Y0 Y6 T
Format settings, CABAC                   : Yes
. b4 _) ^7 I( W# n& J2 _. R. [5 y) WFormat settings, Reference frames        : 4 frames
6 V" R" m7 d3 C. ?* m. ?' k  \Codec ID                                 : V_MPEG4/ISO/AVC
: p# J7 l3 |2 r) ]0 ?, wDuration                                 : 1 h 52 min
! A  k2 n% u7 H. v4 PBit rate                                 : 15.3 Mb/s% b8 f& H. w8 b$ g, r) c5 [
Width                                    : 1 920 pixels2 t( W1 Z: z# F  W1 I* ?( z/ v
Height                                   : 1 038 pixels
! ~( {; q. |6 S5 c7 bDisplay aspect ratio                     : 1.85:1
/ f; Z4 N, v! o! H. PFrame rate mode                          : Constant5 v- ^, g/ c  k1 \+ r1 x& m1 N
Frame rate                               : 24.000 FPS
# A3 k, x7 a% M: l! Q3 ?Color space                              : YUV: q- g) n  H# g
Chroma subsampling                       : 4:2:0$ K4 g- O& T- {/ n) K
Bit depth                                : 8 bits
2 Y4 b6 l, b4 Q* X$ ^Scan type                                : Progressive
; n( Y% H' P+ H" ~Bits/(Pixel*Frame)                       : 0.320
1 `) k& X$ t9 Y% F7 yStream size                              : 12.0 GiB (94%)1 B+ _& }0 S, ?: |
Title                                    : -EA
$ [/ j* _. j" o$ m' c) z3 HWriting library                          : x264 core 164 r3075+55M 97d28bb t_mod_New [(8 & 10)[email protected] X86_64]
8 P$ V, \/ |( A3 Z3 W# lEncoding settings                        : cabac=1 / ref=4 / deblock=1:-3:-3 / analyse=0x3:0x133 / me=umh / subme=10 / psy=1 / fade_compensate=0.00 / psy_rd=0.97:0.00 / mixed_ref=1 / me_range=32 / chroma_me=1 / trellis=2 / 8x8dct=1 / cqm=0 / deadzone=21,11 / fast_pskip=0 / chroma_qp_offset=-2 / threads=18 / lookahead_threads=4 / sliced_threads=0 / nr=0 / decimate=0 / interlaced=0 / bluray_compat=0 / constrained_intra=0 / fgo=0 / bframes=13 / b_pyramid=2 / b_adapt=2 / b_bias=0 / direct=3 / weightb=1 / open_gop=0 / weightp=2 / keyint=240 / keyint_min=24 / scenecut=40 / intra_refresh=0 / rc_lookahead=60 / rc=crf / mbtree=0 / crf=19.9000 / qcomp=0.65 / qpmin=0:0:0 / qpmax=69:69:69 / qpstep=4 / vbv_maxrate=62500 / vbv_bufsize=78125 / crf_max=0.0 / nal_hrd=none / filler=0 / ip_ratio=1.40 / pb_ratio=1.30 / aq=3:0.85 / aq-sensitivity=10.00 / aq-factor=1.00:1.00:1.00 / aq2=0 / aq3=0
! o" c- J" D( Z8 ?+ [Language                                 : Chinese
% l8 G$ q6 a4 ZDefault                                  : Yes( ~# |% ]) _, }5 W' q
Forced                                   : No. F8 y, C2 K* r3 E0 }' j
Color range                              : Limited. R( \/ A. _, ?" V; {* r$ t
Color primaries                          : BT.709
; b( X4 o* ]# f" gTransfer characteristics                 : BT.709
9 A# U5 q' f9 C! hMatrix coefficients                      : BT.709
. S3 ^  S3 |5 B8 l& u0 ?5 V* v) ~1 ^Audio
* X5 M9 I: P; ?0 }ID                                       : 24 s8 h. O. j& F" ]+ t$ P  u' J
Format                                   : E-AC-3. U" z3 }/ c$ e) |5 ^& A
Format/Info                              : Enhanced AC-3
* X' G9 X% n/ W4 d! ^* J  V* oCommercial name                          : Dolby Digital Plus
3 ?! V$ Z  K' `  u7 Y& wCodec ID                                 : A_EAC3
8 a. V6 ]+ ~* u) M' ZDuration                                 : 1 h 52 min- y' M$ O2 G7 w3 J; A2 w  j. T
Bit rate mode                            : Constant
; U( \6 u+ [8 G- A- P3 R( _. {Bit rate                                 : 1 023 kb/s8 z, x* D3 N0 t7 Q0 h( m) n' R9 Y
Channel(s)                               : 6 channels+ y5 b, M/ J9 ?, \9 K, [2 Y3 [* {2 |4 _
Channel layout                           : L R C LFE Ls Rs3 w8 f0 V2 V  x* b0 d
Sampling rate                            : 48.0 kHz. P. f1 u4 Z4 C- ?1 P
Frame rate                               : 93.750 FPS (512 SPF)
& D( U- W$ O  h; _0 @Compression mode                         : Lossy
( v$ J$ E% ^# `% C! B$ g. dStream size                              : 821 MiB (6%)1 i" I7 r- r4 H/ v1 [
Language                                 : Chinese
  M" |  r+ a- x& G1 CService kind                             : Complete Main
* N+ j# I. ^. g  B# u0 kDefault                                  : Yes6 ]1 t* L1 s* G* w3 |! J  q
Forced                                   : No
* W0 C- J1 c2 c+ W. ?Text #1; ]& z2 `3 e& v5 ]
ID                                       : 3/ o1 x: ?. v- |
Format                                   : UTF-8
9 q8 s9 N3 H5 B% c) f  pCodec ID                                 : S_TEXT/UTF8/ v7 s6 w/ b! d  B* B9 v1 H' _8 w
Codec ID/Info                            : UTF-8 Plain Text) _5 f6 i3 z5 ^- j+ y9 b
Duration                                 : 1 h 47 min, O# E5 v, B  y) o
Bit rate                                 : 68 b/s
5 o: w" d, [* `* |2 r+ FCount of elements                        : 1562
; N( h' I& L$ h4 w% `' wStream size                              : 53.5 KiB (0%)7 m$ v5 W0 z1 M$ d% G7 z9 ?( N
Title                                    : srt% M! `1 U7 ~3 G( c& b& W6 S$ p! j
Language                                 : English: V( p, K9 O' f- t+ F
Default                                  : Yes
1 z) l# L/ r, b  [Forced                                   : No( x( n+ c; T$ {& Q4 k
Text #2) s# w6 t2 ^! Y$ G' s" O) Q) i) j% ~
ID                                       : 4
8 l& F2 s- l  Z0 _Format                                   : PGS" O! t7 F7 {" u" M7 ]8 x
Muxing mode                              : zlib
7 @& S$ S4 p$ T7 ~1 mCodec ID                                 : S_HDMV/PGS# A8 T& W% [  E
Codec ID/Info                            : Picture based subtitle format used on BDs/HD-DVDs7 D2 o! \8 W; F0 U
Duration                                 : 1 h 47 min/ ~# ]) i7 h& `3 J
Bit rate                                 : 42.1 kb/s+ L1 C! T6 ?4 c/ x3 ?
Count of elements                        : 3124
5 f+ s+ c) @& [- ^Stream size                              : 32.3 MiB (0%)9 |' E7 Y+ Y- ^/ R* G3 @7 ^
Title                                    : sup, X: {8 N7 j0 g& X0 y2 c
Language                                 : English& R  l5 @& g( Q* S9 I, u
Default                                  : No4 f" I# L3 c9 q& ?9 Y: x1 u
Forced                                   : No
! V& j+ d4 {; D2 O; ZMenu% t2 ?% e4 x. N5 Y* |8 \7 k
00:00:00.000                             : :Chapter 01
  `* x% W5 Q0 C9 E00:16:59.708                             : :Chapter 02( |4 ~- ?. ?% W. O5 i
00:19:23.500                             : :Chapter 03
) p3 M+ P: V3 ~$ Z9 a00:26:10.083                             : :Chapter 04
2 |" U( j+ l& w5 x7 l1 d7 B00:27:52.750                             : :Chapter 05
) h* [6 o8 `, G' Y2 H5 _00:31:50.125                             : :Chapter 06
  j8 I% C; T3 X, f* x4 O& R* v# s7 R00:34:07.083                             : :Chapter 074 n3 B% B& \1 ^6 v% L: j$ d% s- _7 g4 x
00:38:36.458                             : :Chapter 08% _' s0 e7 C2 Y" C9 @
00:55:05.125                             : :Chapter 099 A5 Y5 U& x9 L0 K7 j
00:57:55.125                             : :Chapter 10
* I! ^: D- a/ K, C2 [$ ^4 y01:17:42.833                             : :Chapter 11
, R. q( z6 q! M- `. X" k01:20:58.542                             : :Chapter 12
" e9 u$ k  C. j, G01:26:57.708                             : :Chapter 137 x) X) E/ N8 `$ \! N2 e  B
01:30:34.583                             : :Chapter 14
. g0 Q) v7 C! S: e# n. B01:35:42.083                             : :Chapter 15* S4 y2 P1 I$ k8 s' U' B
01:42:20.292                             : :Chapter 16# h/ [7 i8 b  {( {2 ~. [) u/ V0 z/ w
01:44:00.500                             : :Chapter 172 M, l* T5 ~, `- ]! J1 Z
01:47:46.250                             : :Chapter 18! W  F1 ~. Z  V! f& m* ?: ?* R
01:48:22.292                             : :Chapter 19
! f- f1 F5 @% e5 ~

* x0 \0 Q0 v; G8 g: v) d/ c3 x- s2 V) e5 n
083900gfprz40p4drqzm2h.jpg.jpg
8 G& O& o1 s0 F( I- A+ E3 o, j 083902cq5o60q7tj7jqh5f.jpg.jpg , O6 f% M7 {- |; x

, Y# A2 m4 ?' L( b4k收藏网提示您 点击下方附件名称 即可开始下载
6 C7 _0 V- j% V2 p1 b& ~
4 _1 s$ C( D+ [8 p1 y$ u/ s2 v一直游到海水变蓝 Swimming.Out.Till.the.Sea.Turns.Blue.2020.CHINESE.1080p.BluRay.x264.DD5.1-EA 12.80GB
& E2 M9 C1 k  Y  a

Swimming.Out.Till.the.Sea.Turns.Blue.2020.CHINESE.1080p.BluRay.x264.DD5.1-EA.torrent ( 16.66 KB )

- \  Z* {6 Q$ \! k
) l- R: k. a4 J# X" Y0 d
7 h+ k% k/ G$ `
* L( ]7 o) u$ O
登录 发布 快速回复 返回顶部 返回列表