开启辅助访问
 找回密码
 立即注册

Rush乐队:时间停止 Rush.Time.Stand.Still.2016.1080p.BluRay.x264-TREBLE 8.25GB

#4k记录视频#时间:2023-04-28 阅读:170 回复:0
122913r43f5zz4a5wzaos2.png.jpg
  m/ @9 f4 `+ r4 g' X* w0 b◎片  名 Rush: Time Stand Still
, O2 I9 ?. b0 P, @1 n+ I◎产  地 加拿大+ v" V9 ^1 Y+ x- a
◎语  言 英语8 w9 [) c: @4 i7 B
◎片  长 97分钟
/ ?( ]( {" f  J% I" ~# m, l  An account of the final tour of the band Rush, including in-depth interviews with members of the band, the crew, and various fans.- C0 @% J, y  U! s
+ V0 k2 K% G2 o5 \
: I# u6 ^5 Z" }
Video% U: y6 V$ H* T- S! r  ?1 X
ID                                       : 11 e5 W  S# e. E* `& Q+ e: z: j
Format                                   : AVC
. p4 m% T" [* L; o- c5 {3 OFormat/Info                              : Advanced Video Codec
( |: j0 Q2 G9 |1 X$ v- ^Format profile                           : [email protected]- L+ @" q5 H: O# O6 z2 o) L
Format settings                          : CABAC / 4 Ref Frames
$ l8 Z) |% W* w% _; Y& G% {* ZFormat settings, CABAC                   : Yes
+ y# I5 d4 C- r9 F; n% I3 |Format settings, Reference frames        : 4 frames
# i5 C1 @) j8 {& NCodec ID                                 : V_MPEG4/ISO/AVC
1 P7 z2 N  |8 p- fDuration                                 : 1 h 37 min. |5 x* p7 p: z0 m
Bit rate                                 : 8 534 kb/s
$ l0 U- u# Q9 zWidth                                    : 1 920 pixels
6 h9 _) |! z) e/ ]Height                                   : 1 080 pixels
/ d' ^3 q* O* o+ t( pDisplay aspect ratio                     : 16:9* x  s. b. j5 [& y! X, @' l$ e* h
Frame rate mode                          : Constant
& }: N0 t$ }+ @3 ]3 uFrame rate                               : 29.970 (30000/1001/189150) FPS
5 D6 I* J# f' A! m* i) VColor space                              : YUV
9 U, y! D' L7 m$ t8 {( sChroma subsampling                       : 4:2:0
/ \) s7 B* X+ p& \Bit depth                                : 8 bits
3 ~( d2 o* m' M8 k- A& iScan type                                : Progressive
6 I2 q5 B6 n( M/ e/ e4 JBits/(Pixel*Frame)                       : 0.137
  R" L) S' C$ ~' KStream size                              : 5.84 GiB (71%). K4 k7 p) j% w# t) {2 k% u
Writing library                          : x264 core 164 r3094 bfc87b7/ t- L7 r5 ^, {1 C% C; Z+ U9 w0 `, w5 q
Encoding settings                        : cabac=1 / ref=4 / deblock=1:-3:-3 / analyse=0x3:0x133 / me=umh / subme=9 / psy=1 / psy_rd=1.00:0.00 / mixed_ref=1 / me_range=16 / chroma_me=1 / trellis=2 / 8x8dct=1 / cqm=0 / deadzone=21,11 / fast_pskip=1 / chroma_qp_offset=-2 / threads=24 / lookahead_threads=2 / sliced_threads=0 / nr=0 / decimate=1 / interlaced=0 / bluray_compat=0 / constrained_intra=0 / bframes=3 / b_pyramid=2 / b_adapt=2 / b_bias=0 / direct=3 / weightb=1 / open_gop=0 / weightp=2 / keyint=250 / keyint_min=25 / scenecut=40 / intra_refresh=0 / rc_lookahead=60 / rc=crf / mbtree=1 / crf=21.0 / qcomp=0.60 / qpmin=0 / qpmax=69 / qpstep=4 / ip_ratio=1.40 / aq=3:0.80+ y! c% w* q; A/ f2 F- Z& j# O7 T
Language                                 : English
7 N$ j  U! K0 X. p2 R6 hDefault                                  : Yes1 M9 N, E* C0 V  M
Forced                                   : No: Y% H. R+ d7 G3 z6 N
Color range                              : Limited! ~0 N: ^7 W/ x) n2 U& s$ _
Matrix coefficients                      : BT.709" B0 ^: W" ^5 B1 ]

# q0 W% L- a) {
, M4 ]( z2 R! [
Audio" k# I0 h4 a% u" c! }9 }0 m* B6 N
ID                                       : 2
' b- e8 o- e+ Y1 G6 z; j$ G+ y' uFormat                                   : DTS XLL. \1 _& F4 o: C2 ^1 u3 x; Q
Format/Info                              : Digital Theater Systems
' _7 Z# [8 H# Z! I, _7 u$ \Commercial name                          : DTS-HD Master Audio
% b6 a+ C7 W( ?* `5 UCodec ID                                 : A_DTS' d) c  a! S# Q* A9 ~0 `: T
Duration                                 : 1 h 37 min. u  A* [" t$ U9 \# q
Bit rate mode                            : Variable
9 u, _" Z. u  x; xBit rate                                 : 3 522 kb/s, S2 [& U! n$ S% Z
Channel(s)                               : 6 channels9 O! \3 J7 d2 a' U7 |; G8 h, Y! x
Channel layout                           : C L R Ls Rs LFE
; G0 H' e: R2 T3 LSampling rate                            : 48.0 kHz
# P/ h, w1 \% s* O4 s3 CFrame rate                               : 93.750 FPS (512 SPF)! h' Q+ w$ v. ^! O- w8 V6 k) p
Bit depth                                : 24 bits& g/ T+ e) I  h9 m" V
Compression mode                         : Lossless/ i) W* V' h5 v
Stream size                              : 2.41 GiB (29%)4 a* l7 z8 ^. a0 p3 a
Title                                    : 5.1 DTS-HD MA English
# \- [& y; a' B! {+ C% v  T" a! DLanguage                                 : English0 ^, `- |. I# f( M: F* N' F
Default                                  : Yes6 K' D7 [8 E- o1 ~* s" F
Forced                                   : No
, V' N$ H7 x7 s+ [
8 R) K1 J" J$ X7 b* U2 Z" `
' i+ @0 i. J. V! z7 r# j$ z$ h& B
Menu' P( ?% i' B- u1 y
00:00:00.000                             : en:Chapter 01; l2 z/ ^* Q( M  {. [- l
00:03:08.188                             : en:Chapter 027 c0 I( [: F) n# T- A
00:13:54.734                             : en:Chapter 03
! {0 Z. O# W9 r" X00:22:19.972                             : en:Chapter 04$ T9 V' _5 k- _) H8 J: a5 |
00:27:16.935                             : en:Chapter 05
/ G! O$ z* K% s, F0 Y5 w6 Y% N00:46:15.373                             : en:Chapter 06
6 ^7 }& s& \# O+ @00:55:56.486                             : en:Chapter 07
# F$ E4 K, m7 J' \  i% S8 i00:58:28.271                             : en:Chapter 08
2 ?& j7 ?& e) y5 b  B6 D' t01:05:11.741                             : en:Chapter 09
) j" \6 o! X7 v01:16:16.138                             : en:Chapter 10
/ Q0 |: X- N, ~2 X" {: ]" i01:33:17.125                             : en:Chapter 11

2 ]0 I2 Y- h- C0 I. _
$ m+ m6 [7 \6 `+ \

- Q! E5 v" i# {5 p2 D
( u1 y9 F, S) H3 [ 123016ws87sk83s6szqwss.jpg.jpg 4 A  Z" V: j/ b* q; ]% Y6 o: e

* V1 N7 _  k& w" \0 U4 E% T4 G4 N; f1 |
/ i7 d1 W9 @, q; @
Rush乐队:时间停止 Rush.Time.Stand.Still.2016.1080p.BluRay.x264-TREBLE 8.25GB
  o  t/ j3 M# Q( C# M

Rush.Time.Stand.Still.2016.1080p.BluRay.x264-TREBLE.torrent ( 21.39 KB )

1 O# d6 y  _4 J% f' P" G
: ?( K# g/ [+ s7 F7 o
7 Q2 J) x: }5 Q8 ~1 _
% O! I1 t: G' o$ T
登录 发布 快速回复 返回顶部 返回列表