开启辅助访问
 找回密码
 立即注册

人为因素 The.Human.Factor.2019.1080p.BluRay.x264.DD5.1-HANDJOB 9.18GB

#4k记录视频#时间:2023-04-28 阅读:190 回复:0
123317zgckohtic6zqppoq.png.jpg
+ N# r  v: m2 k" y
1 s; x9 @+ U9 _5 Q) A, @◎片  名 The Human Factor3 i4 m" H4 A8 b1 w
◎产  地 英国 / 以色列5 V. N/ }9 V6 @. \- J1 E
◎语  言 英语0 Q- n9 j$ r/ f
◎片  长 108分钟' Y% B  H) m1 K2 [1 O2 z  {
◎编  剧 德罗尔·莫雷赫 Dror Moreh (id:1292456)) _+ C$ k: ?- J  ^% Z1 Z
 凭借前所未有的与美国最重要的谈判代表的接触,人为因素讲述了过去 25 年的幕后故事,讲述了美国如何触手可及实现不可能实现的目标——确保以色列与其邻国之间的和平。今天,从过去的错误中吸取教训的需求再紧迫不过了。
" ~# d4 M/ R. x+ J! Y/ F3 k3 {" A: p$ B+ r
8 U& D% ]0 }* M  S0 r( _
/ B3 c( y7 i; j. K
Video+ d2 }0 |  o3 C1 ?" k
ID                                       : 1" b5 E. J* y5 l  ~8 b1 n+ T
Format                                   : AVC
3 u1 y: e" {' OFormat/Info                              : Advanced Video Codec
  q+ m$ O" D8 H* O1 }+ y% @Format profile                           : [email protected]
. y6 s5 }& I! z1 L- T  m" x# _Format settings                          : CABAC / 4 Ref Frames2 s; n1 G- S$ V4 t4 J( x. h
Format settings, CABAC                   : Yes# z7 z$ j, {7 s+ d
Format settings, Reference frames        : 4 frames
! S7 O$ \7 }# v" \0 wCodec ID                                 : V_MPEG4/ISO/AVC( l' p; k0 K3 L$ l) {( h
Duration                                 : 1 h 46 min
7 d- f4 b1 {3 Z6 M/ J! JBit rate                                 : 11.7 Mb/s
& O: N! C4 N2 Y4 t2 jWidth                                    : 1 920 pixels
) d9 a0 ]5 p6 ?, S, l; EHeight                                   : 1 080 pixels. c- H6 c8 }  \# h
Display aspect ratio                     : 16:9/ ]6 k* M+ E* U" |% {7 W
Frame rate mode                          : Constant# w4 M/ A- d8 ]4 ?. o7 @
Frame rate                               : 23.976 (24000/1001/189150) FPS
, M& N5 m! a* z5 }; o7 AColor space                              : YUV) Z9 o* x6 z; Q4 m- g# T
Chroma subsampling                       : 4:2:0
* S/ Z5 x6 a/ ?, }8 oBit depth                                : 8 bits/ z$ I3 \1 p$ {/ @
Scan type                                : Progressive# k5 n6 C! ]* K9 M0 R. Y3 s+ V) O
Bits/(Pixel*Frame)                       : 0.236
! T9 P/ ~7 g, }. N9 j. `1 ~Stream size                              : 8.70 GiB (95%)
( |2 f. W7 U3 c5 \( F8 N8 B. lWriting library                          : x264 core 157 r2935 545de2f; q2 H2 u. g' e( y, f* o  h
Encoding settings                        : cabac=1 / ref=4 / deblock=1:-3:-3 / analyse=0x3:0x133 / me=umh / subme=10 / psy=1 / psy_rd=1.00:0.00 / mixed_ref=1 / me_range=32 / chroma_me=1 / trellis=2 / 8x8dct=1 / cqm=0 / deadzone=21,11 / fast_pskip=0 / chroma_qp_offset=-2 / threads=24 / lookahead_threads=6 / sliced_threads=0 / nr=0 / decimate=0 / interlaced=0 / bluray_compat=0 / constrained_intra=0 / bframes=16 / b_pyramid=2 / b_adapt=2 / b_bias=0 / direct=3 / weightb=1 / open_gop=0 / weightp=2 / keyint=240 / keyint_min=24 / scenecut=40 / intra_refresh=0 / rc_lookahead=60 / rc=crf / mbtree=0 / crf=16.5 / qcomp=0.60 / qpmin=0 / qpmax=69 / qpstep=4 / vbv_maxrate=62500 / vbv_bufsize=78125 / crf_max=0.0 / nal_hrd=none / filler=0 / ip_ratio=1.40 / pb_ratio=1.30 / aq=2:1.00
* A# ?8 @+ m+ }- aLanguage                                 : English
; M2 F, F# c9 l: ^7 @6 sDefault                                  : Yes
' N& M$ a7 d4 h( s; s, U9 l8 iForced                                   : No
$ ~$ L6 |7 }  _$ k3 z/ P( GColor range                              : Limited+ ?& ^& Q2 E; V* J
Color primaries                          : BT.709" ]* i7 |. |! O3 O, e7 x" J
Transfer characteristics                 : BT.709
/ E+ p0 ]& E3 {, B. KMatrix coefficients                      : BT.709
1 p' Z( y5 k5 R7 Y" |, ]8 b' kAudio
+ p3 [; N9 }7 [5 J/ N' h: wID                                       : 2* x3 P6 n8 R$ L* v, ^1 H
Format                                   : AC-3
1 e( t7 Q3 ]& l1 @Format/Info                              : Audio Coding 3
. V, D$ W. Y' c8 F# r6 R& ~Commercial name                          : Dolby Digital
3 m" ^) z9 l4 {4 m/ t9 bCodec ID                                 : A_AC3
* J& y  L' f; |( R$ M% f7 WDuration                                 : 1 h 46 min# ]! u( A, X5 h  {& |
Bit rate mode                            : Constant
7 u8 k) x6 @9 f4 r/ @' ]* dBit rate                                 : 640 kb/s
4 ?. e( x4 L) e4 y% b9 TChannel(s)                               : 6 channels3 `9 H8 P' ?( n, z, E$ X4 U% J
Channel layout                           : L R C LFE Ls Rs! G; ^1 X0 j# D! A* d
Sampling rate                            : 48.0 kHz' E7 D  V9 |2 _6 Z0 S, E% w) Y( M
Frame rate                               : 31.250 FPS (1536 SPF)
* r+ N5 n6 |# N& uCompression mode                         : Lossy! o3 w7 }2 |1 d4 p% i9 z2 o
Stream size                              : 487 MiB (5%)
8 q& e; n1 J" N4 N7 ?- vLanguage                                 : English
: u( h8 g0 E/ p" e+ i% iService kind                             : Complete Main1 l( v3 u% ^& a. p1 h, N
Default                                  : Yes9 u4 q$ H$ d5 p; R
Forced                                   : No
$ o+ v2 ~; X# b. i9 e/ y8 z) w) |. ]Text #1
' K- i; p' x* Y" s/ I5 t% G3 C# D$ PID                                       : 3. a" L. n( |: I# ^
Format                                   : UTF-8- D! Z9 c6 |. g/ L' |! q
Codec ID                                 : S_TEXT/UTF8+ _# F+ z$ I" `3 m  Z" j6 X
Codec ID/Info                            : UTF-8 Plain Text
" X7 t' T) t$ Y* q& Z* jDuration                                 : 1 h 40 min
/ F2 f- K8 F4 z! |+ ?& [( gBit rate                                 : 98 b/s
" `4 _; a+ v3 E# X; x4 mCount of elements                        : 1502
  h: S, Z# k. W5 x. F- K. pStream size                              : 72.6 KiB (0%); v/ ^6 V, H/ g0 I+ q) B
Language                                 : English$ s# h* q* v. J1 r
Default                                  : No) X: g) w6 U) {, [  a
Forced                                   : No0 X6 P4 h8 Q  A, O
Text #2
7 L  I* K- {+ }: a) q% u7 sID                                       : 4; m& _7 ^$ P4 C/ j7 u
Format                                   : UTF-82 |. i# A2 q. Y3 Y
Codec ID                                 : S_TEXT/UTF8$ e+ T, i" }( X, B/ ^& i
Codec ID/Info                            : UTF-8 Plain Text' j4 C+ q& G9 B$ W! C+ {& G/ S
Duration                                 : 1 h 41 min
" W$ j* \5 N" ]6 MBit rate                                 : 103 b/s' W, Y; s+ Y; j; L5 O2 c! j1 k! L6 Z
Count of elements                        : 1588
, q; o" k: [2 }. YStream size                              : 76.9 KiB (0%)& V0 a: q1 o- f4 S, N5 f$ G
Language                                 : English
. P* G/ Z8 A5 X& KDefault                                  : No
7 A  l! x6 B: J8 \+ Y6 i+ BForced                                   : No
6 n, ?% b% t" V( m1 k! I& ~8 u, ?Text #3
5 A7 [2 g2 s. d  m! C( n9 @" OID                                       : 5- g; X* k. K, o
Format                                   : UTF-89 s, b& p6 {  Y2 \) d* b+ C) G
Codec ID                                 : S_TEXT/UTF86 o8 j6 |7 p  {) O
Codec ID/Info                            : UTF-8 Plain Text! e+ I, J) {- Z; q: c8 t8 c8 O
Duration                                 : 1 h 45 min8 r3 H" E2 F- F; k( p
Bit rate                                 : 89 b/s
% A* x' T! ?8 O# r* Q( V- ]Count of elements                        : 15422 X# K6 @$ [. j6 G6 Y5 t
Stream size                              : 68.9 KiB (0%)
5 G8 u/ L- w5 @3 R+ V  vLanguage                                 : French
; Q8 S* O/ `+ \$ nDefault                                  : No
) e) E2 D& h) p* C" ~) oForced                                   : No2 Q+ K4 {& t- x: a6 r5 _7 s. T
Text #4& ~" v' |9 q8 A- l) G
ID                                       : 6
  W% e* i! Z: n) Z: S( U/ LFormat                                   : UTF-8
. \$ C5 |$ M4 M# d7 S2 t3 sCodec ID                                 : S_TEXT/UTF89 Z; g6 n" U  B% Z0 ]
Codec ID/Info                            : UTF-8 Plain Text
. [; _4 E0 W2 a2 T1 wDuration                                 : 1 h 45 min$ y) P, {' K/ P: f, I. r
Bit rate                                 : 85 b/s7 X3 i) w3 g3 l- K. h
Count of elements                        : 1566
1 y- S5 h6 S9 X+ [! M7 `Stream size                              : 66.4 KiB (0%)
! a, E: D$ U' V4 DLanguage                                 : Spanish& p; |, b! b  V4 g/ L% y% }# a( A
Default                                  : No
$ X2 h* g, d$ l% B! t3 p8 w3 QForced                                   : No9 J. J& p7 Q1 e
Menu
. p. g) `* P8 l& ]% @; v9 z00:00:00.000                             : :Chapter 1
$ z4 A& W' P- ^7 v* g/ ~00:10:02.018                             : :Chapter 2/ ?% W# i0 [. E* s6 J9 R
00:20:04.787                             : :Chapter 3
, Q& V- [6 Z$ r0 _) M00:30:03.343                             : :Chapter 4* @* i- o- W6 Y% u6 u
00:40:04.027                             : :Chapter 5
5 l" `. I- T# s* K5 }' J. D00:50:04.168                             : :Chapter 6  B+ b7 r: V7 `9 L8 b
01:00:04.643                             : :Chapter 7- v* U0 V$ u( P3 t$ w* R" t
01:10:01.906                             : :Chapter 8, x& X6 E4 W4 k4 W5 n9 F
01:20:03.340                             : :Chapter 91 {3 r8 e* C) ^* D+ k5 M6 r7 R
01:30:08.320                             : :Chapter 10$ d" P+ i, W' M! Z
01:40:07.919                             : :Chapter 119 ?( `5 A* D/ F7 P1 v
01:42:06.662                             : :Chapter 12

- @5 ^5 h3 `5 d% l; X' p  l6 U  `+ \" x# {5 g9 X
, g) X7 r5 e# S2 p1 c) i# x2 U& U
' ]* M5 E4 p- y, o
人为因素 The.Human.Factor.2019.1080p.BluRay.x264.DD5.1-HANDJOB 9.18GB
5 y+ `$ \$ D7 q: R- P! i6 P! _; S0 C

The.Human.Factor.2019.1080p.BluRay.x264.DD5.1-HANDJOB.torrent ( 23.59 KB )


. }- o7 @6 J9 f3 t; x$ T( z1 e6 H$ \% T% h& A4 K

: X: R7 _6 z. @
登录 发布 快速回复 返回顶部 返回列表