开启辅助访问
 找回密码
 立即注册

芬妮和亚历山大的诞生 The.Making.Of.Fanny.And.Alexander.1986.SWEDISH.1080p.BluRay.x264.DD1.0-EA 17.03GB

#4k记录视频#时间:2023-04-28 阅读:208 回复:0
124533t30q0i3x351i10nt.png.jpg
5 A5 [( j/ a0 Q+ f, q◎片  名 Dokument Fanny och Alexander: Q* b1 e/ o+ M/ @
◎产  地 瑞典: B8 W) H+ v8 o: O+ s
◎语  言 瑞典语. {) w6 X* B* J2 B  A: h
◎IMDb链接 https://www.imdb.com/title/tt0090955/
' w7 H5 P1 j5 {8 I1 h" ?◎豆瓣链接 https://movie.douban.com/subject/1449473/3 ?8 }) `5 W2 ^: W
◎导  演 英格玛·伯格曼 Ingmar Bergman (id:1054526)
$ a! y& F: o, u: [3 \* e% ]◎演  员 英格玛·伯格曼 Ingmar Bergman (id:1054526)$ ]5 @2 Z; v* Z2 g
       古纳尔·布约恩施特兰德 Gunnar Bj?rnstrand (id:1041602)
+ o6 C( @8 |% y1 Q# P       阿娃·弗洛灵 Ewa Fr?ling (id:1023012)/ |/ t9 G7 N2 f- |+ |5 ?8 w+ ~  u
       Lars Karlsson Lars Karlsson (id:1021359)) ^8 f- q; ]- D  x, X) P
       彼得·希尔特 Peter Schildt (id:1138052), X+ p: m+ x8 i0 _1 e1 i+ a
       克里斯蒂娜·阿道夫森 Kristina Adolphson (id:1059073)% `9 q! t% X) d+ A# p% s4 p
◎简  介
+ o5 X( v. `9 a! r5 F! b4 G/ c! H' C: N9 p) q8 F: y
  这是一部长达110分钟的纪录片。伯格曼在拍摄代表作《芬妮和亚历山大》的同时也制作了这部《芬妮和亚历山大的诞生》。()这部制作特辑单独发行了DVD——还是双碟。由标准公司2004年11月6日发行。
9 `8 @- l* t- n  {. C
) r! G/ U- U+ J, A. d# W1 F
Video% m- [) ~! e1 {& V7 e! M- o
ID                                       : 1
# }3 M$ O( V$ S0 y5 f  \; p% U, gFormat                                   : AVC( |3 {1 D1 _3 J; F/ C5 s5 ~# p& n
Format/Info                              : Advanced Video Codec1 [: z  l! V  r5 i, q) f2 L0 L
Format profile                           : [email protected]
% k. P, X9 U6 ?7 |* EFormat settings                          : CABAC / 5 Ref Frames
5 ^: @9 T4 }' E# X8 @1 RFormat settings, CABAC                   : Yes
$ N1 T- h+ Z1 F2 s( V; K9 g7 hFormat settings, Reference frames        : 5 frames
- }5 d# a- l. B4 O# x  CCodec ID                                 : V_MPEG4/ISO/AVC
* C6 W$ w9 s2 C* cDuration                                 : 1 h 49 min; m5 j! D- G1 `$ L' N
Bit rate                                 : 22.0 Mb/s
4 [4 w6 D1 u$ x6 u. H0 l! ZWidth                                    : 1 436 pixels
3 B; _. c! }5 u. {! {- a) ^Height                                   : 1 080 pixels: C' c) `; D# q, M% p
Display aspect ratio                     : 4:3
8 g( u: [! f9 U/ s2 L& u# OFrame rate mode                          : Constant* F5 O8 U  H7 g  ~) K
Frame rate                               : 23.976 (24000/1001/189150) FPS
  M7 e- f2 J' a9 ]6 QColor space                              : YUV
% H4 E- E5 r$ c3 w2 ^Chroma subsampling                       : 4:2:0
6 E) A0 {" K4 rBit depth                                : 8 bits
" x; A" \& G' h& M' ~2 qScan type                                : Progressive8 y" X$ p' C& c! i: V* j& {
Bits/(Pixel*Frame)                       : 0.5928 U" p, C) k2 [6 `" Z$ f7 J* S
Stream size                              : 16.9 GiB (99%)
9 |) p0 v. h* O4 Y7 `5 eTitle                                    : -EA
3 m. Q. S2 s# D; Y* IWriting library                          : x264 core 159 r2991+49 524a90c t_mod_New [[email protected] X86_64]: [% c# M4 ~; ~3 v4 ~) @* }) P1 t9 d" h
Encoding settings                        : cabac=1 / ref=5 / deblock=1:-3:-3 / analyse=0x3:0x133 / me=umh / subme=10 / psy=1 / fade_compensate=0.00 / psy_rd=1.08:0.00 / mixed_ref=1 / me_range=32 / chroma_me=1 / trellis=2 / 8x8dct=1 / cqm=0 / deadzone=21,11 / fast_pskip=0 / chroma_qp_offset=-2 / threads=18 / lookahead_threads=4 / sliced_threads=0 / nr=0 / decimate=0 / interlaced=0 / bluray_compat=0 / constrained_intra=0 / fgo=0 / bframes=10 / b_pyramid=2 / b_adapt=2 / b_bias=0 / direct=3 / weightb=1 / open_gop=0 / weightp=2 / keyint=240 / keyint_min=23 / scenecut=40 / intra_refresh=0 / rc_lookahead=60 / rc=crf / mbtree=0 / crf=19.8500 / qcomp=0.65 / qpmin=0:0:0 / qpmax=69:69:69 / qpstep=4 / vbv_maxrate=62500 / vbv_bufsize=78125 / crf_max=0.0 / nal_hrd=none / filler=0 / ip_ratio=1.30 / pb_ratio=1.20 / aq=3:0.55 / aq-sensitivity=10.00 / aq-factor=1.00:1.00:1.00 / aq2=0 / aq3=0
* V: s+ g& h' ~& n% TLanguage                                 : Swedish7 S* a- @0 L7 i
Default                                  : Yes+ F' v, [  \! h4 O: a% r. w' w
Forced                                   : No3 b# e; k4 t5 F" Q
Color range                              : Limited
/ g+ X$ w; I2 Q* @- D( eColor primaries                          : BT.7093 a2 \( d4 w- D  a9 u
Transfer characteristics                 : BT.709
2 O! Q& {9 p" C' rMatrix coefficients                      : BT.709
3 ~  @  A, K7 a0 m$ aAudio
& n4 n; ?3 d% U' P6 k( FID                                       : 2
& Y3 I0 e3 u3 O: f& ?: T0 H& H9 a: s+ P1 rFormat                                   : AC-3
, b# y/ x: d" X1 s. {+ O& uFormat/Info                              : Audio Coding 3. X# u9 d+ i& p: s1 V3 O
Commercial name                          : Dolby Digital8 Q! R) P. H, F3 [" {5 }2 r& V
Codec ID                                 : A_AC3# z8 p( }* Z7 w1 q, D1 s+ c0 Z
Duration                                 : 1 h 49 min
/ q6 Y7 h4 M6 n" ]Bit rate mode                            : Constant
5 D/ _; h1 [( oBit rate                                 : 192 kb/s& ?# r* e; N# c& ~$ n" ~  V0 u' J
Channel(s)                               : 1 channel
6 N9 f/ Z' G. ?) y6 OChannel layout                           : C
+ E* j3 U  G' F2 f. a4 r# ~Sampling rate                            : 48.0 kHz5 Y; h7 W: u5 `3 U3 V6 O
Frame rate                               : 31.250 FPS (1536 SPF)
; k8 ^% X* l$ A& d: p( NCompression mode                         : Lossy# s1 {" ~$ N1 a! X5 G/ j4 ^  }
Stream size                              : 151 MiB (1%)& l- z* \3 |  M. c1 S
Language                                 : Swedish8 K8 [6 v4 M& N+ x, @5 c
Service kind                             : Complete Main
2 R1 j  j" u! X; X7 H  `Default                                  : Yes
9 a1 K' U' s- \; U- y1 Q0 KForced                                   : No
3 K% h% v) m& TText #1. e% d9 ^3 t& _* I( j8 \
ID                                       : 39 X$ Y, E) |4 G; f$ {# u
Format                                   : UTF-8) G7 p! d  ?" q. z9 a7 s
Codec ID                                 : S_TEXT/UTF8
: V! \& `0 G6 ?Codec ID/Info                            : UTF-8 Plain Text! t" V. Q2 x+ W6 ^7 `( d
Duration                                 : 1 h 49 min
+ E$ N" t; [- y) M0 @7 F6 SBit rate                                 : 47 b/s
3 c' F# P7 P% [- L- z- o; aCount of elements                        : 11239 H! v3 E; q& u
Stream size                              : 38.3 KiB (0%)8 c" J! v* j4 @" A
Title                                    : srt
# W' B. J4 m" r4 w3 p5 C8 s1 [% CLanguage                                 : English/ t# }1 W0 J9 v$ q$ y% M2 F
Default                                  : Yes
& L" M; b+ \0 a" R- j2 A5 W& eForced                                   : Yes5 W: }2 V2 l: J7 c+ a
Text #2# Q: Y1 L' R: Q% p+ i6 O
ID                                       : 4
/ f. b% P6 S' RFormat                                   : PGS! O* h; }' `  G7 _
Muxing mode                              : zlib
7 o) j& x3 M: [, }% X! ]Codec ID                                 : S_HDMV/PGS3 _5 s% B, o5 g0 V
Codec ID/Info                            : Picture based subtitle format used on BDs/HD-DVDs8 |" \# D7 Q' R: {: B
Duration                                 : 1 h 49 min
+ {2 D  ?6 B6 t: m0 mBit rate                                 : 35.0 kb/s" R1 x2 c/ k) W4 ?
Count of elements                        : 2246. w6 H" M2 c8 a0 `: A
Stream size                              : 27.4 MiB (0%)" Q) g5 Q' R+ t4 ]! ]1 {
Title                                    : sup4 m3 x7 R% N% N/ J
Language                                 : English$ H+ v" b4 `9 c  \- ?' ^6 Z  ?, p. w
Default                                  : No
6 ^5 X' M7 f+ b. R' t; AForced                                   : No( R0 Z0 J2 o% Y5 P* {
Menu; m3 c# ?0 O' E) F' g/ D
00:00:00.000                             : :Chapter 01
( P7 V0 \2 `. ^# w1 T2 T00:03:03.266                             : :Chapter 02
4 H$ r8 {! ~4 s. F) j00:06:59.919                             : :Chapter 03
! h2 ?0 v: K- W5 p( G00:14:46.094                             : :Chapter 04
% h5 b* ]0 |5 g& h; N: V00:23:44.590                             : :Chapter 05% n* n1 l5 g! a# `0 _
00:31:11.203                             : :Chapter 06" W" \; }( f9 q
00:38:48.034                             : :Chapter 074 N: ~! E8 G7 n* F) V: J: x# j) b; b7 Y5 i
00:43:07.210                             : :Chapter 081 d6 E4 }* s! C9 T9 ]  g, ]: z  H
00:47:23.966                             : :Chapter 09
/ P, a" H, \  f2 p5 Y00:57:13.221                             : :Chapter 10' q/ [- A( I+ o6 d3 N/ A& C2 G
00:59:21.266                             : :Chapter 11
+ g6 K/ D; g* b& _9 o3 h7 T01:04:22.025                             : :Chapter 12
! z" y' T$ a- J4 ^01:11:22.028                             : :Chapter 139 z; ~; I( b/ W& q. l
01:15:32.528                             : :Chapter 14
' |; p9 J4 y9 |, V0 P# r, \01:34:26.286                             : :Chapter 15
  s1 c; @7 _. r7 B& \/ `# y01:37:53.910                             : :Chapter 16$ r8 p9 u* w7 p& c
01:45:04.548                             : :Chapter 17
" F+ B' k2 }1 O, t; m5 g' v- }01:46:19.039                             : :Chapter 18

- j- J$ J6 x5 _
3 _: ?" E6 q- V7 e, p4k收藏网提示您 点击下方附件名称 即可开始下载# H* l4 \+ G/ h
2 P: ]! Y& }$ G) @) v. i. O
芬妮和亚历山大的诞生 The.Making.Of.Fanny.And.Alexander.1986.SWEDISH.1080p.BluRay.x264.DD1.0-EA 17.03GB. p! P: N9 M: g/ b; k% p& Q

The.Making.Of.Fanny.And.Alexander.1986.SWEDISH.1080p.BluRay.x264.DD1.0-EA.torrent ( 21.94 KB )


8 Q+ X# J) X5 ?' V
' K0 g* k  p/ [9 ?' x
9 L" \/ }8 I/ T, s5 h( S
登录 发布 快速回复 返回顶部 返回列表