开启辅助访问
 找回密码
 立即注册

水墨 Aquarela.2018.RUSSIAN.1080p.BluRay.x264.DDP7.1-SbR 12.67GB

#4k记录视频#时间:2023-04-28 阅读:213 回复:0
130036wc1wp2ls00lswnlo.png.jpg
" u" I/ O% B# f* r' @◎片  名 Aquarela, s1 P* a. K* _+ S1 G
◎产  地 英国 / 德国 / 丹麦 / 美国
) G' e9 r( B9 J( Y) _" }◎语  言 俄语 / 英语 / 西班牙语7 u3 _6 v: n( E9 q
◎豆瓣评分 7.2/10 (1155人评价)
( Y7 G: d/ l, K% m◎导  演 维克多·科萨科夫斯基 Victor Kossakovsky (id:1010455)$ u9 k( M  L  a! a4 I6 o. g
       艾玛拉·雷克斯 Aimara Reques (id:1428060)8 P+ d5 {, `4 y0 q7 w
  电影带领观众领略水的别样之美和自然之力。影片采用少见的每秒96帧拍摄技术制作,真诚地提醒我们在地球最宝贵的自然环境面前,在自然巨大的力量,变化莫测的想法面前,我们根本不是对手。影片的主角是水,从俄罗斯贝加尔湖危险的冰冻水域,被飓风厄玛带到迈阿密,最后到达委内瑞拉壮观的安赫尔瀑布。导演维克多·科萨科夫斯基以令人惊叹的电影制作清晰度捕捉到水的多种特点。
5 V& a1 F' P! w; t# `; F
  }2 P6 g; q9 |, u2 @. R/ R9 A3 W% ]
# O/ d, j3 H) T: j& \/ _9 _3 T
+ u/ e$ [; O% {- L
Video
- q' b) L0 F$ {) H  O$ n" MID                                       : 1
9 l8 z( a) G7 I; d2 QFormat                                   : AVC
" Q6 z9 e. U, r$ y$ OFormat/Info                              : Advanced Video Codec$ f, ^, `& t; ^
Format profile                           : [email protected]1 t2 v+ N( g1 b* s  k5 ~/ l! F1 a
Format settings                          : CABAC / 4 Ref Frames
' f" ]! h/ C4 ~/ c% ~Format settings, CABAC                   : Yes
8 k' c1 y# N  O# j8 F/ LFormat settings, Reference frames        : 4 frames
7 `2 e* f0 K* [" Y  fCodec ID                                 : V_MPEG4/ISO/AVC( i# a; Q/ |, D; U
Duration                                 : 1 h 29 min0 k# I; p7 |- \2 o/ a% P/ c- C5 b) z
Bit rate                                 : 18.7 Mb/s
: z3 O; T- c( S, x0 QWidth                                    : 1 920 pixels
5 \# [1 ~! M+ Y+ \+ N, t, A% wHeight                                   : 802 pixels; \. h) L8 w$ _9 ~- i
Display aspect ratio                     : 2.40:1
: x# m- f7 }) y: ?! ]" UFrame rate mode                          : Constant0 _, C$ s$ @  C6 e* d2 Z
Frame rate                               : 23.976 (24000/1001/189150) FPS
& _& \7 B" e' @. HColor space                              : YUV
* @. G; s! p8 n7 WChroma subsampling                       : 4:2:0
( i. t; }1 q. ?# PBit depth                                : 8 bits
% O: ?# m) c5 Y( WScan type                                : Progressive, P/ {9 L$ T7 W+ s
Bits/(Pixel*Frame)                       : 0.506
$ }! ~1 U; ~# ^* i5 rStream size                              : 11.7 GiB (92%)+ t5 F' Y8 n- J9 i
Writing library                          : x264 core 152 r2851kMod ba24899: D% M3 l7 k0 X' B
Encoding settings                        : cabac=1 / ref=4 / deblock=1:-3:-3 / analyse=0x3:0x133 / me=umh / subme=11 / psy=1 / fade_compensate=0.00 / psy_rd=1.00:0.00 / mixed_ref=1 / me_range=32 / chroma_me=1 / trellis=2 / 8x8dct=1 / cqm=0 / deadzone=21,11 / fast_pskip=1 / chroma_qp_offset=-2 / threads=25 / lookahead_threads=6 / sliced_threads=0 / nr=0 / decimate=1 / interlaced=0 / bluray_compat=0 / constrained_intra=0 / bframes=10 / b_pyramid=2 / b_adapt=2 / b_bias=0 / direct=3 / weightb=1 / open_gop=0 / weightp=2 / keyint=250 / keyint_min=23 / scenecut=40 / intra_refresh=0 / rc=crf / mbtree=0 / crf=15.0000 / qcomp=0.65 / qpmin=0 / qpmax=69 / qpstep=4 / ip_ratio=1.25 / pb_ratio=1.20 / aq=1:0.60
6 m! @0 O$ f  ^Language                                 : English
2 E0 m; ~7 F5 O: B4 n* l7 D3 _0 K2 HDefault                                  : Yes
9 I0 y! V/ t! _5 p1 BForced                                   : No
( r: c, \5 w7 @, Y0 NAudio2 x* B. [& J3 W& `5 D* X6 G
ID                                       : 2) p- [) ?8 N1 \( a. \
Format                                   : E-AC-3$ A! w5 t: O- G; @# P) ~" N
Format/Info                              : Enhanced AC-30 v4 L8 H. [$ j) q9 m6 `9 _
Commercial name                          : Dolby Digital Plus, S0 c1 z8 p- D0 U9 Q0 m
Format profile                           : Blu-ray Disc
$ u) ^# ?4 v  y$ J# Y+ O! m; ~Codec ID                                 : A_EAC3( n% R% W. k8 f% j
Duration                                 : 1 h 29 min
% d: R, E/ S% e2 ^; ]Bit rate mode                            : Constant
* m7 [4 p) J2 W6 I2 cBit rate                                 : 1 536 kb/s
4 r4 }) V" Z# r# R* N% LChannel(s)                               : 8 channels
) m  o9 I0 b+ U( q; {4 t+ S9 n" v9 xChannel layout                           : L R C LFE Ls Rs Lb Rb  h0 }& G4 O2 ]! h- t$ R. J
Sampling rate                            : 48.0 kHz! ~( G4 ^( W% E4 l
Frame rate                               : 31.250 FPS (1536 SPF)3 N6 t6 m: y3 I
Compression mode                         : Lossy
7 v( A7 J: Z6 |1 ^Stream size                              : 987 MiB (8%)3 _, l% W# z9 s$ M; L/ r, e
Language                                 : Russian
* w3 k7 ?- w& SService kind                             : Complete Main
+ {6 ^2 E& [0 I1 L/ aDefault                                  : Yes
7 g# j6 b3 C- V, tForced                                   : No
8 o7 P$ Q3 f, iText #1
# n/ n5 }1 x. s0 JID                                       : 3- i- }- q7 d% |2 }# H- r1 o8 Z" ?
Format                                   : UTF-8; B: w2 ^9 k! X, \  e% A0 Q' u3 B
Codec ID                                 : S_TEXT/UTF8
! b9 @; S# r5 U; @& J- S1 aCodec ID/Info                            : UTF-8 Plain Text6 [# T  p  f/ M9 y
Duration                                 : 1 h 24 min9 O: \/ c& G) l5 K$ C# t
Bit rate                                 : 1 b/s7 `7 p" G( k/ }* I% U# V
Count of elements                        : 547 M. ^! J4 w: u; A# V$ B5 T
Stream size                              : 1.12 KiB (0%)9 d/ L, G6 J: ~2 G; [  v8 S
Language                                 : English% v: i" i3 h+ r
Default                                  : No' K4 [" A) w7 f3 r2 Z& H( N
Forced                                   : No
1 }( C, E! a% n# [0 ZText #2
  ]; Q" \4 H) @7 Z* x1 U% {& X% \9 YID                                       : 48 J3 m! }* M& {
Format                                   : UTF-8, C2 e) O3 d4 g, d" V! w# t
Codec ID                                 : S_TEXT/UTF8( ]: t" n6 d  P# s
Codec ID/Info                            : UTF-8 Plain Text
3 i2 x: M; |  ~: s5 b! IDuration                                 : 1 h 29 min- M3 P% d4 B# k7 q4 \: @- R
Bit rate                                 : 3 b/s( j" a  @  n" P2 A$ O6 u4 p% n
Count of elements                        : 120
$ U+ n4 `8 N9 m. rStream size                              : 2.20 KiB (0%)
7 [, D, q; _, D4 P# H9 sTitle                                    : SDH  w- g* r. c- Z, j( J( p
Language                                 : English
$ i8 ]% N0 U, jDefault                                  : No' T: ], ?* J  x
Forced                                   : No  K  \0 m1 k9 X: n+ Y6 T
Text #3) w! I4 c+ i. Z6 O
ID                                       : 50 ?( G, K. w- t' I
Format                                   : UTF-8
  Z& [1 {, v# Q' D  ^Codec ID                                 : S_TEXT/UTF8
4 l( ~  ?# ^" z+ c/ sCodec ID/Info                            : UTF-8 Plain Text
4 w2 E. r" m, }) g0 \* qDuration                                 : 1 h 24 min
9 M/ s" n/ D$ N, N/ \Bit rate                                 : 2 b/s( P& R7 U& Z5 W$ M
Count of elements                        : 54
  o; q" @% s9 M1 t; uStream size                              : 1.27 KiB (0%)6 w& \$ J, J, e' B0 N  ^% E9 B
Language                                 : French6 A: Z5 K. n0 ~2 L4 Y, O, {
Default                                  : No3 F7 f7 }2 \( l+ ]% \& d8 z
Forced                                   : No
+ ?' M- g% Z, ~" E/ I3 e; |Menu- d# D  w( |, E4 y7 ~- W3 T
00:00:00.000                             : en:Chapter 019 J; T# i, Q, T: G6 P
00:07:44.172                             : en:Chapter 029 B  t7 s. b: M# s
00:15:26.843                             : en:Chapter 03: }0 g& I, r7 X- h
00:18:41.579                             : en:Chapter 04  G; ]7 e, X; z1 ]$ e" H. u) G
00:22:40.859                             : en:Chapter 05
* @$ z" W/ D& T" \6 o00:27:00.536                             : en:Chapter 060 t7 s& y4 T: g0 r) f" Q
00:32:48.300                             : en:Chapter 07* D/ q8 D5 s" f! l. B6 j  i' D3 ~3 z3 L
00:37:27.162                             : en:Chapter 08, g9 ]( x/ M: N% \# H) [
00:41:57.181                             : en:Chapter 09. o" e9 F* I( F5 ]; l4 ]
00:45:59.840                             : en:Chapter 10; Z% h- T- ~( ]% k! [9 g  K
00:49:04.900                             : en:Chapter 11
& b' @8 a: }& W5 ?1 x00:54:15.502                             : en:Chapter 12
, d7 W& Y6 z1 a! P01:00:04.476                             : en:Chapter 13& ]9 z+ M9 X; U4 _3 h$ Y
01:08:39.240                             : en:Chapter 14, U% u( X1 m- A: l! g' S) C
01:13:13.180                             : en:Chapter 15
/ R5 \" v( B3 G! B- y7 y01:19:35.437                             : en:Chapter 16

9 y5 o1 D5 P0 G% `( K4k收藏网提示您 点击下方附件名称 即可开始下载: a- R& b6 C3 A. Q- |
2 U7 \% ]; `1 K7 V' ~, q
水墨 Aquarela.2018.RUSSIAN.1080p.BluRay.x264.DDP7.1-SbR 12.67GB
: |7 y, E% g+ j% ?) B$ y

Aquarela.2018.RUSSIAN.1080p.BluRay.x264.DDP7.1-SbR.torrent ( 16.47 KB )

! \+ q, t2 p( s6 ^$ Y$ B  e

1 L# A. J# L6 j. Q4 k& p
; y4 c$ P5 P& J/ o  }9 p- P
登录 发布 快速回复 返回顶部 返回列表