开启辅助访问
 找回密码
 立即注册

天穆 Time.2020.1080p.BluRay.x264.DTS-FGT 7.39GB

#4k记录视频#时间:2023-04-28 阅读:205 回复:0
092056lajmqg5qsgjbo5jt.png.jpg 2 m9 J" P; j' c' }$ `& Y* y- |- u/ ]
7 o; ?1 w4 I6 C/ z
   └──加雷特·布莱德利 (id:1353312)! F' D( i: j& m4 R5 l% _0 s
   └──加雷特·布莱德利 (id:1353312)
- o: s1 K6 z! f: V9 |+ V  最佳纪录片制片人奖(提名)
  s& \/ L; C: ~( Z0 y  最佳纪录片: g( ^+ c' Z% ^; u
  最佳纪录片
3 N4 M" \  E: S  最佳纪录片(提名)! ]: V9 B% h% n: u
  最佳纪录片: L9 n' ^; o" X5 [% [$ ]
  最佳纪录片
% a6 _% B# G# H! K5 L  年度纪录片(提名)
% M6 d: b2 Q* ]  最佳剪辑(提名)
0 t/ C; U; u& u) i& h; _) D. C  最佳纪录片+ o5 B  i- }  {/ l- g
  最佳纪录片(提名); i( \# ]. T+ E  E
  十佳影片(提名)
  }- k% y/ P" ^% a3 k. s# p: C' K  第24届美国在线影评人协会奖 (2021). s, O. d$ H1 c! O) w$ Q
  最佳纪录片(提名)
; U) u/ Q# v( ^# n
6 a% q1 C# \' L6 v/ p( s# a- R4 @; e1 o
7 N" E) {$ `4 I0 y6 F2 x
Video8 w4 g0 M% S! P- X* @  t% P
ID                                       : 1; K* o" v7 Q$ [
Format                                   : AVC) C' g- {4 k. A. W; H+ G* L% `
Format/Info                              : Advanced Video Codec# M& Z9 p9 f7 E: O! q
Format profile                           : [email protected]+ \( `' I6 L3 T
Format settings                          : CABAC / 4 Ref Frames
/ p, x$ P. o* NFormat settings, CABAC                   : Yes
2 U  K( Z$ N0 c! z8 O9 WFormat settings, Reference frames        : 4 frames
: {! \/ b, l3 {9 |# o) j: O6 s% OCodec ID                                 : V_MPEG4/ISO/AVC' \7 Q) ?  z/ x) o$ a4 c# y
Duration                                 : 1 h 21 min
/ A1 |9 b# K8 q- S# h2 JBit rate                                 : 11.5 Mb/s
  \! k* m6 {9 Y& _Width                                    : 1 920 pixels; p+ {& n- I* G+ u
Height                                   : 1 012 pixels% O7 @9 q; V* @$ _0 l+ }
Display aspect ratio                     : 1.897' o8 `! y" R/ h0 r. f
Frame rate mode                          : Constant/ c& k, v8 _8 }! ]- d
Frame rate                               : 23.976 (24000/1001/189150) FPS& g) c: C- {! q4 J' z8 R4 }
Color space                              : YUV
& R  F# q+ N8 z6 IChroma subsampling                       : 4:2:0$ `3 e5 }  L- y4 e
Bit depth                                : 8 bits
1 r, y/ m: b& R; JScan type                                : Progressive
; L3 c0 ~' }7 l/ x+ K* {* [9 IBits/(Pixel*Frame)                       : 0.247. }9 J' _% ]$ T# t( Q7 g
Stream size                              : 6.53 GiB (88%)
' c* B# q6 V4 g) a) sWriting library                          : x264 core 148 r2748 97eaef2
3 d) D' H8 m) M) X! B0 |7 h) G( }Encoding settings                        : cabac=1 / ref=4 / deblock=1:-2:-2 / analyse=0x3:0x113 / me=umh / subme=9 / psy=1 / psy_rd=1.00:0.15 / mixed_ref=1 / me_range=16 / chroma_me=1 / trellis=2 / 8x8dct=1 / cqm=0 / deadzone=21,11 / fast_pskip=1 / chroma_qp_offset=-3 / threads=72 / lookahead_threads=3 / sliced_threads=0 / nr=0 / decimate=1 / interlaced=0 / bluray_compat=0 / constrained_intra=0 / bframes=3 / b_pyramid=2 / b_adapt=1 / b_bias=0 / direct=3 / weightb=1 / open_gop=0 / weightp=2 / keyint=250 / keyint_min=25 / scenecut=40 / intra_refresh=0 / rc_lookahead=50 / rc=2pass / mbtree=1 / bitrate=11500 / ratetol=1.0 / qcomp=0.60 / qpmin=0 / qpmax=69 / qpstep=4 / cplxblur=20.0 / qblur=0.5 / vbv_maxrate=31250 / vbv_bufsize=31250 / nal_hrd=none / filler=0 / ip_ratio=1.40 / aq=1:1.00( |8 |- K; I5 L" H" `( M1 ~
Language                                 : English
1 ]/ e0 M0 Z8 h+ K: N/ YDefault                                  : Yes# Z  l% ^6 k) O- i1 b. e
Forced                                   : No
+ A& C6 u3 D, n' oAudio) L' H' r5 Y9 s6 w) d
ID                                       : 2
: X5 t7 T: [! ]Format                                   : DTS# X% o1 }' _$ Q) T
Format/Info                              : Digital Theater Systems
( m$ |! F' _& b. |* T* nCodec ID                                 : A_DTS; h5 {' X* Q# S$ {9 E
Duration                                 : 1 h 21 min
# x8 R4 ~2 V! ~) k% j! GBit rate mode                            : Constant6 Z; I. Q, c! q
Bit rate                                 : 1 509 kb/s
5 o8 O' H& I6 B4 b$ TChannel(s)                               : 6 channels
5 }9 ]: ^8 G  n4 i1 f3 i0 }Channel layout                           : C L R Ls Rs LFE9 V" C8 F9 s+ P
Sampling rate                            : 48.0 kHz3 T( J0 c. Z* C% S" u& e4 K
Frame rate                               : 93.750 FPS (512 SPF)( h  }9 Y, d  F5 ~! `4 g% K6 R: `
Bit depth                                : 24 bits5 p5 h; V2 W+ A: [
Compression mode                         : Lossy
/ c  Y% {9 r/ `1 s- @' H- X2 WStream size                              : 878 MiB (12%)
' i' T0 ?' k  H9 k* ELanguage                                 : English/ n# W2 w) w1 }  a
Default                                  : Yes
4 H" Y6 S. M8 }0 I9 S% Y9 kForced                                   : No
) V& x8 v4 U& ^Text #1
& G4 U: X0 N3 ~2 gID                                       : 37 U' g& Z- \' O0 n0 g5 ~: Y8 s
Format                                   : UTF-8
% t  T' K2 z  O1 V, HCodec ID                                 : S_TEXT/UTF87 I* n8 }1 {' j1 R
Codec ID/Info                            : UTF-8 Plain Text6 J4 ~$ }* B2 n* I$ r/ L
Duration                                 : 1 h 16 min0 @; u. Y/ b% u1 z! z
Bit rate                                 : 79 b/s4 N5 ?3 `. o& T2 F4 A" K
Count of elements                        : 1085$ I, k+ s( X7 }/ b0 `
Stream size                              : 44.1 KiB (0%)
3 j: i7 @( a2 X( SLanguage                                 : English* T3 C! U* p; s5 R% C# h
Default                                  : Yes# G! p% m# |4 T% r- a
Forced                                   : No
& y7 F6 Y& V$ ?" {Text #2
5 n2 W! P; g, c3 k& sID                                       : 4
$ y: e8 c$ E9 bFormat                                   : UTF-8
& ?# v, k  ?8 w- rCodec ID                                 : S_TEXT/UTF8
! f7 L* v  X2 p1 Y" B* w7 SCodec ID/Info                            : UTF-8 Plain Text
% m' T4 }( D8 @7 a- LDuration                                 : 1 h 16 min
$ [" R4 @3 |% D7 h3 KBit rate                                 : 99 b/s
. d# Q$ q8 M1 ?2 u3 fCount of elements                        : 921, n* E3 G+ k. }: C+ T) N; E" `
Stream size                              : 55.2 KiB (0%)# p# A! z" `8 A% g
Language                                 : Arabic
9 n- k' f( R; s, ^9 R6 UDefault                                  : No
; ?3 e6 j7 G- M' \. n2 T$ d0 i; NForced                                   : No$ m& d% E% P) y2 M2 z2 K/ T
Text #3
/ F$ J( l) E" ^. Z% w; a# z( _  TID                                       : 5
) L7 w0 ~2 z3 x6 K" A/ Y% VFormat                                   : UTF-8
- v  |3 [$ V1 m' a  ~/ p8 CCodec ID                                 : S_TEXT/UTF81 i  |8 ^# m, @# F- e- q
Codec ID/Info                            : UTF-8 Plain Text' S" }1 _9 s' \3 i" q# N
Duration                                 : 1 h 16 min
9 a" V/ b' ?( ?; `1 Z( GBit rate                                 : 56 b/s
. ~% m% @0 I& C. X$ tCount of elements                        : 923
- P- Z6 O+ R3 aStream size                              : 31.7 KiB (0%)
$ Z; l1 a4 M* a0 |  Q( S- U6 x3 }9 STitle                                    : Simplified; d3 R+ F$ O) H7 B$ t
Language                                 : Chinese
# a3 x/ N$ t3 p% ?  T4 C1 Q3 [6 mDefault                                  : No" a# H7 g4 D/ a& Z+ r
Forced                                   : No* v: _$ @, y* M; ]7 N$ M- f
Text #4) x+ |8 S6 T1 l& q
ID                                       : 68 s# i) w% K" U' v/ B2 N: @: N
Format                                   : UTF-8# O- t/ p% g& P  s) K
Codec ID                                 : S_TEXT/UTF8, v/ p9 U5 V0 g$ P6 P; h
Codec ID/Info                            : UTF-8 Plain Text* [  [4 M. V" j  B# B
Duration                                 : 1 h 16 min. q3 l) u9 c4 R8 g, Z& D
Bit rate                                 : 53 b/s# L* ?! W0 P' B& r! w9 I+ g/ I0 y
Count of elements                        : 923! w- w3 m4 i" r: i
Stream size                              : 29.9 KiB (0%)9 G1 E  c& p" n9 ?
Title                                    : Traditional% J) L8 C; v+ a7 K
Language                                 : Chinese
9 [2 A% Q% o3 e+ y3 p8 NDefault                                  : No
4 r2 h5 z3 |9 G% R) bForced                                   : No  \: G. n. b5 t2 V, q. u
Text #53 b+ `5 {% a( j
ID                                       : 76 [& x3 `3 |- k1 T8 d9 N
Format                                   : UTF-8
! B( w5 O# B7 q0 }Codec ID                                 : S_TEXT/UTF8
0 \: Y& L9 A% P7 v5 T/ O/ ~8 GCodec ID/Info                            : UTF-8 Plain Text
( ~$ G" W5 u$ j. e" y# k3 w6 TDuration                                 : 1 h 16 min
) S- Y) M3 Q/ w0 S, SBit rate                                 : 62 b/s( _- e, l9 X  p6 S$ H, G/ ~8 V
Count of elements                        : 837
% ?8 \: H" ^' {Stream size                              : 34.9 KiB (0%)
4 _9 v7 j& V# ^- O0 R& tLanguage                                 : Danish: j6 ]$ G4 N1 e* B! i' _( @
Default                                  : No
5 Z5 k. o# ^# v7 \; L3 rForced                                   : No
7 W& ]" a3 {7 {; H" u5 YText #6
, N) C( X# d5 i" a5 r5 b0 N+ pID                                       : 83 B/ C) s; u! C# D% c' ?
Format                                   : UTF-8
8 ?, v0 f/ S: D* \9 r" K9 kCodec ID                                 : S_TEXT/UTF8
8 N% u0 X* D6 O. ]6 F- Y$ N) [' h9 ZCodec ID/Info                            : UTF-8 Plain Text' w9 s5 ?: e4 J5 M+ ~4 r/ X9 A6 W
Duration                                 : 1 h 16 min1 i  Y+ ^9 d/ k+ S; Y
Bit rate                                 : 58 b/s/ S  _/ P; u' m3 G  Y
Count of elements                        : 847- W. U$ K* {5 k" L! l- N
Stream size                              : 32.4 KiB (0%)& O9 c# e0 W2 i2 B5 x0 G
Language                                 : Dutch
+ C8 m0 [. s9 ~2 P/ r0 ZDefault                                  : No
$ U& e  l4 L1 h% z! d# zForced                                   : No$ o' ]7 s; m. i" |
Text #7- I6 C. ^8 [0 p
ID                                       : 9
! N6 f% N$ {. H! k2 wFormat                                   : UTF-89 b% `0 O3 E( o; Q: f7 e2 d
Codec ID                                 : S_TEXT/UTF8, ~  d9 v; @. _$ ^  X
Codec ID/Info                            : UTF-8 Plain Text
8 _9 p, e8 q& h$ B& _' X! g! FDuration                                 : 1 h 16 min8 r4 v+ j% z) h# {. c' n' }9 {0 I
Bit rate                                 : 73 b/s
# g% Y$ P0 D/ ICount of elements                        : 9245 v$ N& M, u* N+ b2 K
Stream size                              : 41.0 KiB (0%)
: T% [, ]5 {- o' H) vLanguage                                 : fil
9 Y' S& Z1 d7 E! J" o; b* oDefault                                  : No
/ \: R4 j9 _- r- B5 O  SForced                                   : No# F9 l$ B8 z% c  R8 c: }, h. j  C
Text #8
& \% i) _4 s) O2 T5 C7 g: B/ P- oID                                       : 10
* |) @: ~1 R: h" R% j* B# Q( L# [% fFormat                                   : UTF-8' n" _  O. s+ r2 M  j7 d
Codec ID                                 : S_TEXT/UTF8+ g% n4 z5 U8 k6 W5 I* ^
Codec ID/Info                            : UTF-8 Plain Text/ I) Q: a+ W8 Y: K
Duration                                 : 1 h 16 min
% j2 G( U* S# OBit rate                                 : 65 b/s
! H2 U+ W" C0 Z, b2 mCount of elements                        : 884, o; K2 l& i( Y# P1 Q7 E
Stream size                              : 36.4 KiB (0%)& T: r, ~# ^" K1 V: l  _9 G" V
Language                                 : Finnish
8 k6 u, @( _. f" kDefault                                  : No
' d* C+ @' n( Q' [( K* f3 bForced                                   : No$ O. z4 A8 r9 [3 K0 x* r  @) Z) Q
Text #9
; o, T. x0 q! e" W4 X0 n( BID                                       : 11
& r% F+ X/ z+ JFormat                                   : UTF-8
+ ~" T3 k' _3 A, ~Codec ID                                 : S_TEXT/UTF8
, Z  Z6 b* |7 PCodec ID/Info                            : UTF-8 Plain Text
# t. l1 D. W0 P& f3 k# \# J' q: _Duration                                 : 1 h 16 min2 E6 q5 X* l- n6 e1 _+ g
Bit rate                                 : 61 b/s! Y# Z! \) f2 m
Count of elements                        : 8947 {1 c7 `8 K( F( t4 n$ c. ~
Stream size                              : 34.3 KiB (0%)& q* b2 P; a: _$ ?" @
Language                                 : French
; F( O& H: p" e$ M/ W( xDefault                                  : No
$ F. m3 y6 [4 ]( PForced                                   : No
  N' ]  z4 a$ g. o4 h$ \Text #10
$ L% X0 `) L8 a6 l& K* kID                                       : 12
. \4 K6 b  T/ nFormat                                   : UTF-8( [) U2 k+ N- U
Codec ID                                 : S_TEXT/UTF8" P% w; g5 D. F1 W3 l5 w
Codec ID/Info                            : UTF-8 Plain Text/ t! Y" L) F& J1 k0 x5 I7 B7 ]
Duration                                 : 1 h 16 min
8 d! V8 y+ ?3 L6 TBit rate                                 : 73 b/s. _1 e4 ]: y' o" Z
Count of elements                        : 922
9 h2 z9 p$ E" T4 ]; X$ pStream size                              : 41.1 KiB (0%)+ f( y* @2 N7 j1 b$ l
Language                                 : German
5 S# q- b/ ^5 K# a) f4 ]( RDefault                                  : No7 e# O0 y9 l% ]4 a6 O
Forced                                   : No# X2 R- R: l7 b' R$ J; K/ x, i
Text #11
5 X! D5 ]7 C* E" H, N2 xID                                       : 13
( [" Z# _3 g* I, k* rFormat                                   : UTF-84 A( D+ E2 [+ N9 ?/ G; O$ C8 e
Codec ID                                 : S_TEXT/UTF8
9 u, V, {+ Y$ b5 JCodec ID/Info                            : UTF-8 Plain Text
6 \+ A" l0 [/ u% ~6 s5 a3 ^1 j' l8 YDuration                                 : 1 h 16 min0 H( i" @7 D4 v2 m& r; v! ^
Bit rate                                 : 97 b/s3 K& w( n( V4 u
Count of elements                        : 9226 j- F' b) O" i" u) k" G, N
Stream size                              : 54.4 KiB (0%)8 `7 V  c" u! M' l8 e0 [
Language                                 : Hebrew3 c! F; e+ @' }& N- S* N
Default                                  : No- g5 {0 c9 P9 V
Forced                                   : No
* m9 Q, q. V% j2 J, UText #12, g- l. m  {! S
ID                                       : 14
5 }; n' ]* r4 [* ?7 V6 K" Y3 D: KFormat                                   : UTF-8
2 y" a" c6 w" p( ]5 `Codec ID                                 : S_TEXT/UTF8
7 o' t' n8 a' }* u1 ECodec ID/Info                            : UTF-8 Plain Text
% Z4 U9 u# a( D; y6 CDuration                                 : 1 h 16 min
2 Y( B+ [2 E8 V( o, M+ M, iBit rate                                 : 159 b/s
1 _6 c0 \9 \5 m5 I! f+ f/ TCount of elements                        : 922
2 e' r5 g2 ^7 q$ I; ~3 H# fStream size                              : 88.9 KiB (0%)" d" F: R% E8 ^2 m2 f3 I
Language                                 : Hindi( Q; \# g: H$ s, v
Default                                  : No3 J- I. }* s7 [! P1 \- D
Forced                                   : No
3 d) i0 N4 H) a5 E) R$ {6 d# l  O5 VText #13
$ R, V5 A# ]; |& SID                                       : 15
6 ~  V0 p# m) w. |Format                                   : UTF-8! G8 O) d% Q! N  E" f9 c5 q
Codec ID                                 : S_TEXT/UTF8
/ e8 w) h" S) g. _# W5 zCodec ID/Info                            : UTF-8 Plain Text6 ?2 B4 d: f  S* |# u& T
Duration                                 : 1 h 16 min/ H* }, _4 E$ F- `$ V( K- m
Bit rate                                 : 70 b/s
! [$ f9 O; Z2 NCount of elements                        : 921
9 ]* o( i1 [) m- aStream size                              : 39.2 KiB (0%)
2 d; r. k9 l5 \3 P7 WLanguage                                 : Indonesian
' q* Y; V; \% n) GDefault                                  : No
5 }1 y/ e' ]- O+ U; YForced                                   : No
9 u- i2 y' b2 S$ CText #14- _: r/ \! h0 P. Z* a: H
ID                                       : 16
% y* K7 ]: C: w, |( v" B$ TFormat                                   : UTF-8. q/ ~( r) V( v" b3 I% @$ Z
Codec ID                                 : S_TEXT/UTF8
2 D. F1 |) a0 G5 r( @7 P3 c- wCodec ID/Info                            : UTF-8 Plain Text
( D) g* ~' I8 N& ?Duration                                 : 1 h 16 min
8 z5 d; g1 T: s1 u' O# a9 |Bit rate                                 : 68 b/s* {7 ?5 X4 U3 u; Q* r3 b
Count of elements                        : 923- D% F* @0 L: W" N
Stream size                              : 38.1 KiB (0%)
+ V* S7 F( w; q4 u6 S& pLanguage                                 : Italian' V% k" }( @: b2 ?% H# r3 e4 u
Default                                  : No1 N, @6 z0 K/ @, u6 y
Forced                                   : No
/ i2 O* |% B5 j5 R8 |Text #15
8 a. z3 E) s- C  x$ c8 Z" ^ID                                       : 17
; ~7 L  V$ }& Q$ H( E0 ?: A1 ~4 s) TFormat                                   : UTF-82 A2 D, q% c( ?2 O2 i3 Z
Codec ID                                 : S_TEXT/UTF8
  ?8 O& ?! F" `Codec ID/Info                            : UTF-8 Plain Text
$ `: Z! r& i8 i& s7 CDuration                                 : 1 h 20 min
5 O* @+ y6 z) }; b) wBit rate                                 : 49 b/s3 ^6 N& J, k+ Z  N* @( f
Count of elements                        : 824
; f  e7 G! B; g9 q" B/ y4 nStream size                              : 29.2 KiB (0%)
* P* J  n: i  O4 {6 @Language                                 : Japanese  T" ]# X! R9 I( Q
Default                                  : No& y2 F. @. A* M: m2 }
Forced                                   : No
$ o/ G: J3 b, Q$ _) p( ?6 d; {. BText #16
7 v" ]3 z1 i6 J% O; p  {ID                                       : 181 s0 q; ^0 n# ^( z) V1 E/ w1 F' k
Format                                   : UTF-8, M! i3 R. C$ ]" R2 n9 P- w" I
Codec ID                                 : S_TEXT/UTF8
* a. F! {% z, P: ~Codec ID/Info                            : UTF-8 Plain Text
2 f- _# C) Y& H. v4 eDuration                                 : 1 h 16 min( F' S' H$ Y: {8 b; F
Bit rate                                 : 70 b/s+ h" i- h/ X/ v
Count of elements                        : 924; E$ T0 P7 U8 [: I, \% w1 k
Stream size                              : 39.4 KiB (0%)
1 ^5 ^9 R! L0 x- q! w6 @) yLanguage                                 : Korean4 x: }! d6 g2 b& ~
Default                                  : No, z& z& D) |5 {" d
Forced                                   : No8 l2 M1 }2 c4 ]4 k
Text #17
/ b  S$ b$ r, O; Y* hID                                       : 19+ H2 ^( `& S2 P
Format                                   : UTF-8
6 s- I- ^# L, i+ C, dCodec ID                                 : S_TEXT/UTF8' ?- }$ p4 I$ j9 q) Y3 b
Codec ID/Info                            : UTF-8 Plain Text6 N& _( ^# S4 l, x* d8 D& T0 M% T5 x
Duration                                 : 1 h 16 min
3 ?; W( I- q4 Z0 z5 d/ x  }Bit rate                                 : 77 b/s" N2 q8 X7 V1 E  A- L" p( s/ `
Count of elements                        : 9309 S/ l( a0 W7 Q* w& J! U, n0 F/ b
Stream size                              : 43.2 KiB (0%)
+ `! Z) w9 f- d. `! iLanguage                                 : Malay
9 u: Z1 s4 B) b' FDefault                                  : No# U6 \$ F& F: Q9 ^( A0 j" c
Forced                                   : No7 o; b+ l* [7 W: F) r% }% A) ]
Text #18
- p2 T2 }8 G( Q8 C' Z- I( s0 TID                                       : 20
! `0 q; |  C! J9 O1 A5 YFormat                                   : UTF-8+ q6 p3 ?0 u5 P& S0 E5 }; u
Codec ID                                 : S_TEXT/UTF8+ j* d$ a; h- Z+ h7 S& P' C% \2 b
Codec ID/Info                            : UTF-8 Plain Text. k+ _3 r1 c7 y5 _6 H$ ~
Duration                                 : 1 h 16 min
: j* D5 k2 r5 D. n% E: q, t+ I' EBit rate                                 : 61 b/s# {; f7 h0 V' m7 b" j2 t! C4 p' Y
Count of elements                        : 874
3 G  C5 m6 p0 _2 Y( rStream size                              : 34.3 KiB (0%)
% R2 D! q- ]; M# f( d6 @Language                                 : Norwegian Bokmal
7 x! k' N1 p, j, c; v9 s6 CDefault                                  : No
3 Q2 b( J' `$ d7 Y7 P9 eForced                                   : No1 X: M9 e: e5 [$ F) L$ O; e
Text #195 g) {! q) A7 ?0 O' X
ID                                       : 212 F) Y5 r2 W" D/ L8 G8 [5 J5 B
Format                                   : UTF-8
+ i. Y; x0 }7 Z# hCodec ID                                 : S_TEXT/UTF8. @; X7 \/ b5 n$ n: V, Z
Codec ID/Info                            : UTF-8 Plain Text
6 c3 Y0 F, @8 \Duration                                 : 1 h 16 min
- o# b8 ^1 g# V9 y9 q1 H8 A* {- ZBit rate                                 : 67 b/s
$ a; B# M$ I& H  n6 ECount of elements                        : 924
, R4 y& A" Y0 x$ TStream size                              : 37.7 KiB (0%)2 z: u( U& R2 N* U) J$ g3 s- `
Language                                 : Polish9 q5 K/ }- t3 W
Default                                  : No
9 x# `& K+ |- q; F2 E: KForced                                   : No7 R* b6 p  m9 K+ a, `  ~
Text #20. J2 G9 k2 I) V! ?3 G" K$ K2 W/ z( c
ID                                       : 22" ?& ^9 ?2 S' Z+ ]; t9 A/ E
Format                                   : UTF-83 [: A- T7 d. E8 u$ z5 D
Codec ID                                 : S_TEXT/UTF8; \- B  f. S- E/ S2 S  @
Codec ID/Info                            : UTF-8 Plain Text) D* ?3 ~) G$ j
Duration                                 : 1 h 16 min
4 S9 t- ^! K* a5 YBit rate                                 : 67 b/s3 f, p; O- J* J& Q6 W; b" C
Count of elements                        : 923
8 a7 F( z7 z1 A/ B6 J4 kStream size                              : 37.9 KiB (0%)
. Y* {9 Q' x$ N4 X6 U, g7 e9 T+ ~4 \Title                                    : Brazilian! D6 v5 K" o8 J+ _: r
Language                                 : Portuguese* M8 ~1 T4 @4 N. v# i
Default                                  : No
2 a5 ?7 X! a& d5 \Forced                                   : No
4 l; p3 @/ c6 ^! g; _Text #213 y8 B: H6 g! h# u( }* U6 P
ID                                       : 233 o( F: l! m' F" T$ c7 J( L3 t
Format                                   : UTF-8
" L+ Z* B+ z9 H4 N. {2 \- T7 CCodec ID                                 : S_TEXT/UTF8
. R; B% b0 s$ W9 A/ M4 ^Codec ID/Info                            : UTF-8 Plain Text3 R* P* O( l/ T/ ^. j8 b9 u, z# o) M/ J
Duration                                 : 1 h 16 min
1 P$ Z) T" t' kBit rate                                 : 68 b/s. p0 R! O/ E3 q. k3 {8 O5 u
Count of elements                        : 922
! B- [+ |/ I9 `; {) tStream size                              : 38.1 KiB (0%)/ g' i( a& U( l& i/ A$ ]
Title                                    : European
2 l3 J$ |7 F5 NLanguage                                 : Portuguese
& w2 [; n0 K7 M( N+ h9 D' Z' W. ]& uDefault                                  : No
* x% R# }# o4 @6 J6 a$ OForced                                   : No# g: _5 I6 A9 F4 N9 I) m6 b
Text #22. I' b! Z) Z/ `6 g
ID                                       : 249 G6 h) \- r, a' w' a
Format                                   : UTF-88 a8 f3 C1 `/ e  k
Codec ID                                 : S_TEXT/UTF8
; Z& v4 F; z% h( WCodec ID/Info                            : UTF-8 Plain Text
& S0 X$ Y) e' d& e" YDuration                                 : 1 h 16 min
4 [% O1 g" V7 y! VBit rate                                 : 101 b/s; T( p5 l, o# [( J- D+ D
Count of elements                        : 923
6 Z; S% L7 B+ f6 hStream size                              : 56.6 KiB (0%)
2 c3 D6 V: _% A! c: R7 j( g1 u. [Language                                 : Russian
) E( I- a: u. d( s9 }3 E* yDefault                                  : No
0 Y& l9 F2 w/ ?  l- m5 tForced                                   : No5 U( V9 S+ a6 r3 g! y
Text #23
. A  I8 L' p7 o3 w. O+ YID                                       : 25
; N3 J. o  {4 I  @Format                                   : UTF-8
- l: `6 C) c( pCodec ID                                 : S_TEXT/UTF83 u& e* C: v) {0 t. \3 |
Codec ID/Info                            : UTF-8 Plain Text1 \; O4 m" v/ k* W; _* n
Duration                                 : 1 h 16 min2 @  {& F( u2 p% S3 ?" C& N
Bit rate                                 : 67 b/s5 h2 Z* N3 k5 o
Count of elements                        : 919
" c7 ?) u+ P' ~- Y6 V% cStream size                              : 37.4 KiB (0%)/ T/ E( m, ?1 c* q
Title                                    : European) _* H; G1 w3 V. \. Q: \
Language                                 : Spanish
! v7 v! D  Y4 h8 \/ h! J7 G1 q8 ADefault                                  : No3 }2 Y% w  B9 O
Forced                                   : No/ N2 _( j9 E0 l8 |+ Z* p* w6 c
Text #24
2 _& ^4 H+ W& T% H+ K+ UID                                       : 26
2 f4 ~  d5 h: O+ e% S4 ~) oFormat                                   : UTF-8; J: u1 f) \; J6 @. L& I5 ]
Codec ID                                 : S_TEXT/UTF8
$ J( i- }3 f& o" v; v7 }& @Codec ID/Info                            : UTF-8 Plain Text
3 f2 J- X  A( [! L7 c8 xDuration                                 : 1 h 16 min+ F8 w5 p7 b7 R. n
Bit rate                                 : 71 b/s. W1 f: W/ O, U
Count of elements                        : 9268 p( w$ C3 f: n& F; |
Stream size                              : 40.0 KiB (0%)
) h/ d. W: K% f; F1 B) T8 R1 zTitle                                    : Latin American
  d4 ?: l' T4 |0 O; ~- ULanguage                                 : Spanish
4 ^7 ~' x/ V, A9 T' UDefault                                  : No1 M- J; ^7 R* e/ W4 p0 Q& S
Forced                                   : No* n0 E  D; U9 _5 x) J7 X
Text #25
6 l& b. [. Z8 |/ p2 r! o2 QID                                       : 275 B3 R7 |' W" P: m/ |0 I
Format                                   : UTF-8
1 z+ r" _; @, {, X. h( U5 G% QCodec ID                                 : S_TEXT/UTF8$ S1 p# r7 l# G5 E; `  f
Codec ID/Info                            : UTF-8 Plain Text
5 M6 P. F. C6 B3 }# P0 o- LDuration                                 : 1 h 16 min' F! K8 A; h  Q) a# G
Bit rate                                 : 69 b/s
! q- B: H* ^# L. d9 L# z$ \7 tCount of elements                        : 906
' O( A; G' d- w" JStream size                              : 38.7 KiB (0%)
. f5 [1 Y9 C+ {" o- ~% s6 q# ALanguage                                 : Swedish
" N0 u+ ^- p0 _, ?8 p! t( _Default                                  : No  Q; H9 F- N( }  h% q  p# q8 f$ ~
Forced                                   : No/ S0 o+ J7 e$ U3 W1 @* ?* K
Text #26- e9 ~! a- ~# G: q* y
ID                                       : 284 |# u  l/ i6 M/ v8 ]9 Z! q( T+ \9 S
Format                                   : UTF-8/ ^+ g+ j7 p7 @
Codec ID                                 : S_TEXT/UTF8
6 a3 g2 z' V& u5 F$ k" \; QCodec ID/Info                            : UTF-8 Plain Text
  `/ U5 J: Z+ \4 |" ZDuration                                 : 1 h 16 min7 q) ~8 h( u2 |0 b! e# J, ?
Bit rate                                 : 200 b/s
) V0 [- y% {  V3 K' h: ]Count of elements                        : 922
  a2 l0 N9 c% O6 a# x; MStream size                              : 112 KiB (0%)$ r& @+ G$ M/ m5 t  O1 f: t4 _" [
Language                                 : Tamil/ G1 t% `9 ~" k( E- O& {6 ?4 e
Default                                  : No! \3 @+ u! `6 `& i( O
Forced                                   : No! P. X9 B  c9 q/ x/ p1 q2 x
Text #272 n1 @- b. t5 z! @  ?8 f
ID                                       : 29
* Q2 m: @, e6 j+ F. y6 v6 VFormat                                   : UTF-8
8 Z0 O  A! a1 y# x; PCodec ID                                 : S_TEXT/UTF8+ e: P6 C* f4 w; R
Codec ID/Info                            : UTF-8 Plain Text4 R) U1 ^- e) \
Duration                                 : 1 h 16 min9 X# X3 N5 J1 Y- ]/ n
Bit rate                                 : 166 b/s# X  [8 J+ G+ w
Count of elements                        : 924, Z( M0 m, d+ a: j
Stream size                              : 92.9 KiB (0%)7 B/ n: N2 \" b1 v4 {8 k) A( u
Language                                 : Telugu1 o( r2 {3 u; m$ E6 c* i) ?
Default                                  : No
4 X0 |, ]+ Z* u9 C+ B7 s9 IForced                                   : No' R' y5 L& G' Y& D; E
Text #28
* d! Z* ]& ?' TID                                       : 30
3 ~( V% \+ J. e3 |: D$ c$ MFormat                                   : UTF-84 ?+ d. {4 z; y" l
Codec ID                                 : S_TEXT/UTF8( x, |0 C, K2 O, O% o, A/ r
Codec ID/Info                            : UTF-8 Plain Text% U' ~! J/ Z& R4 C  ^0 r
Duration                                 : 1 h 16 min
# _. y8 u* B$ ~8 v& P! e4 E  s8 iBit rate                                 : 156 b/s% I' l$ n  |# q% A
Count of elements                        : 926, w! \6 B% r+ @$ l
Stream size                              : 87.3 KiB (0%); X* |; ?5 q  E( Q
Language                                 : Thai
* n2 b+ Y5 ^3 S3 TDefault                                  : No
) X& G- n  U% I& d: MForced                                   : No  q/ d+ t' P, O) x% c6 _
Text #297 S" G, n+ |5 C" w$ ]' t3 q, H
ID                                       : 31
" W% l' A' k- E; d; BFormat                                   : UTF-8
; }7 m) G0 H0 F+ J# GCodec ID                                 : S_TEXT/UTF8( ?6 s) w( f# S: @/ w
Codec ID/Info                            : UTF-8 Plain Text
! ~! T2 Y3 K7 _  w9 ~/ f* MDuration                                 : 1 h 16 min- J1 D6 F8 h, z* \8 ?. k
Bit rate                                 : 66 b/s' z7 |; ?+ E6 d/ `
Count of elements                        : 922
/ B) x% Z' j3 a0 qStream size                              : 37.2 KiB (0%)/ t5 _. _8 Z, A
Language                                 : Turkish
( g* w# G  Z, i9 t( QDefault                                  : No
: {. B) _& v3 AForced                                   : No
2 C  F6 o8 b2 f5 TMenu
5 o6 H+ U2 Y3 K; k# L9 W00:00:00.000                             : en:Intro
0 E: b* M2 ^) y9 S! p# ?5 l6 b00:00:53.345                             : en:a€?Ia€?m Pregnant With Twinsa€?
3 X  L* P* H% z) a3 L- o00:05:57.232                             : en:a€?I Was Born Sibil Verdette Foxa€?+ j$ |& [  [# q2 L$ O0 C
00:10:32.215                             : en:a€?I Didna€?t Get Away With Nothing but My Lifea€?9 ?- z0 M& q. Z: f
00:18:24.520                             : en:Waiting
# l/ W5 g1 B/ p5 w- H+ m/ p, V: @. w00:24:44.441                             : en:a€?God Watches Over the Sparrowsa€?7 {+ }% q4 X" m- U4 W  Z2 b
00:29:34.147                             : en:Freedom and Justus/ z' \5 l  i/ s5 a
00:40:28.885                             : en:Cruel and Unusual Punishment$ H; u  ?  v6 Y& h
00:46:41.716                             : en:Asking Forgiveness) H# d- J! Q6 E8 X6 K0 T# K
00:49:42.396                             : en:a€?Ita€?s My Power. And Ia€?m Taking It Backa€?; ?, |6 U5 C( w6 F0 ^' V6 R( u
00:53:08.310                             : en:Calls With Rob
- p% g" l( r2 n( L# G0 R00:58:56.491                             : en:a€???a Vaa€?
, v; A  T# i2 Z01:05:41.813                             : en:a€?Success Is the Best Revengea€?( F0 j  D. V# L; x9 w
01:10:50.204                             : en:Release
4 s4 o  V9 e4 F$ g01:18:52.978                             : en:End Credits

, [/ H! E4 R" [- j& D/ ~
0 n) ~9 s. l2 c# w( G 092150yjxjti00gtxabbjb.jpg.jpg 0 y/ E2 f5 v3 X0 C8 c
092151ldpm9mp1qmm3zvz1.jpg.jpg + B3 Z2 }# c( b" `0 F/ g
092152u5qs850qy55u53z3.jpg.jpg ; ^) F& _$ t& r7 f9 y! }

/ o1 v* c. Z9 Z+ G! G5 `
/ \% B1 {- A5 M4k收藏网提示您 点击下方附件名称 即可开始下载
% Q* G6 ?; H2 h; i* E  W  v6 m  x
天穆 Time.2020.1080p.BluRay.x264.DTS-FGT 7.39GB7 A3 K7 I0 Q3 V  M8 p% l0 G3 b

Time.2020.1080p.BluRay.x264.DTS-FGT.torrent ( 19.08 KB )

0 i/ @2 a: E% f: ?& K" B% M
& O* I. l2 ]6 b* w  y3 m5 o8 K
2 c, P- Y! P8 v" q' Q& {2 f2 Z6 _
登录 发布 快速回复 返回顶部 返回列表