开启辅助访问
 找回密码
 立即注册

耶稣音乐 The.Jesus.Music.2021.1080p.BluRay.x264.DD5.1-HANDJOB 9.38GB

#4k记录视频#时间:2023-04-28 阅读:172 回复:0
212640ssvlrp3crz3c0sqe.png.jpg
7 s1 O0 L3 I4 \" c0 b◎片  名 The Jesus Music
+ M) P) w6 g5 \3 S4 k; S/ ~◎产  地 美国
0 A4 Q4 T8 C8 j( o+ K◎上映日期 2021-10-01(美国)
) u7 W& ]: N9 ~* u: @◎豆瓣链接 https://movie.douban.com/subject/35561245/
1 ]! T1 I: s9 P; d9 z. i4 }       乔恩·欧文 Jon Erwin (id:1342413)
4 N7 e% F1 r$ }5 x% L◎演  员 迈克尔·W·史密斯 Michael W. Smith (id:1028287)5 L4 m. W) j% s$ N) P; Q% F- s
◎简  介: j- H2 }7 O! ?
       ; s1 _5 |* I! P! S5 ]: T$ W
       这部纪录片揭示了耶稣音乐的不为人知的故事——从它卑微的起源于加利福尼亚州科斯塔梅萨的加略山小教堂,到它今天转变成价值数十亿美元的基督教当代音乐产业。# ]' ~. F3 g2 Z- V2 Q  c  u
4 B5 Y- V( S! R  U" U! w% z8 |
1 e/ b  Y1 X3 g
影片参数" o: d$ N! Q/ s, o6 b( P9 M  @, Y
Video
* f9 e0 U8 g3 b( c( z0 f. AID                                       : 1
7 Y7 t0 a$ X: OFormat                                   : AVC5 H# [$ m& T- [% w
Format/Info                              : Advanced Video Codec) J* \7 K5 y1 I0 j! ~3 V
Format profile                           : [email protected]
1 o4 l# K3 p% w( ?, }/ a: W/ fFormat settings                          : CABAC / 5 Ref Frames
3 G* X8 H8 }( v, I2 {; WFormat settings, CABAC                   : Yes5 j' W1 Y/ L$ p6 B6 S" w6 J
Format settings, Reference frames        : 5 frames' F9 w, v7 \5 W: g( p: C# x' l
Codec ID                                 : V_MPEG4/ISO/AVC
8 n8 }5 I) k5 l0 ~1 A7 l7 v" UDuration                                 : 1 h 48 min
$ k( w. m7 P2 X& z/ b8 yBit rate                                 : 11.7 Mb/s8 w* E5 l3 C# P% Q# Q7 Y/ f
Width                                    : 1 920 pixels" h( W  L$ z+ s# ~
Height                                   : 804 pixels, Q) \% |' ]7 {+ K& Q, e8 O/ R
Display aspect ratio                     : 2.40:1
5 h$ d% ]8 _8 ]- SFrame rate mode                          : Constant% g0 a2 r" M  z% V5 D  i. n
Frame rate                               : 23.976 (24000/1001/189150) FPS* ?: D. ~- p" r: d, T" j# }2 _% V* R
Color space                              : YUV
0 ^, l7 T2 D. i* T1 |6 K7 _6 JChroma subsampling                       : 4:2:01 r1 G3 k, n0 F! y
Bit depth                                : 8 bits
& M: P. R0 d& \9 i& ^Scan type                                : Progressive
! c7 b7 ^! k, B  t" I$ |Bits/(Pixel*Frame)                       : 0.316
& ~, p/ P+ a* p. ]# T" Q! uStream size                              : 8.90 GiB (95%)
( R; I% T! j( w8 P( p' \; z  v- r8 FWriting library                          : x264 core 157 r2935 545de2f
! l5 g% h+ ^6 ^. tEncoding settings                        : cabac=1 / ref=5 / deblock=1:-3:-3 / analyse=0x3:0x133 / me=umh / subme=10 / psy=1 / psy_rd=1.00:0.00 / mixed_ref=1 / me_range=32 / chroma_me=1 / trellis=2 / 8x8dct=1 / cqm=0 / deadzone=21,11 / fast_pskip=0 / chroma_qp_offset=-2 / threads=24 / lookahead_threads=6 / sliced_threads=0 / nr=0 / decimate=0 / interlaced=0 / bluray_compat=0 / constrained_intra=0 / bframes=16 / b_pyramid=2 / b_adapt=2 / b_bias=0 / direct=3 / weightb=1 / open_gop=0 / weightp=2 / keyint=240 / keyint_min=24 / scenecut=40 / intra_refresh=0 / rc_lookahead=60 / rc=crf / mbtree=0 / crf=15.2 / qcomp=0.60 / qpmin=0 / qpmax=69 / qpstep=4 / vbv_maxrate=62500 / vbv_bufsize=78125 / crf_max=0.0 / nal_hrd=none / filler=0 / ip_ratio=1.40 / pb_ratio=1.30 / aq=2:1.00
6 p) z8 G$ y! w2 S3 f9 ^Language                                 : English( F7 E. \0 u" z" U8 S6 j, E4 B
Default                                  : Yes
) K0 r5 L  S7 `, S& q  V' ]Forced                                   : No
5 c4 c  d" N+ Q( G8 Y9 OColor range                              : Limited
( A1 a3 [0 Z- v- K+ a5 |6 kColor primaries                          : BT.709$ ?2 M, b4 C$ g2 M
Transfer characteristics                 : BT.709" S3 S* Q1 x( _$ _: J# M
Matrix coefficients                      : BT.709) B+ _+ S% ~9 M3 }, O
Audio
7 _, T& y8 W+ w4 iID                                       : 2" v! }) f0 z, K+ \! t
Format                                   : AC-3
$ ]3 O$ D; x' _  uFormat/Info                              : Audio Coding 39 p2 C2 {6 I0 c' v2 G- A
Commercial name                          : Dolby Digital6 w9 {1 Y' }6 j5 ]3 ~  `% c
Codec ID                                 : A_AC3- C0 {' n3 j: g. ^
Duration                                 : 1 h 48 min$ ?6 _/ T0 V9 x" M0 y& R2 Y! ^
Bit rate mode                            : Constant! O8 U+ W) ]9 V2 x! X- Z
Bit rate                                 : 640 kb/s
; i' t1 g+ T1 K* Y: U( uChannel(s)                               : 6 channels
- T' K: ~; C4 D. ^# V5 s: Q: wChannel layout                           : L R C LFE Ls Rs" i, {8 M7 u5 M" y1 n# O4 ], v$ S
Sampling rate                            : 48.0 kHz! n0 R/ H; Y! S* y( i/ A
Frame rate                               : 31.250 FPS (1536 SPF)
1 H6 p# g. F( L2 @) JCompression mode                         : Lossy6 M' X2 p* o5 k3 R$ W; _2 H
Stream size                              : 499 MiB (5%)# ^  k+ L9 W9 d6 [  y6 l; A
Language                                 : English1 L6 |8 M0 }$ ^7 J9 S/ S5 |
Service kind                             : Complete Main7 a, C9 K6 n5 A
Default                                  : Yes5 o9 R& p2 ]/ ?
Forced                                   : No
* ?' ^% e* Z) E4 P5 x1 hText #1
2 N0 n7 E/ p; l) Y' {3 E5 ?/ }+ \ID                                       : 3
3 s1 o( q" ~! F4 W+ F/ [; ?Format                                   : UTF-8
7 g/ |$ i( [$ mCodec ID                                 : S_TEXT/UTF88 y; Z' T' o) q& j6 W
Codec ID/Info                            : UTF-8 Plain Text
- D! L- Z) M& v( H. nDuration                                 : 1 h 48 min
4 l( @$ _+ K8 T7 F- J1 VBit rate                                 : 121 b/s
/ ]: s, T# C& f2 r0 i" bCount of elements                        : 2068; c6 c# r, |, e2 V
Stream size                              : 96.1 KiB (0%)4 u8 Q) u4 P, [3 ^. d
Language                                 : English
+ E2 s0 E- J# F( qDefault                                  : No
& b, }! n# l# m3 ^+ r8 @5 WForced                                   : No
7 B$ r+ i8 K+ o5 s' [+ W" sText #2$ }) {/ R. M' h) S& t6 ]5 t
ID                                       : 4
5 c9 ]$ N" ?7 ^/ c5 dFormat                                   : UTF-8
% v4 M6 g. T! S1 u; A" CCodec ID                                 : S_TEXT/UTF8
, D4 P8 Y7 g! \" r* S  S9 l* YCodec ID/Info                            : UTF-8 Plain Text/ J+ D$ z! Q9 \0 W2 p2 ^6 O
Duration                                 : 1 h 48 min$ \) Q- k6 c) I$ m7 d
Bit rate                                 : 98 b/s1 {. K8 u  j) L
Count of elements                        : 1827
' g" o( w8 c# b7 c! LStream size                              : 78.4 KiB (0%)
& v( n; Y5 q6 z6 Z( T. ?Language                                 : Spanish
% X! z9 W# C/ sDefault                                  : No
  I% m% U4 K0 }: M9 T# \  L+ S4 uForced                                   : No
& C7 F$ C- i6 l2 J" uMenu
6 s+ ~" J$ H9 C' X+ }7 y00:00:00.000                             : :Chapter 19 o' O8 W4 _7 }
00:04:38.487                             : :Chapter 2; Y4 A0 a& S- [, b$ B
00:13:31.728                             : :Chapter 30 @0 Q+ M% M4 j
00:18:46.375                             : :Chapter 4
1 M2 e0 ~- |1 t00:24:47.945                             : :Chapter 5
3 G6 E: R8 b+ e8 k. l; r3 Q6 R00:29:58.797                             : :Chapter 6
+ |% n8 u$ E+ }. O5 h2 k+ u. Q00:36:34.192                             : :Chapter 7
! i0 s# d# [8 |0 {9 U: x* w00:44:51.689                             : :Chapter 8
- J1 O1 o& x3 F& F- z* t00:50:28.859                             : :Chapter 9
3 Z4 G7 u3 i* n00:58:55.532                             : :Chapter 108 A- C- G. r3 `' t
01:06:48.838                             : :Chapter 11
  @% E0 s: H' }9 O- T01:13:11.012                             : :Chapter 12
6 u8 @0 _6 S0 g' P& H" ]01:21:50.447                             : :Chapter 13
; f5 B7 o* |; |, y01:30:00.729                             : :Chapter 147 l9 K' `' |: S2 b
01:37:34.682                             : :Chapter 151 R4 b' `2 q8 U/ Q
01:43:18.734                             : :Chapter 16
6 H# S3 l  g/ B. Q4 ?6 K4 n$ m
4k收藏网提示您 点击下方附件名称 即可开始下载1 `) a8 W3 g- O- u
! R, V* k: y1 j" G8 C/ Q+ J, C
耶稣音乐 The.Jesus.Music.2021.1080p.BluRay.x264.DD5.1-HANDJOB 9.38GB
. W- u/ N' B, I! Q2 t% K, R

The.Jesus.Music.2021.1080p.BluRay.x264.DD5.1-HANDJOB.torrent ( 24.09 KB )

' Q  i& j; b; d4 b7 t7 M7 y8 c

# [2 |' J$ a# M8 A) Q0 M: p" O7 d+ P
. y/ d, }  ]# i- u6 ^
3 c- n6 M: F8 `1 W, Q
登录 发布 快速回复 返回顶部 返回列表