开启辅助访问
 找回密码
 立即注册

机器人挑战赛4k.More.Than.Robots.2022.2160p.WEB-DL.x265.10bit.HDR.DDP5.1-4k电影-13.88 GB

#4k记录视频#时间:2023-04-28 阅读:150 回复:0
112003a7ff7gvrgg0e6ngx.png.jpg 6 U- l$ A2 x6 J; `. G& K! \

) \  ]% J3 }+ b( A+ p+ V5 k& R简       介
4 j5 v$ ^$ J2 x; w) [% y

. u$ K4 \" _4 k  “不仅仅是机器人”跟随来自世界各地的四支青少年团队为 2020 年 FIRST® 机器人大赛做准备。了解来自洛杉矶、墨西哥城和日本千叶的团队,他们正朝着将其独特设计一路带到竞争激烈的全球锦标赛的目标而努力。尽管他们在此过程中面临克服挑战,例如社区内资源有限或因全球大流行而搁置一切,但孩子们坚持不懈,并了解到竞争不仅仅是机器人。
+ r, v5 d: [6 L3 P- R" C: k1 ]9 C: E8 M: s7 v
# ]* J. `8 h2 \' v
影片参数3 `) R" A( I4 U- L0 i& F( j
ao / ctu-info=0 / no-lowpass-dct / refine-analysis-type=0 / copy-pic=1 / max-ausize-factor=1.0 / no-dynamic-refine / no-single-sei / no-HEVC-aq / no-svt / no-field / qp-adaptation-range=1.00 / no-scenecut-aware-qpconformance-window-offsets / right=0 / bottom=0
9 `  B* G0 r( @% |6 XDefault : No
) H7 \2 K/ G0 Z+ FForced : No
; m3 h/ Y) J; e' M( eColor range : Limited! G/ _- z$ o. L  m4 Q! _5 W7 u
Color primaries : BT.2020
+ U. ^8 ]- ~5 e3 r* F% E& Z4 Z; NTransfer characteristics : PQ
# o$ V- \* k  S' wMatrix coefficients : BT.2020 non-constant2 H, O9 O! @( Y+ @
7 d. M. s3 v* C

" \2 {# z7 R7 Z7 L5 g; p! w7 aAudio: g+ G' @( O2 I$ ~
ID : 2
) K3 A1 ^5 K  m+ NFormat : E-AC-3
0 \$ c. d% y; B! c; M% m; QFormat/Info : Enhanced AC-3
4 P$ g3 u$ @( ~; n. YCommercial name : Dolby Digital Plus
* f0 N  N& R- {% `! O" l, r9 iCodec ID : A_EAC3
5 Q2 Y: h5 l% v; eDuration : 1 h 29 min
8 }& m' T6 M8 M4 N) X% w# zBit rate mode : Constant: }) `+ K# D# ?# J1 n( s; {
Bit rate : 256 kb/s) {  S. H" f& J8 H
Channel(s) : 6 channels5 W. g% f( X. D' Z* v* E
Channel layout : L R C LFE Ls Rs' r2 X8 G2 U: d
Sampling rate : 48.0 kHz
  Z7 j* b" C' gFrame rate : 31.250 FPS (1536 SPF), i. D5 k- L6 t
Compression mode : Lossy
: N; c, V) N6 ?* A; PDelay relative to video : 2 s 2 ms& L: N% u% m( C! B7 `
Stream size : 164 MiB (1%)0 h* W  Q3 ?0 h& U- Z
Language : English1 \+ Q  q4 X6 _7 L7 e9 r; |
Service kind : Complete Main1 G$ g" x5 h& e, y
Default : Yes, F  M+ m; R# M9 a6 s! q2 u
Forced : No* s! H$ B/ q6 [5 X1 b  c, B  h

: }" B$ G# v3 j- ^

9 m. o) v1 t9 Z# a. {3 sText #1
- z! h2 U5 K# U8 p9 s0 }ID : 3+ v; f/ c/ d9 q" [* u
Format : UTF-8, s8 y3 O& u, l* ]
Codec ID : S_TEXT/UTF87 }- J% [1 K" C: @1 X
Codec ID/Info : UTF-8 Plain Text( J' J, l  B4 X& j) b, }$ R
Duration : 1 h 26 min5 M# q) I% D5 Y$ Z9 t" P' f; ], V
Bit rate : 76 b/s6 v( z$ d9 e+ v
Count of elements : 1114. [# f4 l; A1 Y! T' U+ u
Stream size : 48.7 KiB (0%)/ P/ h: c8 C# ]* ~0 N
Language : English
/ M# }6 [# f2 s: c! IDefault : No+ s; U6 U3 E) a7 Z3 r) F
Forced : No
. a! ~7 v, ^! @- L* _3 [* }, @+ F9 a9 R
) r5 l0 W/ y( N" ~( b- f% \, W3 A
Text #24 @, L4 X/ G; D7 Z  v+ q% w# F2 t. M, w
ID : 43 Y5 i, M4 T# v$ t9 ?
Format : UTF-8; e& X: N7 i7 e% x
Codec ID : S_TEXT/UTF8
" S4 X: V. A7 g1 Z- c# z6 E) C) k& x; QCodec ID/Info : UTF-8 Plain Text
6 N5 t- V8 x& G! l, FDuration : 1 h 29 min
/ ], N% Q. Z* W( QBit rate : 83 b/s
; H* ~3 P0 n3 R, J+ \% \Count of elements : 1318+ s+ t  f! s/ b7 ^, {7 w' d
Stream size : 54.1 KiB (0%)
5 p; r5 b, k2 |Title : SDH3 G* S3 \* k. `! ^  f7 q1 Z0 N3 T
Language : English
4 Q- y9 g3 O- S& KDefault : No/ }4 O; u/ U- `. T
Forced : No
7 G: j& {3 m- g7 p. B' K' g) H) i3 C8 [' X% E$ K% Q* }
/ R8 v3 j4 C3 B6 h0 m. P0 n
Text #33 s0 ~6 H: z4 C, h
ID : 5
& w2 H2 d( b5 H& [( u$ L& {Format : UTF-8
8 x  q( ]% K" [) t) m( u3 o0 P# k* u, xCodec ID : S_TEXT/UTF8, [0 a2 ~6 R: h
Codec ID/Info : UTF-8 Plain Text
6 m1 g; J6 v: o- uDuration : 1 h 28 min
  C8 q/ @/ b* T; y$ q+ r' O2 {Bit rate : 84 b/s
9 T6 w- r3 _6 F6 p- F4 I5 Z0 KCount of elements : 13818 N: a" l* `  b
Stream size : 55.3 KiB (0%)
5 i( j& J/ ]9 F5 c" f  c6 |; v  W% J  XLanguage : Danish
) D) W2 L. [6 eDefault : No
2 e1 W- k  q; a: S% OForced : No
7 B7 B8 u3 D0 D2 i9 }2 H' {; @$ b4 k6 C2 I& ~

$ d8 h5 N: C  ]Text #4
0 j; G* ?' c% v; B/ pID : 6. W# S* \7 k& F; j+ [7 L% L1 X
Format : UTF-8: D+ g& n( ]% u1 p7 }8 @- v0 Z! ?" y
Codec ID : S_TEXT/UTF8
, w8 y% T; ]9 j4 _Codec ID/Info : UTF-8 Plain Text
/ W. r( |: Y4 j6 w# G4 T) N6 ]Duration : 1 h 28 min7 y- f0 z# m# f6 {3 w
Bit rate : 77 b/s3 z; u+ k) x" ~0 }
Count of elements : 1296
. o+ J9 d0 W! i9 oStream size : 50.8 KiB (0%)
% w1 }' B2 g& E' t$ v1 r  K9 e( n5 p$ bLanguage : German
9 u6 N7 S" l4 }9 ]4 ~5 yDefault : No# X& N9 E9 k, H. Y
Forced : No
1 c- Z2 U, M& V+ v" F- j! o+ u
) w( d3 z! ?$ O$ B2 Y; Y+ j2 H% @. S" ?

8 R! A5 G0 D5 lText #5" Y: k* l2 a* ~( \. g1 m
ID : 7
7 W6 ?: E# Q' G1 A: ?5 jFormat : UTF-8! r' t" i5 {2 _, {' R0 x/ |
Codec ID : S_TEXT/UTF8
' v, ^  G4 x" I! V8 x' z7 x+ aCodec ID/Info : UTF-8 Plain Text
+ |5 L  j6 _* a/ MDuration : 1 h 28 min& @* {2 `1 e4 Y
Bit rate : 70 b/s
+ [) ^2 ~3 p+ q1 k! f! ^0 ACount of elements : 1114. [. U: b5 W% U: m$ o
Stream size : 46.2 KiB (0%)
3 ^+ t1 F. Y% ]3 I8 w5 s8 mTitle : Latin American# ~- X( r. W( N( [: W- K
Language : Spanish" i4 o2 i& R6 B3 w9 E- W
Default : No5 J: u, T* C+ G% P9 Y: V% S  q9 ^
Forced : No
) \: Z! Z+ D& y3 {  V5 K
( t. Z- h  C  L1 r  ^+ l
  k% ~. g) q4 }1 M$ T$ P
Text #6+ `  W) X! H4 m6 p! o# o5 u' t
ID : 8
4 h  Z9 L6 q( y8 o. SFormat : UTF-8# ~1 r0 `/ z2 C8 {) ~# J4 D  X  ^7 Y
Codec ID : S_TEXT/UTF8! ?% @9 m5 Y. N+ y$ v
Codec ID/Info : UTF-8 Plain Text
+ m  [. |4 \1 S- MDuration : 1 h 28 min2 [- V- v8 ?. M
Bit rate : 71 b/s
( b: j1 a! b+ O6 r8 K# sCount of elements : 1231
0 Z6 e8 r% Z2 A+ yStream size : 46.8 KiB (0%)
0 `7 f5 d! Q, n4 C. R& CLanguage : Spanish
5 o( N% `0 {" B% |( PDefault : No- p* @& I, v' C& P; H6 P  v7 \' G# H' U
Forced : No* L. x9 K1 W) `  I4 y
9 z7 A' |, g9 m; {/ `( V
4 H6 I6 V* }/ a+ t
Text #79 ~; n1 g6 k* D0 h9 [: C
ID : 9( P! f% X4 d1 f3 a- f8 ~# |- ~7 x
Format : UTF-8; F  Z; S$ [) ^  b' `5 w
Codec ID : S_TEXT/UTF8
* w6 \+ c, S$ SCodec ID/Info : UTF-8 Plain Text
5 j9 p, R  `4 B: y0 U7 o7 YDuration : 1 h 28 min
: p! J6 c3 L8 _4 E3 m8 ]Bit rate : 82 b/s
: c7 c  C+ r6 Q" j' \5 nCount of elements : 1256
2 e1 A+ e! T1 _: v& @7 VStream size : 53.6 KiB (0%)1 g" P1 X) h% K, s3 A5 h
Language : Finnish" L6 E& s) L: |: L8 \
Default : No
. U- {- _1 S# Z4 o  tForced : No  E3 D0 E& ?" |5 v. g

; q! s0 E; t4 `& B8 y4 |
. }" k) i0 l' b
Text #81 S: R7 t6 ]5 A4 f  r4 z" i/ b
ID : 10
. |; V6 @1 o" ~6 A+ O& JFormat : UTF-8
' }" p& N: _$ E; xCodec ID : S_TEXT/UTF8
5 i0 ~& W( l! B9 |; oCodec ID/Info : UTF-8 Plain Text5 G7 K" A% G$ H4 N; j) ]
Duration : 1 h 28 min
/ U; S! t3 m" \2 z$ LBit rate : 86 b/s
6 O5 V% t/ e7 K1 }2 h. ~7 j. I0 DCount of elements : 1375
) E, F4 F1 n+ |- V, TStream size : 56.5 KiB (0%)9 r6 m+ V/ j- \; A
Language : French" F. [% ]2 Z& M3 q7 n  O& R! P- X
Default : No
& l. |0 L! S2 q' D  m7 D7 RForced : No
% U) C( L8 o- M8 b  I
( F$ F, ]& o$ J" A( L

) s$ s$ l, U; q4 nText #9/ O: _8 k" L0 b* n3 a, Q( E
ID : 110 S. ^6 P; A) D( y
Format : UTF-8
8 r6 S2 u) Q' HCodec ID : S_TEXT/UTF8
/ F" a5 A) F! }/ x6 P9 k) N, gCodec ID/Info : UTF-8 Plain Text
6 }5 C; |% H9 @* T1 J( hDuration : 1 h 28 min; \5 E8 n# t- e
Bit rate : 85 b/s; ]$ f1 q0 D1 T& O! W
Count of elements : 1329
" d1 h) n. t4 ~( b" FStream size : 55.7 KiB (0%)- L7 v7 o; M+ Q  u' W+ q9 B
Language : Italian
. x0 s9 {5 [) ]4 tDefault : No
2 z; q+ z1 |' o% b' q, H5 dForced : No
: A4 B; a5 R& D3 M
8 c7 v9 H7 m7 T, n0 |
$ U, k! x5 Z# O; n. C8 M1 }
Text #10  ~& ]3 C& Z9 `
ID : 12
3 w" i  e8 v1 z4 l6 @% vFormat : UTF-89 l8 o) b7 u0 X+ k0 E
Codec ID : S_TEXT/UTF8
: A  r1 B, a, e1 X2 F, aCodec ID/Info : UTF-8 Plain Text
; \/ l% J' o$ K5 qDuration : 1 h 28 min
7 Z% h3 B2 [4 J9 A- xBit rate : 74 b/s
9 ?3 k" t" B+ {/ cCount of elements : 11369 p/ U( ~1 _7 Y8 }/ P: P- x1 K
Stream size : 48.3 KiB (0%)
! o4 |4 W  S% Q6 A1 B2 KLanguage : Japanese3 ^) v' K9 @! J- H7 W) o  O
Default : No5 l& z3 d( U8 Y4 l* w
Forced : No
& u2 g  @8 K) T7 z9 K! {0 F( M2 l) X  c1 v7 g4 r2 k

- u7 s' c0 L* ~# vText #11# p" c! W# K1 d1 U. _
ID : 13
4 D% @! N& |) u( F+ VFormat : UTF-8& H7 B" `$ B$ V
Codec ID : S_TEXT/UTF82 r- g5 E; P0 o1 o7 |8 ^/ ~  A
Codec ID/Info : UTF-8 Plain Text% k* ?. y3 q. Q) t
Duration : 1 h 28 min/ C. m9 T6 s& a% e% h: n
Bit rate : 100 b/s
0 l- V; i$ x0 I! s% fCount of elements : 1423! @! \$ {; H+ ^: _: x* a5 {
Stream size : 65.1 KiB (0%)+ M9 [4 a5 ^, M4 s! T1 c
Language : Korean$ T7 h* M5 [$ R/ {6 s8 ~: i' ~6 u
Default : No' F7 o. b4 r3 N
Forced : No- @9 K+ E# L/ A( T$ n) a* S1 c6 o
6 w* P' V6 N' }' e$ G& n$ R

6 g7 B. ?6 r0 k9 Y3 [! MText #12) s+ s" ?" W3 U* y5 \  W; d3 [
ID : 14& a, }3 E% y5 R
Format : UTF-8$ j+ a3 ]! u# G, \
Codec ID : S_TEXT/UTF86 k0 C; [9 J; g' k: t
Codec ID/Info : UTF-8 Plain Text  m4 j3 s- R5 J
Duration : 1 h 28 min5 Z$ O, \* R. L. L% {' H/ I4 |: l' u
Bit rate : 78 b/s3 ]6 j8 k  N4 U5 J
Count of elements : 1127, Q1 i) l  o1 _1 M8 l8 p4 t
Stream size : 51.2 KiB (0%): B4 `, K7 _8 v& k
Language : Dutch
; ~% U( B! \8 i+ bDefault : No
) A( m; J6 A% l2 N/ O! l3 sForced : No3 l* z; o2 f) s8 t6 _3 ^
( F9 j1 |: x3 R. o  o3 x

( q' K2 D' W  lText #13# d* B3 T2 o2 S! k
ID : 15
7 m5 Y9 d: `$ XFormat : UTF-87 `  v; C) c  k4 X' p9 E
Codec ID : S_TEXT/UTF8
8 A1 x6 _  u' rCodec ID/Info : UTF-8 Plain Text
- I  |- J# }. Z9 H1 A  F+ g/ |Duration : 1 h 28 min
$ ]3 Z& F( C  Q2 hBit rate : 75 b/s
5 v1 U6 t' o  O- n5 z. JCount of elements : 1207
. H( i- U3 x+ K0 @3 [Stream size : 49.2 KiB (0%)
' q: t% j$ l6 T  eLanguage : Norwegian5 {5 F; N+ v0 C1 S$ A+ H8 x
Default : No, s. w) g5 T6 N1 {2 V" u
Forced : No5 ]0 |( s2 |4 \7 s

+ M3 T  `9 |) t/ }
8 N+ Z+ D$ C" b! D
Text #14
% `+ U3 W7 h% a" j. `% f. MID : 160 _4 L9 ]* ]5 M' ]- s5 P1 _6 H
Format : UTF-8; h* ?( C3 @, z* N$ H1 b
Codec ID : S_TEXT/UTF8
: t) h: z$ ]* t' {4 j' l. A. cCodec ID/Info : UTF-8 Plain Text
( f5 ]. S/ _6 Q! i7 o" y+ ZDuration : 1 h 28 min2 {- w. S, z8 c: Q
Bit rate : 74 b/s/ m' e2 r8 k/ ?' {) s; G
Count of elements : 1381
% ^! L% ]: x% v( a/ uStream size : 48.3 KiB (0%)' k' d# k3 Z/ ?9 @
Language : Polish
7 @; c' s0 y  p& g0 [1 uDefault : No/ a- a4 u' J. g  |9 \
Forced : No, r" k3 V8 @: Q" ^, }) a- M
' J/ V$ E: G& \7 @( c; \

7 q1 L) f8 W1 ?, {5 F0 E* i* iText #15
9 X& z# l5 ^$ H+ WID : 17
) |. Y0 W% E$ W0 U- nFormat : UTF-8
+ |$ t, d9 f* Y$ H2 B/ W) ZCodec ID : S_TEXT/UTF8! ~5 `' U1 t8 h6 c2 T
Codec ID/Info : UTF-8 Plain Text0 a3 Q" P1 X- Y) q9 z# w1 q; ]
Duration : 1 h 28 min
+ G" d, A* L! OBit rate : 80 b/s
9 K/ j1 U( t# U3 j, bCount of elements : 13956 j9 Q* V  j# j$ _, ~
Stream size : 52.6 KiB (0%)/ @0 \. P' x/ S3 [
Title : Brazilian
% ~9 [$ `$ a6 u& Z) r0 h. \! X. ]Language : Portuguese# |0 s) D  U& z/ B- \
Default : No8 h; V5 B( `: b" W$ N/ e0 d, y" b( A& S
Forced : No
7 \8 b2 r! t" Z* p* [; T: o
5 }! D: E7 y* w! L% r3 @
- w1 P# ]$ j) t2 G+ \
Text #16% C( A3 u! X% p% h3 G6 H- b, z# D( J: I
ID : 18
  i% X5 d: \7 }$ @Format : UTF-8$ I$ M# M/ H: U- q+ x6 ?
Codec ID : S_TEXT/UTF84 v6 ^8 S# j# D, O0 H/ F) k: T
Codec ID/Info : UTF-8 Plain Text
! _$ p" D% C8 W& o: W4 Y3 ~Duration : 1 h 28 min
7 z  R' Y( m+ ~' E" o( n3 C4 lBit rate : 87 b/s3 R( ]: \, e9 O, O( }+ d( F' n
Count of elements : 1376
, S: `5 G( `! v1 G1 r% o, }1 P+ IStream size : 56.8 KiB (0%)
) j8 G; s+ M5 C) j; F( a6 W& sLanguage : Portuguese
) Q( ?! w- }4 J" g/ ADefault : No3 m) h4 R# k- L# M
Forced : No
5 f+ ^* {( @% y
: i4 b4 O! S' J/ n  S6 g/ Y8 F
! C+ n1 p; F4 C: e
Text #172 ]5 n# _- L) w0 n" t& d
ID : 19
% n- I* |, Y& N! xFormat : UTF-8% u+ ~: L. P: m, l6 D0 y+ \
Codec ID : S_TEXT/UTF88 _) R. H2 M+ z/ B2 m7 k
Codec ID/Info : UTF-8 Plain Text2 M4 [( ^7 l. e5 o/ X# ?. E7 S
Duration : 1 h 28 min/ r6 f7 s6 Y+ H, ?4 k6 B+ p
Bit rate : 87 b/s$ ~' w# t2 T3 m$ B+ [
Count of elements : 1383
- s! ?. @( n& M/ gStream size : 56.9 KiB (0%)% ^8 `$ L2 e" U' N' W: _7 x) E
Language : Swedish/ G5 v# _% r* m# t5 s4 s5 W$ I7 Q
Default : No
9 ?; |' j+ {4 {: M0 ?8 RForced : No' [1 X" A/ G) c3 S+ U! `; h

2 B3 Q: r, R3 [/ C& H. O6 ^

; F8 }; P& W5 d, b3 h* _Text #182 e2 l. }2 x( P) G7 p# Z) V
ID : 20" s$ T, _2 R% |/ Y( q
Format : UTF-8
" o7 i% J, U! |9 _Codec ID : S_TEXT/UTF8
; h5 t6 l' g2 @Codec ID/Info : UTF-8 Plain Text/ h% Z" ^6 p' [0 N( W8 |
Duration : 1 h 28 min
5 w& a- a0 t# w/ ~Bit rate : 77 b/s/ Q6 [$ O8 j3 K+ O5 i, M* `3 c* p* _
Count of elements : 1418
( |5 u* K  G" I& L1 TStream size : 50.3 KiB (0%)4 K" `0 Y% B0 `' _, u
Title : Cantonese
( U  S2 j1 Z- z6 {* WLanguage : Chinese
( {6 ^# }8 \) f7 E( b5 R$ IDefault : No8 f" W# s  L9 D# Y  G- \
Forced : No
4 J: `( k3 p+ g/ X  _, l. Q
  B* Z$ k1 ]% ]
  m+ }5 c1 [) u# u
Text #19* B+ s/ [& y0 v& H# m8 j3 @! f9 v
ID : 210 B' u- v# f) M7 }7 I: l
Format : UTF-8# s8 F# M' I; q) {0 V
Codec ID : S_TEXT/UTF8
7 M9 j" w7 x; o) S" ?8 UCodec ID/Info : UTF-8 Plain Text
) `2 b/ Y2 y5 |" f4 sDuration : 1 h 28 min  Q$ n: V4 u4 O$ N
Bit rate : 75 b/s
6 {7 z1 [' B4 F8 y. k  C' eCount of elements : 1422" ]; ?1 O) U" g  X' a
Stream size : 48.9 KiB (0%)8 d  e( ~# T2 J6 b# w! m
Title : Simplified
& [  S: f  c( G6 x1 a6 LLanguage : Chinese
& @9 \  R! |$ {# g1 @5 i0 b8 K7 mDefault : No
5 K2 ~5 Q; D$ t* ]) nForced : No
4 j" Q6 r0 J5 a, `2 u) ~
7 W9 }. {/ L' m! }6 ?4 _
/ ^4 r) y% p7 N& L9 J5 z
Text #20/ K" X- v$ S$ J
ID : 228 A% X" G8 u; p+ r1 g
Format : UTF-8& k4 ]8 w* m6 g. E" u- A
Codec ID : S_TEXT/UTF8
- O6 A& O: K1 R  LCodec ID/Info : UTF-8 Plain Text  n+ R* }: t( m
Duration : 1 h 28 min
# B9 \, x( _, k1 s0 ^Bit rate : 75 b/s
  ]3 e' Q# y, B& ?+ P; VCount of elements : 1423
& Q* K6 }& x. b7 C+ f" qStream size : 49.1 KiB (0%)7 }  i8 c( p% I9 W2 P
Title : Traditional! R/ ~' R! M6 o) n
Language : Chinese
0 d- D* n' e" d  R8 n  u* i8 O; kDefault : No6 W  \$ e! r$ X6 A' n# n' V
Forced : No
. l) {" n) P. i5 g( Q; S, w8 k. A" k/ W
3 D& A+ r9 M+ x  V! r
; o. I2 m' Q8 x% `* v7 d# H
Menu
  Q$ i% K" X. @+ @! R: k01:27:49.269 : en:Credits
5 F: J: K" C5 Z

0 k4 D1 M( i  K7 w3 y4 I& Y( ~/ x# i" v* w' `

& _4 C$ H- S* q% U2 T( o! q1 _1 Z. P) p
机器人挑战赛4k.More.Than.Robots.2022.2160p.WEB-DL.x265.10bit.HDR.DDP5.1-下载【自带中字】
% y: d. }8 W8 V% v0 R& W! E0 z  E$ O" U2 {0 }5 [! R
机器人挑战赛4k.More.Than.Robots.2022.2160p.WEB-DL.x265.10bit.HDR.DDP5.1【13.88 GB】
7 G+ r1 X; j9 F9 k3 r  R. R( @6 F$ o5 b  M: z4 p' h1 W

. J; a( v% G# l$ r# a* O. _机器人挑战赛4k.More.Than.Robots.2022.2160p.WEB-DL.x265.8bit.SDR.DDP5.1【12.45 GB】
2 X/ i9 y! P- T, l$ V+ @9 w) R: _" q9 G! P

  c# T! T* r# e- }# y" O4 w2 E  \0 i
/ t9 q% ^. r) c$ a& V
( B* b# s. q* ]7 g7 ]& ?
登录 发布 快速回复 返回顶部 返回列表