开启辅助访问
 找回密码
 立即注册

王朝 第二季4k.Dynasties.2018.S02E01.2160p.iP.WEB-DL.x265.10bit.HDR.HLG.AAC2.0-纪录片-7.50 GB

#4k记录视频#时间:2023-04-28 阅读:144 回复:0
112017uivtorfrk1d4v2vo.png.jpg & S2 _$ u2 c8 n

: t2 }# e" n. x3 ?& e( j9 P! u影片参数

2 G& z1 `  O2 U  C, B5 P$ h+ v
王朝 第二季4k.Dynasties.2018.S02E01.2160p.iP.WEB-DL.x265.10bit.HDR.HLG.AAC2.0-纪录片信息9 [8 w6 T/ V. B) y% g" w2 ^
Video" t; x7 F( `: j  N; t
ID : 1, d5 m1 i8 S6 ^- C
Format : HEVC. |, M3 g$ N- |2 c$ G6 D* s* o
Format/Info : High Efficiency Video Coding
8 O! y! r: F4 f- e" PFormat profile : Main 10@L5.1@Main
- u; D3 V2 c+ y) |) s" y$ tCodec ID : V_MPEGH/ISO/HEVC" x. d' d9 c. G6 G! H; g
Duration : 58 min 7 s3 X1 o1 o9 T# l6 t
Bit rate : 18.3 Mb/s
$ L# v! s' k. E% p8 p) O% }4 hWidth : 3 840 pixels' H# z' B% K" k
Height : 2 160 pixels  J7 g! B! W2 C1 W! L8 H- G
Display aspect ratio : 16:9( k9 a, B9 J+ R+ C
Frame rate mode : Constant. q) g: w- t* J* J0 ^" e
Frame rate : 25.000 FPS
$ l1 g' q: P9 n* O8 C& x" w  R. I4 AStandard : Component
& m& h4 N$ V! l, P# h' g/ ~  I  m( cColor space : YUV
( F; D4 `1 `! p9 r+ N+ GChroma subsampling : 4:2:0! v  g' k, y3 i( D; q
Bit depth : 10 bits9 }9 G' U2 ?3 G& U
Bits/(Pixel*Frame) : 0.088
& @* ^. e" ~3 i' Z( a& A$ yStream size : 7.42 GiB (99%)
, S. F: U( U, @! Z; {6 bDefault : Yes
9 h$ |9 v7 v. a: RForced : No2 H! h8 V: K6 \" m1 o5 `% `3 x4 h
Color range : Limited+ o: o  e9 v" c' g
Color primaries : BT.20208 i7 M) |) n5 o+ q
Transfer characteristics : HLG
+ Z5 ?  O( D6 R/ Y4 o9 f1 ftransfer_characteristics_Original : HLG / BT.2020 (10-bit)8 t* J" h( y( K0 v, j# l
Matrix coefficients : BT.2020 non-constant7 A9 F5 s2 [2 [% ^6 M
" b( U+ f# H0 U1 p
- _1 Y- \1 f1 t7 C8 ?
Audio
7 L# W- o2 ^; {ID : 2$ L5 R, x( y7 X) _
Format : AAC LC
7 M! k6 q; }" O: lFormat/Info : Advanced Audio Codec Low Complexity1 f" N  X- J3 [! Q7 C: f- e+ O7 t2 x+ e
Codec ID : A_AAC-2+ O, X7 y  M2 ^) J
Duration : 58 min 7 s
+ C9 y) N: ]( ?) eBit rate : 192 kb/s
1 d4 l5 [( c3 `* [- aChannel(s) : 2 channels0 Q. r$ l- X3 O/ F. A* {: M, {
Channel layout : L R
, {/ O" p2 J% a7 G" \& _, G, U3 xSampling rate : 48.0 kHz
0 m0 `, @) X" I- a4 C! \Frame rate : 46.875 FPS (1024 SPF)
' ^. P2 ^6 x' i0 \% ?: \Compression mode : Lossy
6 n- t. n5 g  _8 s0 H' i) Z# B: S- [Stream size : 78.7 MiB (1%)
% T+ D; a" p- d1 e" ^Language : English
' k/ @' r( s! [* z" d  ?Default : Yes
! E# _+ q7 {! T! E5 I- I6 ^Forced : No
+ c- M' w8 p( e7 g1 e  V! Q( O9 g  x: ?0 c( }% B

$ ?4 I! n  R. z) W! \4 V- ?Text #13 O2 |8 B" `1 k: |
ID : 3
0 p0 N; [3 w3 s4 H( ]7 y) wFormat : UTF-8" U' E7 D/ Z" `; z1 q. J
Codec ID : S_TEXT/UTF89 i% R+ A( W  u& Z' t
Codec ID/Info : UTF-8 Plain Text
0 u+ @7 ^  o' n" X* c4 r$ pDuration : 57 min 5 s2 J7 D9 H* M9 |/ Y9 F
Bit rate : 33 b/s; `3 x4 u  \5 c" s/ S1 o  D
Count of elements : 359# D9 W7 ~/ {5 |7 y" ]2 N7 J
Stream size : 14.2 KiB (0%)
4 G% Z3 y2 Q  H$ }; WLanguage : English2 `5 J& K% m* ]  R
Default : No
$ H$ N2 A2 o  j% ^Forced : No
7 [! C+ s- G2 C1 H
; F# Q* G& K& f, `

7 {3 i6 R' U3 w# O$ s5 ?Text #2
8 n* S9 q1 [+ j- j% @5 I; N+ \ID : 4
2 i$ T( U6 t3 v+ dFormat : UTF-8
% d; ~. ~2 Q4 H* y+ G% q2 [Codec ID : S_TEXT/UTF8. `# a/ f7 A) Y4 U6 B" [% b
Codec ID/Info : UTF-8 Plain Text
. W' S0 n4 L' K  T+ T9 O  nDuration : 57 min 7 s% X2 P0 ^) u' ~! l2 z8 u0 b/ G
Bit rate : 35 b/s' f* B' Y7 j( `/ _! S/ K3 _
Count of elements : 401& T7 \! e; [  a
Stream size : 14.8 KiB (0%)
6 W; A, d1 k  J( o9 u$ C7 |: rTitle : SDH
: ^/ H. n; e: {Language : English
4 g/ J6 z# l" ^! O3 l2 cDefault : No0 ^$ a. T6 W' x8 c6 R: [6 D  Z
Forced : No
: g9 d. P% x5 S8 _! }
# ]5 w: G/ ?" P( w+ i/ e! {0 c
王朝 第二季4k.Dynasties.2018.S02E01.2160p.iP.WEB-DL.x265.10bit.HDR.HLG.AAC2.0-纪录片下载
' L  N6 g- A  y' C# ^) D( V8 b3 n8 A" r$ K; p; I
王朝 第二季4k.Dynasties.2018.S02E01.2160p.iP.WEB-DL.x265.10bit.HDR.HLG.AAC2.0【4k HDR 7.50 GB】! w1 Z' i4 U& A2 R$ ?9 m

' U. N- G7 k. I8 m# c
9 Z, A1 A9 j/ I1 l% x# h! e! C: @

+ Q3 D! A2 Q- [& x6 u- G
: t: R9 [. S- C; s! q4 U
登录 发布 快速回复 返回顶部 返回列表