开启辅助访问
 找回密码
 立即注册

我们是谁:美国种族主义编年史 4k.Who.We.Are.A.Chronicle.of.Racism.in.America.2021.2160p.WEB.H265-4k纪录片-17.02 GB

#4k记录视频#时间:2023-04-28 阅读:172 回复:0
112035yxsilxz4q4mvrosr.png.jpg
1 U; `( E# n' z1 G% A! d
0 u/ k4 v/ P9 K9 i2 J- ]简       介

5 |7 ?4 v% Z9 ^  `
2 h& k4 ^$ f: ]+ B/ E4 s  美国公民自由联盟律师杰弗里·罗宾逊关于美国反黑人种族主义历史的令人震惊的演讲与档案镜头、采访和罗宾逊的故事交织在一起,探索了白人至上主义的遗产以及我们克服它的集体责任。5 o: J% q1 u" F6 k+ G( N

8 M) j! w. i/ u; U7 J

+ A+ c, D) i7 F, K" d* q  s- h影片参数9 w' ?# G0 ~. n7 R8 d0 R3 }
我们是谁:美国种族主义编年史4k.Who.We.Are.A.Chronicle.of.Racism.in.America.2021.2160p.WEB.H265-4k纪录片信息
8 y8 B0 |1 V5 e4 |- [+ ~0 d* iVideo- |- x# g6 a2 U* v$ P
ID : 1( c9 v+ d4 S1 O+ f& p
Format : HEVC
# }+ ^2 t3 H" o5 `Format/Info : High Efficiency Video Coding* M  f1 n# n2 A  f- e7 K1 X
Format profile : Main 10@L5@High
% h/ [2 n( L1 G' ~, RCodec ID : V_MPEGH/ISO/HEVC
6 l8 _( S1 s0 t0 h0 H, U  g9 ]5 JDuration : 1 h 57 min
, n& [) B3 t- m& wBit rate : 20.4 Mb/s( D5 j+ Z, Q/ w  a
Width : 3 832 pixels
* r4 O2 `, D- w  O  O' [; \Height : 2 152 pixels$ r% r* q5 e2 u' ^# ^* \8 f
Display aspect ratio : 16:9
5 q' ]7 @/ G  }Frame rate mode : Constant
3 B- u. n  u  HFrame rate : 23.976 (24000/1001) FPS! s" a/ i0 \4 d. ~' T6 Z
Color space : YUV
( _! B: c% G, d* a  d! kChroma subsampling : 4:2:0
  W0 W1 p. I8 a& l, lBit depth : 10 bits
5 @, g( O3 U4 S6 iBits/(Pixel*Frame) : 0.103
1 [; W" o( ]( [: ?, J6 cStream size : 16.7 GiB (98%)
8 [7 E! d" ^8 o+ c: e* n: ?& N1 p- h# y; ODefault : Yes
2 l. o- M2 v3 {1 C; RForced : No% q0 e; \) g- l5 j
Color range : Limited
) e( D9 [3 N, a% P# p+ }Color primaries : BT.709& ?$ Q5 X: ]# H) P! V  k4 M
Transfer characteristics : BT.709* F+ y7 h- E- F
Matrix coefficients : BT.709
( G, w' ?& V9 {$ ^9 c5 j; A9 W* F# n4 `( a

. T7 y; O% a4 ^( B7 {Audio
/ b# ^9 N4 ~" U; WID : 2' @! \" e! r# N4 Y. w" F. K9 z
Format : AC-3
* o" G6 B8 ~: vFormat/Info : Audio Coding 3
, f1 d$ e# u. R2 v; @# q& D; MCommercial name : Dolby Digital
% {2 f" u% ?* _Codec ID : A_AC3& G3 a3 u' P  S5 `
Duration : 1 h 57 min
( w2 l: ~$ v" R" MBit rate mode : Constant
$ W- s1 z" `- lBit rate : 384 kb/s
' c5 I& N! p( A: JChannel(s) : 6 channels# y- ^7 q: R% s9 R( V' T4 J8 G
Channel layout : L R C LFE Ls Rs1 `8 E/ L; O2 n/ l* S3 G
Sampling rate : 48.0 kHz
9 s5 D  d* J! Q* F' a3 MFrame rate : 31.250 FPS (1536 SPF)7 Q! {: m3 X% @+ p0 f- E) U: l
Compression mode : Lossy
) t4 I4 f2 s/ t( TStream size : 322 MiB (2%)
$ @8 D; M0 e9 h, n# KLanguage : English. ^0 L) D3 u9 v5 |  D0 c
Service kind : Complete Main
, ?. \2 v; G1 \Default : Yes
; q0 J7 L; p" KForced : No) Z' R' y* _/ V- D! D
5 c/ v( e- l* x. E. r7 |
: G6 X& V, F# K& T
Text #1
& q: u( B% n6 G7 _ID : 3
' U+ n; h0 W7 YFormat : UTF-8
' a  ~9 Z7 d8 `' Q: b# ZCodec ID : S_TEXT/UTF8
, k1 e' S: S; Y. z2 H4 yCodec ID/Info : UTF-8 Plain Text( \7 l, L$ z8 j$ H5 E: G
Duration : 1 h 56 min
+ F. _$ `6 g( t' R9 |Bit rate : 93 b/s
: B- R) c7 K- u. _7 {" lCount of elements : 1764" N; I: x; Q+ {. @7 q
Stream size : 79.8 KiB (0%)
6 M; r2 w: m4 y7 t/ n. i: oTitle : English British
4 X' i& F. \8 b( Y# iLanguage : English& B  S. @- G1 t# b2 J
Default : No
, `0 X8 ?9 o* W) g" kForced : No: d5 O0 \/ l1 `$ U1 D  l
7 N- o1 |; ?* m% U+ D; O

7 J; H. C0 I0 m' lText #2
; z# U; \7 U9 A( P% SID : 4( c/ M: n& t- r% r0 b% R
Format : UTF-8
' P- j( q& I8 T' l7 _Codec ID : S_TEXT/UTF8
+ f+ p! }8 V3 g2 H2 OCodec ID/Info : UTF-8 Plain Text
5 G- `5 U( ~  D- xDuration : 1 h 56 min
3 i& N) i7 Q. y0 X) ?Bit rate : 96 b/s
: `+ Y; q3 e, T$ k) lCount of elements : 2054* X% F: p1 u7 f; ^+ h/ S
Stream size : 81.8 KiB (0%)
+ U4 S! Z) f, t- H" lTitle : English CC& [2 T( _  N9 y4 _  T' ?: K
Language : English" V. R) N; X8 s4 k+ z3 w, m  D
Default : No
; J% K+ g! M9 K; E* e7 \Forced : No
, r7 m6 N0 k: O2 B/ T) K) a
8 r; r6 K0 g( Q6 I4 ~: U
3 b* G+ r& j5 q( D% ~9 N7 Y, @
Text #38 X3 C7 V$ M4 U2 O- ~7 S( B+ ^
ID : 5! u2 }9 H7 R2 B5 U
Format : UTF-8/ U% C) X1 t& F2 o
Codec ID : S_TEXT/UTF80 s' m3 ?. T/ M0 \( O& S
Codec ID/Info : UTF-8 Plain Text. X. [7 Y! d" A8 o' r' b0 _# i
Duration : 1 h 57 min" f* ~" {* o0 A$ F+ I
Bit rate : 86 b/s
# T8 L. r) I. w" D& I, U6 YCount of elements : 1840; o6 e6 I3 ]6 E( {: s. V  G
Stream size : 74.0 KiB (0%)+ B8 Z0 n5 j$ I- X
Title : French European
4 j$ ~; F8 t% d/ HLanguage : French
7 B+ z5 S) Y1 {2 E) V" v- Q6 ^Default : No/ I" }( h+ R4 s! |7 d1 |
Forced : No
. f* T# |2 g. e9 d* d
0 G% T8 Z, G( M- f
# e- _" N' C' I! i
Text #4
, V( ]& d7 T* @6 @! t+ s5 YID : 6
, M0 P+ i) C( w# v7 u, M( Z/ uFormat : UTF-8$ R0 `, j8 t4 |( d3 q
Codec ID : S_TEXT/UTF8
( F: o9 ^- K+ A0 y# dCodec ID/Info : UTF-8 Plain Text0 a4 m, V! r; {! C6 ~
Duration : 1 h 57 min! I8 W7 x) _  [9 a5 d- n8 j6 x( u6 }2 T
Bit rate : 95 b/s' V5 C" D7 l* [" e8 p) r
Count of elements : 1841
- Q. B- e3 f1 ]3 E5 TStream size : 81.6 KiB (0%)3 P2 `1 t8 }" A1 {2 C- x
Title : Portuguese Brazilian
8 a7 m- \0 M& O: T4 @# D) V! QLanguage : Portuguese
! d! A% ~% y, v8 y2 E! A. vDefault : No) K6 F: p, y( }( R$ Z- X* D9 n$ I) d) x
Forced : No6 `5 T9 Q- ]9 R6 g" L+ o

* j1 A, S6 E( r+ a6 {  F9 W, U

, G! g3 G* `* KText #55 Q/ ^. m: ?' n1 U! B- z0 _
ID : 7- v* Q5 n$ b, Q0 C) A1 `! G8 h9 f4 a
Format : UTF-8
6 C7 D/ b% }9 ^% g4 v! Y2 qCodec ID : S_TEXT/UTF8# Z% Q+ @$ z! S. ~% i  I
Codec ID/Info : UTF-8 Plain Text
- [- C7 ~+ m+ Z+ C5 }Duration : 1 h 57 min, U. S# C# n# ]- c, @! Q( H8 c
Bit rate : 153 b/s
8 ?. ^0 w) q! ]7 ?8 `' f3 J6 ~! k' ZCount of elements : 18839 [/ S. b  S0 e2 q
Stream size : 132 KiB (0%)
2 E+ s* `5 k  h. oTitle : Ukrainian
* N: \6 h7 `# U* XLanguage : Ukrainian5 ~! F  x" e2 A
Default : No, W0 j% y' g' {' s
Forced : No
: C# h! ]7 F- K! \1 V$ _; M1 P1 x1 i7 ~
; s8 H" w2 v( ~( |7 I
Menu# [. _4 ~, o0 t+ Y, T
00:00:00.000 : en:Chapter 01
$ @: f+ r9 H6 B1 ]2 W* _00:06:58.501 : en:Chapter 02
/ Z6 T, b2 Q/ i  O( M' ]4 _00:14:46.720 : en:Chapter 03
; y# r& ?0 B' i00:22:01.112 : en:Chapter 045 Z7 ^# l( Z# T% n+ b
00:28:48.687 : en:Chapter 051 S& }* Y; e0 a3 j0 b+ C" ]  D# }  ^
00:33:47.527 : en:Chapter 06
# m' I8 r2 c) R4 A! X$ S00:41:54.556 : en:Chapter 07
% [2 F* {& S3 f6 J; a8 ~1 Y6 I1 p/ J00:50:27.027 : en:Chapter 08' h& |2 z0 u% x0 I: w
00:57:43.338 : en:Chapter 095 }- q; {9 Y2 P% @4 q
01:05:06.448 : en:Chapter 10
3 q! K% m6 Q) q. E# b" o5 V01:14:32.931 : en:Chapter 11% ]$ u8 @6 S  @' N3 d
01:21:07.283 : en:Chapter 12
- L, ?5 z, Q6 r( W01:29:44.092 : en:Chapter 13
* Z1 {0 D9 t+ ~; ^& e3 z9 X01:36:07.475 : en:Chapter 14
' M; v2 B& G& I6 @; a01:42:47.459 : en:Chapter 15

0 h4 ]1 R* J2 S+ B9 L- L2 i2 j/ u% M4 H5 Y* q
/ j$ }$ ^5 `& U( O* u
* |# F! p2 ?5 `$ ^8 @. [
我们是谁:美国种族主义编年史4k.Who.We.Are.A.Chronicle.of.Racism.in.America.2021.2160p.WEB.H265-4k纪录片下载! q# o' Q+ f1 a+ |! U

7 k% q# F' q/ {. \0 E/ @我们是谁:美国种族主义编年史4k.Who.We.Are.A.Chronicle.of.Racism.in.America.2021.2160p.WEB.H265【17.02 GB】
# L* S9 u: w3 n* ~2 A- x  p: u5 G6 N* w. ?+ |# Y
2 Q+ I2 f6 A/ B% K

; L- [6 F9 l8 |3 L* C3 K
% @2 A0 g% y* _" \* G  c5 M, B: R9 R# F& _0 Z# i/ `7 ^3 W
登录 发布 快速回复 返回顶部 返回列表