开启辅助访问
 找回密码
 立即注册

西部之星/西部明星4k.Western.Stars.2019.2160p.WEB-DL.x265.10bit.HDR.DTS-HD.MA.TrueHD.7.1.Atmos-4k纪录片-13.48 GB

#4k记录视频#时间:2023-04-28 阅读:134 回复:0
112055vjxb04sv4rljvj8j.png.jpg ! i8 q- {' o" A9 X
+ S( c5 B& Y( t" I) e% u
简       介
' C0 Z6 i4 U1 S8 w7 v* L5 d8 W! L
2 e: i+ x) N- u& v2 ]
  该片也是70岁的斯普林斯汀的最新专辑的同名电影,他与《斯普林斯汀在百老汇》的导演Thom Zimny一起执导,聚焦他如今的生活、心态和对音乐和舞台的感悟,还有他那有100年历史、“充满灵性”的谷仓,他如何回头和向前看,“我花了35年除掉自己性格中那些毁灭性的东西”。
. ~4 U! T$ r9 J# Y4 q: H0 F0 C
1 {: Z$ P0 }" b1 u8 S
* H7 H) X" U' b. \2 |
影片参数& U8 [2 @7 a- d5 ^6 ^/ R
西部之星/西部明星4k.Western.Stars.2019.2160p.WEB-DL.x265.10bit.HDR.DTS-HD.MA.TrueHD.7.1.Atmos-4k纪录片信息
2 N; d$ J$ A2 t) w6 X, c4 e& r- y3 CVideo0 K' ]+ a8 W" x  m  p0 ?6 @
ID : 1
3 a" z5 ?$ T% h+ y+ L6 v0 h# s: {5 mFormat : HEVC
# b+ @; q2 _1 Z% _* m" hFormat/Info : High Efficiency Video Coding2 J" V* l$ n' l: y( b* n
Format profile : Main 10@L5@High
% d( Z: S& t' q0 t: F! YHDR format : SMPTE ST 2086, HDR10 compatible+ C8 W% {- ]! E% \
Codec ID : V_MPEGH/ISO/HEVC
9 i" e8 K0 G* eDuration : 1 h 23 min
; D& K) o: s; n& F6 J8 NBit rate : 14.5 Mb/s# ?5 J8 l1 z! C7 H3 a6 B
Width : 3 840 pixels1 ~/ q' Y1 u& ~' w/ b$ n
Height : 1 596 pixels6 y: {# g  F# n/ A" Q; ?% J
Display aspect ratio : 2.40:1
3 k. L9 H" g% q: n* g3 kFrame rate mode : Constant8 V; Q3 ^9 m6 a0 H
Frame rate : 23.976 FPS  R0 \7 @! q, Y2 `2 y4 _
Color space : YUV9 R. n! p; S1 _1 x$ N. p. l
Chroma subsampling : 4:2:0 (Type 2)
, T2 z$ S$ `1 A1 yBit depth : 10 bits  V5 z7 l" Q1 \& c+ k+ l( ^
Bits/(Pixel*Frame) : 0.099' C# J& E+ N: h# ]+ {0 n& {% K
Stream size : 8.41 GiB (62%)$ U$ Y( e4 u9 ^; L( F( ]7 K
Default : Yes7 |9 }: N, ~! A: Z+ H
Forced : No
: X! U* l3 [- H$ `Color range : Limited
3 s+ C* @+ O$ }' {Color primaries : BT.2020" w/ I& X7 V9 k$ R5 {/ @# ^4 v) f
Transfer characteristics : PQ/ E1 P0 m1 M6 S& q8 c5 f/ E; x
Matrix coefficients : BT.2020 non-constant
% @- k, k: X/ O% O0 zMastering display color primaries : BT.2020
, I# ^+ t2 ?; f4 }& q$ UMastering display luminance : min: 0.0050 cd/m2, max: 1000 cd/m2' ~" p8 V: X. J0 b: {" y
Maximum Content Light Level : 589 cd/m29 t# E# C& W4 V+ i
Maximum Frame-Average Light Level : 58 cd/m2/ c1 \; m  y" x1 U+ J' j

& U4 c, R* D! C

, \* Q6 ^8 y* FAudio #10 g* W/ ?" }% c4 t6 `: v
ID : 2
( X, d7 }7 `1 d1 h/ b8 mFormat : MLP FBA 16-ch
) o% L9 g1 s4 L) s! xFormat/Info : Meridian Lossless Packing FBA with 16-channel presentation
/ _- f: R) E6 ~# w" I; m& WCommercial name : Dolby TrueHD with Dolby Atmos6 G% }4 T& D7 o* p
Codec ID : A_TRUEHD3 F( B6 W2 U7 Z. J% d
Duration : 1 h 23 min/ i, b, g7 f. [$ }% ]1 o0 g7 j
Bit rate mode : Variable
: D1 I4 w. H9 B7 W0 J. A, u* |Bit rate : 3 871 kb/s
* C! o4 G; f7 d  ?3 {3 ZMaximum bit rate : 5 568 kb/s8 g+ J" S6 A! z. [2 s
Channel(s) : 8 channels
  G; T, {$ U' n% x7 l8 KChannel layout : L R C LFE Ls Rs Lb Rb
/ l% I6 F! o8 l' U4 Z) z- tSampling rate : 48.0 kHz
5 {. z- J% C9 v7 k. v- p9 FFrame rate : 1 200.000 FPS (40 SPF)
) J8 P( h5 e3 z; W0 }, [" I5 Q: @Compression mode : Lossless" Q! ^& h# r: F. x. m7 W* u
Stream size : 2.25 GiB (17%)4 j- M) U# Z: ^$ o/ @( ?
Title : TrueHD 7.1 Atmos
; w/ M) U/ {8 t/ u0 eLanguage : English
/ c( i8 W! Q7 q* y$ i$ P5 F, C) fDefault : Yes
( O% n' J; R/ B! j! R2 S0 M- ^+ SForced : No3 Q  J' B' r4 G
Number of dynamic objects : 15* D' d: N) D  u' K
Bed channel count : 1 channel
  b' r6 g8 s, l# ]) @Bed channel configuration : LFE* h% e  ]) t+ P( l+ u) u1 h4 E

+ \+ Q. j( V* @6 z0 W+ R

( ~" ]+ m  {( eAudio #2% a6 |" ^# i( U3 d' Z. j% p$ `) v- @
ID : 3
1 d+ B+ `- U! n6 tFormat : DTS XLL
- O+ p' Q/ A/ N0 L  l8 [6 `2 u$ iFormat/Info : Digital Theater Systems
* G  [  G( V, a5 @/ `Commercial name : DTS-HD Master Audio/ M4 l* h: a% F' i& E
Codec ID : A_DTS
+ u1 V# I5 @! K4 [Duration : 1 h 23 min; V6 M0 F) O7 m0 d; _  G: q, q
Bit rate mode : Variable
" W3 m9 `2 g1 ~/ ~8 I3 }Bit rate : 3 365 kb/s/ o/ E% i: O' l- A$ g* f
Channel(s) : 8 channels
* l5 ?1 A4 u2 t* y9 ]1 q) SChannel layout : C L R LFE Lb Rb Lss Rss# U1 h( z* L  g7 n0 J
Sampling rate : 48.0 kHz3 a6 A7 G: n. F* O
Frame rate : 93.750 FPS (512 SPF)/ s+ Z* ~( U* u2 r6 b: _* B8 h. T
Bit depth : 24 bits
* ]- Q2 K7 Z; e3 S3 h' XCompression mode : Lossless/ }6 ~9 g: Q4 @, g# y/ a
Stream size : 1.95 GiB (15%)
$ \' G+ c( J. `$ lTitle : DTS-HD MA 7.1  ]0 U$ {4 X) v5 o
Language : English
& S9 n. W7 n9 q4 g1 d' RDefault : No& a* l2 o: \$ l, w5 w
Forced : No( L9 v0 F8 a- U. ^2 w$ j
( t0 A0 g: B' m& U

0 g; P4 L/ y1 @2 CAudio #3
$ E! @) ?# [& `6 U6 kID : 45 l6 x( H* X, t! A5 o. O; |
Format : AC-3! b+ N; M# Q' F/ t6 I. ]3 `5 W
Format/Info : Audio Coding 33 a# `; |# W0 F3 ^3 g
Commercial name : Dolby Digital
0 [- b8 j8 ~/ ]) r. s( _Format settings : Dolby Surround EX
; O: L$ W5 a- ?Codec ID : A_AC3- M8 M& K: F( ^0 x7 [' z$ V9 r
Duration : 1 h 23 min% a. f' Z/ G8 \9 U8 f" f+ ?; G" E
Bit rate mode : Constant
2 [0 o) G- A/ l! qBit rate : 640 kb/s
3 p( R- k* V3 C2 @# Z5 |" xChannel(s) : 6 channels
8 E+ f5 f7 m# ~* U; R. vChannel layout : L R C LFE Ls Rs+ v0 p) j6 K5 D
Sampling rate : 48.0 kHz4 ]; W- u. h' ]
Frame rate : 31.250 FPS (1536 SPF)
9 G2 w* C2 n9 v" O# N5 L' s4 }; XCompression mode : Lossy
4 }/ r7 i' q) m, ]" ?+ IDelay relative to video : 8 ms% G. B: V8 o) n& v# y  ?; W
Stream size : 381 MiB (3%)
- A( ?& T9 O7 G! L- _4 t6 s1 w# wTitle : DD 5.1
9 I- Y- [0 c5 ^: [4 LLanguage : English
! I! G  S1 E! L( g) UService kind : Complete Main4 Y7 W% J! O* `9 ?) n/ c4 x: ]5 ?
Default : No
# n0 T4 g5 _2 b3 cForced : No
/ N: I) o( Y9 C
$ @' s9 p* A5 X' M( m2 M* L* z

1 L  Z5 Z6 @2 }Audio #41 @" P# J. s  I8 x8 i# k, o
ID : 5
$ o) R+ H3 _0 F5 s3 ^- P' b; DFormat : E-AC-3 JOC
6 Y7 ]+ Y9 z4 ]/ y: q( jFormat/Info : Enhanced AC-3 with Joint Object Coding' l7 L- U0 h1 y; F3 ^2 R# O
Commercial name : Dolby Digital Plus with Dolby Atmos
/ C4 J" z1 q. d9 PCodec ID : A_EAC3
1 w. }* T) X# V( f& ?$ HDuration : 1 h 23 min8 ]7 k7 v) I( ^# ]: N1 ^
Bit rate mode : Constant
! i5 U+ ?+ o; G4 kBit rate : 768 kb/s& ~* U* p$ `; J( m) o6 p; l, C
Channel(s) : 6 channels, G* j5 [& i! s' b: K% m. i+ S
Channel layout : L R C LFE Ls Rs
  W! f$ w9 H+ g# e6 a$ ~Sampling rate : 48.0 kHz$ i; `: b+ T: t# @2 |
Frame rate : 31.250 FPS (1536 SPF). m* o4 m0 d0 Z: \# D* `! D
Compression mode : Lossy
8 g- @+ x5 {% z. q" }! R; y( AStream size : 457 MiB (3%)
0 w  ^, I% G) ?: t" |6 FTitle : DDP 5.1 Atmos6 ]% @" m- K, q- X. `
Language : English
: g* Z7 N) k& A4 o; Z8 {! yService kind : Complete Main
6 e' j, E0 {( ]/ K- E! PDefault : Yes
7 [3 c- V9 Q, |Forced : No$ t6 ?* c' m+ q9 p$ D) w
Complexity index : 16
, T8 Y% `# \; k6 b  {+ \% MNumber of dynamic objects : 15
2 }( h5 j/ n* F! U+ f# NBed channel count : 1 channel( s+ X, g! M$ X/ Y1 F
Bed channel configuration : LFE
. B; ~8 x6 L9 L- m
7 v: Y! E  e' [
" V8 h) H6 t& K' B8 M
Text #1; {- V4 n& b+ e7 E
ID : 6
* ?# a/ X; A( X6 ?' t: WFormat : UTF-8
$ A9 d$ n$ K/ J& C  d: hCodec ID : S_TEXT/UTF8
. N7 @' b" L. y+ ZCodec ID/Info : UTF-8 Plain Text
4 E7 n5 H; I0 Q' ~, |5 o, N0 nDuration : 1 h 18 min
9 d1 V1 r7 J+ f0 k) |3 wBit rate : 66 b/s; A+ J4 |. s8 G( U
Count of elements : 864" B1 V& b1 a. |. G
Stream size : 38.3 KiB (0%)
+ r4 ~9 K6 P* e4 J! S+ V3 B! N1 TTitle : English
; d5 \1 W" V) ZLanguage : English
3 O8 |' u4 N. g  A+ VDefault : Yes) |. ^' V  O! `3 s  P. G: E  Y
Forced : No+ k" K9 N( d( U; W
' w/ K% |& F" u0 m1 R- |, h

' J* X# b; o' r+ `$ K6 b5 y- nText #2
& w2 w% x/ h- ^% \ID : 7
6 j! a! f$ k5 E! L1 FFormat : UTF-8& B5 b( a/ j+ |5 U2 A" r& T
Codec ID : S_TEXT/UTF8! l1 u; D& r) Q
Codec ID/Info : UTF-8 Plain Text
5 h: N  i4 ^% f5 B4 B, k/ BDuration : 1 h 21 min
; z1 ~3 }+ n- t+ NBit rate : 12 b/s
0 a+ Z! J" A8 _1 ^Count of elements : 269
9 r& G. U! [/ ]% _4 A) n; a$ pStream size : 7.74 KiB (0%)
2 q# \" o7 ~. [Title : Chinese Mandarin Traditional! j8 b# t& z2 u$ [6 @0 W
Language : Chinese
* _' a$ F) [/ U9 p- GDefault : No
- Y. ~% H/ I$ l/ y) m8 S6 VForced : No
- O) W2 N- Z! I5 o+ t9 L7 [) S
; a! v' _5 n% |& f5 X. W
' ]" x' F+ L5 |. ?
Text #35 j' x9 R" K" ?! [& s
ID : 8
( K( B) b% z: p" xFormat : UTF-85 w2 {8 J; K0 s! x- I
Codec ID : S_TEXT/UTF89 w  C) V* q+ N9 s. t- N
Codec ID/Info : UTF-8 Plain Text
# C! h5 B" ^+ E% C; g% ^Duration : 1 h 21 min
4 {5 n( ]0 x" oBit rate : 16 b/s
8 A0 r/ P( F/ @" ~, b# Q3 CCount of elements : 267
: A& V+ F+ S/ N+ a: GStream size : 9.78 KiB (0%)+ a# o, A5 H! S5 p! J1 b, Q& N5 a
Title : Czech- U5 ]- G/ m8 l& o$ r
Language : Czech
/ Y& s& p2 U' `2 N* lDefault : No+ r9 G- K1 d1 |' R+ V# R1 F! K
Forced : No7 E6 ^$ S0 U  i8 s
: R4 x6 Q0 g7 T# f' V. t
$ r# _0 Q  f# G1 ?5 N; c
Text #4
; s8 u% v2 Y8 @% |4 qID : 99 H( i% M+ h0 u4 m
Format : UTF-8
$ B' C7 m$ f  b% v, O" b  Y6 Y' [Codec ID : S_TEXT/UTF8& m! `- t, f. i' D2 o9 p
Codec ID/Info : UTF-8 Plain Text
% }1 {5 {- d: v2 E- Y) NDuration : 1 h 21 min
9 k+ j" k9 u2 V" O% t" LBit rate : 18 b/s
6 _& E# s0 V% I% ]7 [7 l; r: eCount of elements : 265  v2 V; `2 F5 R" q
Stream size : 10.8 KiB (0%)% R. m0 e6 z1 ^9 U+ c& q. }* f
Title : Danish8 ^% K( y9 L" |3 M. `+ }, _% y5 S! o' M
Language : Danish6 _. S# z( k3 l) {8 r3 X
Default : No
) a! a% O, n7 C6 z. }1 dForced : No: ]+ V9 A) E( P- h
( W6 C! H8 d1 q7 v8 K  H

' A0 l! i' f! ~2 j% j- _Text #5& l- [) J5 r$ @  x1 P8 v' V1 d
ID : 10
# K& k- b' j2 D9 G$ EFormat : UTF-8
' h' r/ c9 V& p) k; {' n) ]  vCodec ID : S_TEXT/UTF8
2 v0 a0 P# _- o$ r% Z& aCodec ID/Info : UTF-8 Plain Text
8 F7 P' c+ L8 [$ Y( u; m9 E( qDuration : 1 h 14 min, k+ Q7 ^- Z- F' w
Bit rate : 20 b/s
0 G, U( j2 w# o( ^, R: FCount of elements : 2474 l7 e& ^8 h* g" x% `% {% |
Stream size : 11.4 KiB (0%)
# W* K5 r1 T- u) k- v5 GTitle : German
9 q! L3 u6 W( p- jLanguage : German( F/ J' {% r* h
Default : No0 m1 o* Q7 k5 p* W. G" d
Forced : No2 j4 }0 g5 Y1 g( V. L

0 A+ e4 w/ v. i# ?  r, S

" Y) K5 P% {7 I' t* O6 pText #66 {! z/ t3 j/ `
ID : 118 q" _6 V  h6 v/ j
Format : UTF-8! y8 ]$ \6 u! X) D/ @& H
Codec ID : S_TEXT/UTF8/ ^8 |) Q1 S2 n% Q  v5 y
Codec ID/Info : UTF-8 Plain Text" Y- m, H3 W9 ?, _; a' Y
Duration : 1 h 21 min8 O5 Y0 J6 T  U9 X2 h8 y& b
Bit rate : 18 b/s3 c- o8 Y' c. p' S* H: r7 p
Count of elements : 2491 A2 P' ~0 k1 m4 b! S7 `/ R$ ]
Stream size : 11.3 KiB (0%): c- h) z  a: J/ ?
Title : Spanish Latin American& S# \: V  M" D7 [( |" r# q
Language : Spanish! Z( r6 n4 @. `) l% v
Default : No0 V" K: O& o0 K* v& o
Forced : No
: c2 M% C  D; z. u* f% v, B9 {% _( G1 M

, X. g2 _3 C  Z8 YText #7
6 N( u1 s$ a( {! g, q+ y, W. |0 I- y  sID : 12
' `5 f/ h: H: i. q- |7 M# FFormat : UTF-8
9 O# h" P3 s: [# I) FCodec ID : S_TEXT/UTF8
) Q' |; Q/ r8 C: N5 vCodec ID/Info : UTF-8 Plain Text9 R: w! @% W, p$ h5 w) c7 i  _
Duration : 1 h 14 min; B& m& j! k0 Y( u$ m
Bit rate : 19 b/s
; O) y& O# }- I- v# P/ v. \2 ZCount of elements : 245% w- V8 G4 M5 Z, E
Stream size : 10.5 KiB (0%)
/ Z( W9 ?% q; u$ QTitle : Spanish European
- t- C2 v) V) ]! B8 }Language : Spanish
2 c8 S& l7 z! o% p  NDefault : No
2 M5 B# k) z$ ^( |4 WForced : No( G1 N6 I  @/ ]9 ]6 m

& t- ?! _, M5 B) i

! [8 o1 v$ o* e3 w8 V# T4 P, X) H5 {Text #8) p' P$ s% e. I. \; g& x! ~
ID : 13
! n' c9 T1 i6 p; D9 ?Format : UTF-8
0 [* H8 e- W1 \- J& s5 ^Codec ID : S_TEXT/UTF88 A6 t6 R# r# V$ ?' t
Codec ID/Info : UTF-8 Plain Text' R* e& Q( M! ~. N: C* ^, ]6 @
Duration : 1 h 21 min
! Y/ z: \. j, ]9 VBit rate : 18 b/s+ O- Y) A4 P& `7 ~
Count of elements : 267! _7 c4 s' D* C! F  D) O1 x
Stream size : 11.1 KiB (0%), F# |# d0 _8 e& D! U: q) L
Title : Finnish) B" L$ y9 v8 T( H. c
Language : Finnish8 [; H  }# n& ~4 I8 b5 h' ^& M3 D9 ~
Default : No6 m( i3 {4 y7 I$ B8 v& f
Forced : No& J7 t6 K' j0 F2 |' ?9 T
7 g5 u6 K9 q& k9 f

8 |, J, ^. @! Y( a( f- E6 s0 j3 zText #9
- M) J4 W: x& y+ }, iID : 14& P" c$ u" |+ w- s
Format : UTF-8
# ?; Q" L2 }' V/ P! G9 [/ h' ]8 WCodec ID : S_TEXT/UTF8- V4 L" M: ~  M& P/ u
Codec ID/Info : UTF-8 Plain Text# z$ k; }' A: d1 }( q0 \$ s
Duration : 1 h 21 min
) D5 N$ H7 s1 \8 |; r0 M0 EBit rate : 19 b/s
; c9 U* a& Z5 ?/ K; uCount of elements : 316
( P# o4 N- A9 T- [* y9 A6 ZStream size : 11.9 KiB (0%)# F* A; W/ S* e% M$ s8 `' I2 {
Title : French European
( S' Z+ B8 X: s0 _Language : French! M5 }) `4 a1 X
Default : No& R$ v7 U9 n2 |- g% H# z/ ~( ]! n
Forced : No
& [" w3 K9 m3 M: O8 T! c( S
: P% f0 ]3 J0 O, N0 u- m
& w( \6 h3 `6 w) N/ [7 a4 Z) l/ {
Text #103 C5 P* J3 y: I8 V: m! V" m
ID : 15
# \# k& |+ E$ }9 VFormat : UTF-8
0 a5 d1 N! E6 y1 ?( dCodec ID : S_TEXT/UTF8
) ]+ S( E; s) g* b: A- p: M( @7 G) ZCodec ID/Info : UTF-8 Plain Text
# F) W5 Y# I$ P& ~! PDuration : 1 h 21 min
2 F; k" h+ w8 Q8 q/ sBit rate : 23 b/s
, f5 p- h+ p" b( Z9 m% tCount of elements : 267
) p' F/ O( U* k. }% ]# IStream size : 14.3 KiB (0%)
* C2 K: `! f# [) y1 E$ f: P) lTitle : Hebrew5 a( ^+ g  |' S* }( }! r
Language : Hebrew/ H  N* u' W9 ^( E- J
Default : No
8 G* N  q% y/ s+ O4 I( jForced : No" g2 E3 x3 |& [: b8 U* T

3 z% Y; p* W( [+ d0 t# B4 w
* k3 [0 w3 {7 h$ Q( W! |* T& H2 @
Text #11' ~8 B  ^1 B  n+ y( z- [
ID : 16
5 }. g% I3 l/ LFormat : UTF-8- N7 s% I! B, b) ?/ `. |$ v
Codec ID : S_TEXT/UTF8
+ b+ v- q$ x2 s& U: t! G0 B6 hCodec ID/Info : UTF-8 Plain Text
) D( Z6 L7 j' ~$ W7 J6 WDuration : 1 h 21 min
" \) ~% C. M. M/ j1 b% dBit rate : 18 b/s
- E2 g' c' @4 |2 RCount of elements : 2428 B' y& l/ T* G: p9 h) `* x
Stream size : 11.0 KiB (0%)5 d! [* L$ ~% I/ r7 ~: x9 {" _" P/ O
Title : Italian3 Q1 u8 k+ }9 \$ X" L3 G0 u
Language : Italian
$ [1 q) V. ~7 f$ Z) p& Q7 v9 aDefault : No6 D# H2 ?: d: G- E) s
Forced : No5 m( K" D) O: M. y' `3 V
+ ]/ O" c( w0 Q  Q
) A' ?  G+ S5 y% O9 j
Text #12
: h, l5 f4 D8 k: h" p! _ID : 17- i) i# Y3 j2 Q+ Q* P3 |- X) f
Format : UTF-8
" e# R& T: A' q3 P2 C8 R6 xCodec ID : S_TEXT/UTF8# B0 u" C5 L4 w4 `; N
Codec ID/Info : UTF-8 Plain Text
6 S* B" v# Y+ _3 u/ z2 v0 tDuration : 1 h 14 min/ X( o+ p6 S0 g3 h. f# t! U
Bit rate : 17 b/s8 j" i' j* r: \5 @& i% _, S4 l
Count of elements : 254  v: G2 y$ m' @2 ]
Stream size : 9.50 KiB (0%)
& x: d" |+ ]. b6 V. _9 `Title : Japanese5 j$ M% g: g8 _# a) Y' l
Language : Japanese
4 @) x' i! N5 z+ K  G1 rDefault : No2 v9 T( [( g; X' s
Forced : No3 X7 M3 N5 a+ c( s: o

8 T& [$ P; J) q" d' r8 V) D5 w
3 u% [* Q5 E  n3 Z4 p+ d6 ^: e9 u1 J/ {
Text #13
, r( |; j, E$ f% k" aID : 18
' {5 S% n4 g! J( O; q; RFormat : UTF-8
& g$ h. F7 t" r/ R  V% FCodec ID : S_TEXT/UTF8
5 w  G! `! L6 b" o/ z1 E$ V( p! WCodec ID/Info : UTF-8 Plain Text7 }! ~  ^+ }2 w5 k" w' D6 R* }
Duration : 1 h 21 min- @5 v, l' a. H4 @/ f
Bit rate : 21 b/s
4 W7 S2 i4 X4 z; V# U7 _Count of elements : 2699 o. M+ j( f; P2 ^. \( r+ U
Stream size : 12.8 KiB (0%)
1 H( a! l$ l* q) Y$ H4 PTitle : Korean
& d0 h9 z; P6 M* @/ Q6 w" NLanguage : Korean" C; a8 }. v/ l( k  M( N
Default : No
' _; P* z4 P% _' |4 X7 j9 j9 oForced : No
; N$ [) m4 g2 [$ S6 u, W; F$ `" z7 U6 |: ], G# I1 c' C- [
0 r! {  o* K0 \0 S( Y9 m4 O3 G9 J
Text #14; x8 X8 n" l" U- d1 k* K
ID : 19
! l/ I: O' d' T3 m' wFormat : UTF-8
  |& `% k5 i  w3 X  B1 _Codec ID : S_TEXT/UTF83 [9 i- M: S$ a
Codec ID/Info : UTF-8 Plain Text
# Q. Z3 K; c( v- X. RDuration : 1 h 21 min# |. K) X8 Z- R* ~- g. D) [
Bit rate : 17 b/s
, z9 u/ u) o: m, n9 n3 WCount of elements : 265: I% G' T* y2 D( L# m
Stream size : 10.5 KiB (0%)' W3 {, U. D' d# e' _7 X% E
Title : Norwegian
$ t' O/ W+ `; hLanguage : Norwegian
3 F0 H  C' b! T( [Default : No
% Q! E5 Q, z0 W3 X. b8 [7 `3 VForced : No  s5 F( m& H, }
, J# F; I" A: {8 c+ y4 W

% J5 z, O, g$ w& UText #15
/ r; Q7 f/ ^3 D  l. OID : 20
. K& Z0 w* |7 gFormat : UTF-8  m  D1 A  J6 ~8 M! |% B& H) @! m
Codec ID : S_TEXT/UTF8+ P1 e- U2 m2 G; S- F" k3 M
Codec ID/Info : UTF-8 Plain Text
4 H- F  T  d. B7 R# M9 \Duration : 1 h 21 min
: {6 s- S2 w. M+ c, |& zBit rate : 18 b/s
3 J0 |& R3 g2 V% T+ BCount of elements : 249
5 K* Q/ ^" j  U+ P" Z1 Q$ gStream size : 11.1 KiB (0%)5 W4 W$ H: \$ J: |! Z& s
Title : Portuguese Brazilian
8 S! s' Y; C0 p( \( [Language : Portuguese
5 X# k  a& P1 C- o$ Z5 N$ rDefault : No) o/ z- X3 D2 I9 a+ \
Forced : No
  h- h' p( [3 a: K/ p+ M. g( j0 A7 R) o& x2 u6 P

# u' N' |$ z$ U2 J8 P5 `Text #161 k: H3 n2 ~2 e% ]. q, S: l3 a
ID : 21* z& j/ O# p5 z
Format : UTF-8+ b3 A3 |, F* T% b9 @+ G9 n7 {
Codec ID : S_TEXT/UTF8
$ X; Q; ?$ R' ~5 A; ^Codec ID/Info : UTF-8 Plain Text
  h% Q6 c: x* U% i9 }/ wDuration : 1 h 21 min
! n% [% d0 E4 n% X1 [, LBit rate : 18 b/s
5 w7 q+ Q0 K& W' F( O( [Count of elements : 267
! q/ f4 m% [+ ~1 a1 w) h. h/ ]Stream size : 11.1 KiB (0%)* u3 J& F2 H& W. s
Title : Portuguese European
9 i& s( g1 n" {' P: N4 NLanguage : Portuguese
3 S& m) a7 t: t7 iDefault : No
) ^4 @* t% y! W; m( sForced : No
* a4 D2 i" x8 F. L1 P* T6 a6 M- t& `
4 B8 `' J9 w; P# w6 B8 k

. O9 c, T- |/ g7 kText #175 Y$ ], U2 k% G! V
ID : 22
& _4 D$ E" ?4 p3 b- vFormat : UTF-8
- {3 @8 |$ m% O* O; qCodec ID : S_TEXT/UTF8* f/ z  D% O3 n- T4 W( o
Codec ID/Info : UTF-8 Plain Text
, b6 x* X: y" x* z2 _) yDuration : 1 h 21 min/ j- x; x  F! R5 e- u+ o
Bit rate : 18 b/s/ ~& z7 t; n% P! D7 G: c+ g- |
Count of elements : 267
* Z/ f; I" v1 l. o+ ZStream size : 10.8 KiB (0%)5 u$ E* T# F  s
Title : Swedish& I! b" w! H6 s5 g0 r* y
Language : Swedish
1 c5 f! n, w0 dDefault : No. l* o# A9 h/ G" M1 k* S, e
Forced : No8 N7 |, U  i% ^8 P. M8 r
+ W8 p/ q& e2 D  V7 I5 A
8 y- V! P. O; P' d; J' X( Q
Text #181 [6 ]: o* B" V( }
ID : 23
$ d) k- {8 N& lFormat : UTF-8* \& k- G8 e4 |: ~
Codec ID : S_TEXT/UTF8% ^9 x+ k4 w! [1 k
Codec ID/Info : UTF-8 Plain Text) }* E$ Z5 v6 I4 K( `5 p5 r
Duration : 1 h 21 min0 |; V9 A: R# I) T  s* Y) l
Bit rate : 39 b/s- y8 N, t) J( p) b) l/ X
Count of elements : 269
+ Q# j) C2 ]% l( w, n# X- iStream size : 23.6 KiB (0%)
1 ?& ]" z0 f# ?+ O$ ^Title : Thai2 p/ m) ^* ~( z5 X" s
Language : Thai
, ]( O6 E9 M: X4 NDefault : No
. `) J+ \; M; |  w* _Forced : No# A" ~9 D7 Z: D1 V+ L$ ^/ ~

7 ^$ @  e, a" P8 P
$ x1 ?- Q, z" K3 Z) C
Menu( v# M% x; t1 v! @: j$ @0 h
00:00:00.000 : en:Chapter 01
% p# \, I/ b$ j( J; Q! T00:03:47.143 : en:Chapter 02
+ D+ K0 E, h' J3 V- X* q7 N* ]( t: C00:09:10.925 : en:Chapter 031 Z& e) \2 N( ]+ q" f
00:15:24.132 : en:Chapter 04! Y% {5 }4 R; k; t4 V$ U" ?' B: t, f* {
00:20:37.195 : en:Chapter 05
( S! k2 t6 S& }, z% l$ v& R0 s7 _00:25:13.596 : en:Chapter 06
& f. C6 `" O/ l$ J9 C" p00:31:13.498 : en:Chapter 07
* b8 g3 i: Q) H' \, u3 _00:37:17.862 : en:Chapter 088 L: T( q3 S% ~0 A" C  a# w
00:43:57.178 : en:Chapter 09
$ r( `5 H% i: o" |: x7 B0 o00:48:21.151 : en:Chapter 10: Q- d- t3 m3 s5 `% M) h! Z7 ^
00:50:20.395 : en:Chapter 11
, m* }5 H4 ~2 ]1 [4 c/ z00:58:09.406 : en:Chapter 12- T* T8 A1 o/ Q6 t  j3 }) C
01:03:03.658 : en:Chapter 13, R' r- z/ c8 e" R* C' Z9 x1 P
01:09:51.066 : en:Chapter 14
! \, W- l8 C4 k* W4 m( x01:15:57.807 : en:Chapter 15; q% l2 w7 o; a
01:18:58.863 : en:Chapter 16
5 u7 [% j! ]( |" N; `4 E. w/ z
5 _0 h: W. w& V9 U/ l1 k8 K% Q$ |4 M

! L0 j7 @' X, ?+ u9 R4 E) M$ _$ E) I6 R1 |- p7 t8 U

* h2 A! A# }3 n- ]/ R' [西部之星/西部明星4k.Western.Stars.2019.2160p.WEB-DL.x265.10bit.HDR.DTS-HD.MA.TrueHD.7.1.Atmos-4k纪录片下载
! i7 T: ^5 k4 a6 T
1 O" t( Y2 Y" @' y. T" @4 {4 ?西部明星4k.Western.Stars.2019.2160p.WEB-DL.x265.10bit.HDR.DTS-HD.MA.TrueHD.7.1.Atmos【4k HDR 13.48 GB】$ y( X* X; w: v# X0 M6 ?+ t

) I. k5 m2 b) F( a0 F! O0 B6 e2 |6 W' _4 B1 @4 K/ E4 G
西部明星4k.Western.Stars.2019.2160p.WEB-DL.x265.10bit.SDR.DTS-HD.MA.TrueHD.7.1.Atmos【4k SDR 12.03 GB】; o% b- `  M0 P. o! ~
# X: z. k  ^; d3 D6 g' O

6 y4 D0 U) W& X( z1 A西部明星4k.Western.Stars.2019.2160p.WEB-DL.DTS-HD.MA.TrueHD.7.1.Atmos.DV.MKV.x265【4k 杜比视界 13.43 GB】# t1 g& U  p' O$ D
& G+ G. l: \$ C1 r
% ~$ c0 E6 g( p# A$ a
西部明星4k.Western.Stars.2019.2160p.WEB-DL.DDP5.1.Atmos.DV.MP4.x265【4k 杜比视界 8.82GB】' P. r0 y- b8 N

2 m" S; \9 C% S% A+ `; O8 `
% `, D  \2 x/ w4 G# L1 Y& E

; x3 C  o6 m$ @$ q
0 l& }$ _$ d* ]4 A5 R- m# W3 A) ?6 S( m+ A- i$ N. x" H% A
登录 发布 快速回复 返回顶部 返回列表