开启辅助访问
 找回密码
 立即注册

西部之星/西部明星4k.Western.Stars.2019.2160p.WEB-DL.x265.10bit.HDR.DTS-HD.MA.TrueHD.7.1.Atmos-4k纪录片-13.48 GB

#4k记录视频#时间:2023-04-28 阅读:249 回复:0
112055vjxb04sv4rljvj8j.png.jpg
0 h5 o7 p* h$ z8 B4 \, A8 B+ W* _+ T2 O% Y  ~3 v  ~+ D
简       介
( a9 g- ?+ F2 ~8 c0 J! c  x! u
9 i. {0 A( N% U3 |6 o+ D
  该片也是70岁的斯普林斯汀的最新专辑的同名电影,他与《斯普林斯汀在百老汇》的导演Thom Zimny一起执导,聚焦他如今的生活、心态和对音乐和舞台的感悟,还有他那有100年历史、“充满灵性”的谷仓,他如何回头和向前看,“我花了35年除掉自己性格中那些毁灭性的东西”。
9 r$ V" R' u& v" h! c5 H/ R/ x" g0 F$ M& b  F* B* k$ j: p* x
# f1 c! c; z# I+ p4 U$ s
影片参数
& T- h5 u  U8 }: a4 z, `) o  _
西部之星/西部明星4k.Western.Stars.2019.2160p.WEB-DL.x265.10bit.HDR.DTS-HD.MA.TrueHD.7.1.Atmos-4k纪录片信息1 @4 Q) J) ]8 T1 L3 E
Video* U  k3 H" ?5 l9 V3 c; j' ?  W  r( K
ID : 1
" H8 @- H0 Q* F+ vFormat : HEVC" ^; f. |, q: T2 r" W4 S! Y
Format/Info : High Efficiency Video Coding. x( S$ H7 \+ K6 ^6 N" f! R
Format profile : Main 10@L5@High
6 `4 K9 C- l6 r1 n  aHDR format : SMPTE ST 2086, HDR10 compatible* [/ N: ?1 s% j0 R
Codec ID : V_MPEGH/ISO/HEVC
0 A8 ?; G6 @1 j3 u7 e' Y) A( mDuration : 1 h 23 min& R( d' l; @$ _8 N5 E
Bit rate : 14.5 Mb/s; y3 {+ u, R( Q
Width : 3 840 pixels# G+ {% d, v1 _& A3 E
Height : 1 596 pixels( M/ R2 a8 f! i* T% t
Display aspect ratio : 2.40:1
7 a5 W" c, v: q/ d$ D* Q& hFrame rate mode : Constant, d6 y# @8 }; p/ h. T0 i
Frame rate : 23.976 FPS
  d) K/ W6 `2 N2 p- ZColor space : YUV
6 h. I7 K! y) q+ iChroma subsampling : 4:2:0 (Type 2), p% I# c0 m: h! S; ^8 d, ?
Bit depth : 10 bits
1 s, D8 w) [( F; c7 uBits/(Pixel*Frame) : 0.099
" i- H2 C# S; y" i, fStream size : 8.41 GiB (62%)
7 {: e% u2 I$ D. @8 t( W$ LDefault : Yes, [4 n4 s2 H& k
Forced : No% u/ X: Y! F& ]
Color range : Limited3 N0 l1 D* t- C* l& S
Color primaries : BT.2020
8 s+ E3 B5 d1 t! R; ?# @Transfer characteristics : PQ
; Z* H! k# J+ @& {4 N# z! qMatrix coefficients : BT.2020 non-constant
4 q0 A( }0 ^+ ^6 bMastering display color primaries : BT.2020- k# \1 s/ `5 \% v$ Q
Mastering display luminance : min: 0.0050 cd/m2, max: 1000 cd/m2
$ p- k' e3 d# M2 p. u6 q- XMaximum Content Light Level : 589 cd/m2
$ `( H5 v2 p" C. ]8 t' qMaximum Frame-Average Light Level : 58 cd/m2
  ^3 s* _% X; q2 _( U3 i
1 G% g2 O* n6 j( @0 Q, f/ k  j& J

6 @6 G5 Y) W9 Q# E0 |7 t: _Audio #1) o8 N! E7 ]0 f* |# a6 L5 o
ID : 2" K+ t6 x) y8 m: t( {/ G6 ~
Format : MLP FBA 16-ch
0 B  V5 P% z; S  OFormat/Info : Meridian Lossless Packing FBA with 16-channel presentation/ e* v/ @% i# K" P  `: x
Commercial name : Dolby TrueHD with Dolby Atmos
" X3 X; V4 L4 J1 [( QCodec ID : A_TRUEHD
3 {8 r' `9 h2 F2 fDuration : 1 h 23 min; s( f$ b/ U% Y: D; D
Bit rate mode : Variable
  i) w* X; Y+ j0 I4 ]Bit rate : 3 871 kb/s
% b; q9 \: a% g! rMaximum bit rate : 5 568 kb/s+ _4 b% A# w& [# S, |  ^6 z/ O
Channel(s) : 8 channels+ W# }8 }& r* K+ W
Channel layout : L R C LFE Ls Rs Lb Rb
( W" P* z2 Y6 a* xSampling rate : 48.0 kHz4 T2 ]& t5 c. O* T: G/ v
Frame rate : 1 200.000 FPS (40 SPF)
4 ~$ e5 `/ [# V& v; y3 d% TCompression mode : Lossless
+ \5 K0 _7 B5 Y4 `6 G" }2 ^Stream size : 2.25 GiB (17%)3 u9 j8 ]* z8 Y' t, g; o
Title : TrueHD 7.1 Atmos
; _! t( ?" X3 p* N+ TLanguage : English
/ _) k  K3 t  z) c; ?! QDefault : Yes
& k; N, r2 T* o. Q* fForced : No4 d+ j( r# n' _8 y! |& s
Number of dynamic objects : 150 @8 s: Z. N& J8 b
Bed channel count : 1 channel9 ]& B8 i2 P8 _# r* I/ M- P+ f
Bed channel configuration : LFE
6 B  r* Z( `8 q! u% ]/ {4 X. m  z" b- S4 i& a6 Y
/ w- w2 m7 p: H9 P/ @
Audio #2+ H5 Q. g& ~1 s
ID : 3* ~- B1 [9 c# T- H- w
Format : DTS XLL
3 q  u, D$ ~. Z: Y8 G' hFormat/Info : Digital Theater Systems
( \: B" s- m% o$ ^4 @Commercial name : DTS-HD Master Audio9 N7 p/ S: n: p# @; j, d$ T, K
Codec ID : A_DTS5 K, ]' b6 {* m8 ?& o& v3 O+ A, _
Duration : 1 h 23 min: G% w  f) F' k
Bit rate mode : Variable
% {$ s1 }) X. I" z6 Q- {; a  ZBit rate : 3 365 kb/s
/ f, h6 p1 n0 d* n  H1 FChannel(s) : 8 channels
2 x# o0 p0 W6 b/ dChannel layout : C L R LFE Lb Rb Lss Rss
: i  _5 d! |7 w8 ^* e$ aSampling rate : 48.0 kHz
8 t( e& w/ j' z5 q" a1 {Frame rate : 93.750 FPS (512 SPF)
; B" U( m0 N! j! W, p: u3 {, ~( cBit depth : 24 bits
3 I$ N) a4 z3 f* F  w) PCompression mode : Lossless" B+ x- w" V. ]6 h& F
Stream size : 1.95 GiB (15%)5 |$ Q4 z  m* X2 p  C+ T" j1 ^
Title : DTS-HD MA 7.1: O- n  k! H. c7 O8 C
Language : English
% Y8 E) A! c2 Y- s2 ODefault : No
/ v7 J% J) X) j3 T' s$ V  c# d- \- oForced : No' T4 v, Z. C/ o$ M: k: `( j
+ ~8 \! d2 W/ d$ ~

( L3 ^% ^( K. t  S/ N) [Audio #3- \- t6 j6 C5 _, X; E
ID : 4- ]+ Z/ j# J8 o
Format : AC-3
! X' F; L3 O7 O- C7 E6 ?, e* sFormat/Info : Audio Coding 3
0 N: r2 a' w  i$ h! [' }0 L/ ?Commercial name : Dolby Digital* j. e5 ~3 z! ?) J8 _
Format settings : Dolby Surround EX4 _$ x. D' q( A$ V
Codec ID : A_AC3
9 d# Q1 N' C4 q6 C& E, {* SDuration : 1 h 23 min" j0 j- M: b9 D/ o6 K! d
Bit rate mode : Constant& D. l1 A; ~) s8 q3 Y# q
Bit rate : 640 kb/s. y( o% y5 t8 ?* g' G  u+ r
Channel(s) : 6 channels
9 T# W; p7 ]: v' c& d" ]7 HChannel layout : L R C LFE Ls Rs
! X. Z+ C. c; YSampling rate : 48.0 kHz
$ ^& w( |9 i' mFrame rate : 31.250 FPS (1536 SPF)$ F9 S: f& G7 `0 R
Compression mode : Lossy
$ |; G! }5 M& y( C1 k. xDelay relative to video : 8 ms& |2 s, U) T/ ]8 M1 d6 Y
Stream size : 381 MiB (3%), Y3 |9 v6 f# T6 Q$ {8 W8 |
Title : DD 5.15 l, d( _, {5 S. V" p0 d
Language : English: K/ v- H& h+ z" f5 |# m$ r
Service kind : Complete Main' D1 O; Y/ g  @$ B/ @
Default : No0 _6 {! D  o3 }4 t% @  Q! c) v
Forced : No
0 {: S* H' z1 z6 w+ Z$ a
& `' {& c3 c; ^

! b+ z* C- R9 L1 s  gAudio #47 T/ j; Q  Z1 }7 E. G2 A( j3 Q1 s
ID : 5
+ z: E( S; S+ F" E) L- q$ ZFormat : E-AC-3 JOC4 R) D4 ]. t% F1 [/ v
Format/Info : Enhanced AC-3 with Joint Object Coding
+ x. e3 m' j- B9 bCommercial name : Dolby Digital Plus with Dolby Atmos
# [% v1 w. l8 l% `/ {/ {Codec ID : A_EAC38 L* W# M2 J- }5 x7 A
Duration : 1 h 23 min3 h' r) @% h0 ?! \& m  r
Bit rate mode : Constant: {0 [1 g. |- }$ ~3 Z( F5 t: ^4 J
Bit rate : 768 kb/s- W% B0 n0 x; n! n2 F
Channel(s) : 6 channels1 l0 S% k4 O3 [0 ]4 {  F
Channel layout : L R C LFE Ls Rs2 N$ h; J5 q0 C  O2 c- W  I: ~, W
Sampling rate : 48.0 kHz
& h0 |0 Y# }0 o  q; h) {# `+ P5 }Frame rate : 31.250 FPS (1536 SPF)
$ C, `4 U4 \8 I5 ]4 I& C; ICompression mode : Lossy0 E; i+ y# M& d; x
Stream size : 457 MiB (3%)1 l# b0 }" n% [& Q" y; ]# g
Title : DDP 5.1 Atmos9 I0 W+ l6 _" D% N: S
Language : English
0 L! g6 }3 s5 `9 u: j% B; ]* Y) gService kind : Complete Main# L: G6 M  W3 ?7 a$ q
Default : Yes
4 @/ d% h7 j$ _* Z6 P+ G6 vForced : No
2 U( m. X7 C8 v4 XComplexity index : 164 q# D3 y& y& ?2 T
Number of dynamic objects : 15
. I  x4 U5 N. [( iBed channel count : 1 channel
4 r/ p8 n: {7 ^' ^6 H1 WBed channel configuration : LFE' S% e8 u' n8 M& k* r% v9 ^$ C# f4 H0 J

2 C, y9 A' g/ w$ ~6 R) t$ D, E2 W
  I' g+ o. ?4 O
Text #13 u/ Q* G4 M9 D, X8 `; f( p# S
ID : 6
3 Q+ F3 ]# a+ H0 C7 A* WFormat : UTF-8( m3 t; z3 P4 u
Codec ID : S_TEXT/UTF8* @" o3 M; E+ ?' W
Codec ID/Info : UTF-8 Plain Text
. O: s( J# ?; A% HDuration : 1 h 18 min
; H( t" ^8 j7 k3 {Bit rate : 66 b/s2 ~3 i, `9 Y5 P/ u
Count of elements : 864. P' f( \( ]  j% W/ A+ ^
Stream size : 38.3 KiB (0%)
/ W; E+ g$ @/ \! C6 H6 KTitle : English4 ?4 h7 s$ X4 R% Y- J
Language : English$ w/ A/ g- _& _+ n
Default : Yes: A/ c+ b0 I/ H) y: ], `: v' b
Forced : No. d5 d% m( k$ R  E

; c& J4 g6 l$ U1 V3 C

+ _- Y) W  o' ]' d/ VText #2) l7 Y7 ]0 ?# c1 ]8 H) q. _7 ]
ID : 7* y# m+ f# E  p+ V" @
Format : UTF-8( M- Q8 M+ f  ~, b% t0 w& c
Codec ID : S_TEXT/UTF8
1 W, Q7 G$ y* {  C9 qCodec ID/Info : UTF-8 Plain Text$ _$ g/ l! x0 e
Duration : 1 h 21 min
5 ^% L$ P( s: _" ]Bit rate : 12 b/s- |; F) y! w0 |# C" P
Count of elements : 2693 C% L, V$ Z7 H+ ~# W& W
Stream size : 7.74 KiB (0%)! e' w% T" p: I3 x7 d
Title : Chinese Mandarin Traditional6 w9 l2 ]; y  B* r
Language : Chinese
. y( \, E7 W+ W9 q1 [0 s5 KDefault : No
" c3 G$ u# p6 {; J( r& |9 WForced : No
) C- D- \3 j0 I9 O: S
9 C6 R. T9 P) B2 v( x# @

$ Y* M( B& ~& C$ [5 QText #34 H, _  J/ X* S
ID : 8
3 H5 j: B; |8 ^# N7 TFormat : UTF-8
# P4 ~" u6 f* C% I, e1 _9 PCodec ID : S_TEXT/UTF8) N+ s2 j1 C/ J
Codec ID/Info : UTF-8 Plain Text2 @4 C2 @  T% a
Duration : 1 h 21 min- v& n& p8 s/ x' B0 v( |) ]
Bit rate : 16 b/s) d. ~) X( F. P# S& J
Count of elements : 267
& b# \' G) w( j; l( F# KStream size : 9.78 KiB (0%)
# @. d+ j" i3 ETitle : Czech
1 P/ ~. [* Z% G- U9 LLanguage : Czech
$ V" }* {. I' |/ DDefault : No8 H8 T7 N8 P4 m( {6 L/ p4 F/ v
Forced : No- L$ b4 w+ {' y% T' A

' J0 L+ ?' y8 ?4 l4 r
; l+ {' f: s; C, a
Text #4
% x) I2 k" l/ v3 ?8 FID : 9
9 z8 s3 i) I3 lFormat : UTF-8- b- T) z  ~+ f
Codec ID : S_TEXT/UTF8  Z8 |( M/ M+ M4 X8 ~; s$ l
Codec ID/Info : UTF-8 Plain Text
5 {( v2 O! h5 i) X! G/ F- FDuration : 1 h 21 min) B" e/ Z: @- x- N- h. s
Bit rate : 18 b/s- S0 w% l4 A8 v% E+ z/ J
Count of elements : 265
; U' w' W3 t* V+ y  t3 \Stream size : 10.8 KiB (0%)
! {7 k, H1 s9 FTitle : Danish6 f# D% u) k; H7 \1 L
Language : Danish
2 \* {$ f( ^$ b2 p/ A6 `Default : No
+ ^# l+ C! I; o) U+ m* l7 B7 iForced : No
/ i% ^: X/ u: q+ N0 Z, H
5 J, i7 P. Z2 {  d: ?& L7 ?$ I0 F; y; q9 C
9 M5 d& d/ B; v" z( H
Text #5
: q9 _  D$ @) N/ y$ t  E0 a! TID : 10- B) F4 k1 X3 l+ Z, o6 O
Format : UTF-86 U$ \% y  D3 F$ w& Q7 y
Codec ID : S_TEXT/UTF89 b! N& e1 w5 e9 [9 R
Codec ID/Info : UTF-8 Plain Text
! b- N3 D$ R% V" s8 w1 @! tDuration : 1 h 14 min
7 a, E* c& I% o0 F) W$ m  r4 RBit rate : 20 b/s
( w5 r5 W% q: P5 t& @Count of elements : 247
2 R3 U' e) V3 @" ?: SStream size : 11.4 KiB (0%): H+ U( K2 \- R
Title : German
2 h2 v6 `3 w" MLanguage : German
/ Z. Z  w$ c0 g9 w& J+ A8 gDefault : No* i  M9 ~8 a1 M9 g4 v0 d
Forced : No
, X$ E* M! B  s+ q9 N3 {7 P- u% M2 F  n& Y

$ J7 ]% h2 \. ZText #6
( A( V7 @! F6 b1 L8 ^" ]ID : 114 m; Z* v% o1 x# \0 x: l
Format : UTF-8
! [( E) P- g4 m! V- ^Codec ID : S_TEXT/UTF8# p2 V2 T+ `8 Z9 e* L5 b; a
Codec ID/Info : UTF-8 Plain Text
* o" A* F0 [& Y  N7 E2 P# XDuration : 1 h 21 min
% n) f/ O8 f/ W' I' I& wBit rate : 18 b/s
9 y3 ^  I1 T$ \8 b$ m# ~Count of elements : 249( q: Y# R2 y; ~  q/ X3 h8 P) h) `  }
Stream size : 11.3 KiB (0%)
8 a# H' o7 `: H/ |1 B/ {8 j" C( P6 h: rTitle : Spanish Latin American+ M1 E/ @, }- n( ~
Language : Spanish
6 ]# l5 b( l4 N8 CDefault : No* s1 F3 p- H9 h+ D* _; E
Forced : No  C$ M) N& n: n' c

1 o; \5 i9 L. r- j# D1 v9 X

) k' X! Z# }% {! a% z4 RText #75 K" K: G  Q* o
ID : 12( r, Y( G: S3 g2 I( w' Q5 m0 ^4 T
Format : UTF-8
# @$ i. v$ {9 L6 W4 WCodec ID : S_TEXT/UTF8
( ?/ E6 ^1 U/ F9 wCodec ID/Info : UTF-8 Plain Text- x+ I! Z! w9 V& [* l" P9 ?
Duration : 1 h 14 min, m5 C9 d6 Q2 J. s' `: S
Bit rate : 19 b/s
1 g7 p1 v2 ~# X3 P0 ~4 |: BCount of elements : 245
  f7 s* H0 S* q2 G5 |# AStream size : 10.5 KiB (0%)+ T+ v! \2 Q9 R( l7 `; t! i8 W# G
Title : Spanish European0 O- e& i& v1 M# ]
Language : Spanish
. ~5 T, r, P6 ^5 J& h  JDefault : No) V! r+ U; T& [1 s( a/ x8 ?
Forced : No
/ D; ?5 A5 A" Z! _) _' j7 _
# o) K% @2 O1 _- P% _2 l7 w9 c, ~
8 P. g1 k: b1 c7 Q
Text #8; j  |  i7 ]4 E: k2 h
ID : 134 e+ A7 ?, }! g) U
Format : UTF-8
, Q8 W+ L5 h2 I/ F/ h% CCodec ID : S_TEXT/UTF89 Y- k/ n; [# |- _3 U- |& ]7 ^9 \% e& ]4 w
Codec ID/Info : UTF-8 Plain Text
, C0 a3 W. i0 w# ~- x* S! J0 WDuration : 1 h 21 min
4 A- k0 d1 {. C$ T3 @+ N1 O1 {1 ABit rate : 18 b/s2 i: p1 p) @/ @! b, E( k1 q/ b
Count of elements : 267
, V' l. j9 b0 q- ]" `+ TStream size : 11.1 KiB (0%), t  P- e- n- h/ z8 X, C; m) y; z) l
Title : Finnish+ {8 k# R7 P$ p
Language : Finnish
9 A+ c& `8 \7 P$ }7 x0 h1 S! NDefault : No
" I" D+ y4 _2 W: |) i  g% wForced : No
# y9 l# G& ]1 F) ~$ Q" C
  d" [9 q6 O/ C/ d; s& b

& Q4 |: W" y( H# x% _2 dText #93 O  `8 |# f) f  i: N6 n9 s- G
ID : 143 \) R' Q+ V  G  l
Format : UTF-8' q: D2 M" I5 h) A) t3 }
Codec ID : S_TEXT/UTF8, F% }' x* J& v. w- w3 `& z
Codec ID/Info : UTF-8 Plain Text3 p2 {8 ~7 }( V  o) E
Duration : 1 h 21 min+ B; _4 m& w* Q% g- g8 M
Bit rate : 19 b/s0 y9 z  r( q. T6 ~" U; |
Count of elements : 316
+ r" u# r2 x# [Stream size : 11.9 KiB (0%)
" c) W& M% t8 O) X. }) [Title : French European
& g( s4 d& X( k$ TLanguage : French5 R& ^$ A& D  \& |1 i
Default : No% ~* t5 D& R4 c# @% J- G; ~. E+ Q
Forced : No
5 i& x, K2 K$ ^. ?( b) Y
5 m( f$ D: c& Z$ M3 l& T8 X4 N! U

2 Q9 J% F7 z" `$ \Text #103 q6 N+ U: T# `- O1 M, i( _7 u
ID : 15
; x% j7 k5 l4 g/ p7 a1 p, q/ NFormat : UTF-8
5 g: [. H, S- S4 S) k+ R  [Codec ID : S_TEXT/UTF85 ~7 a6 n$ S8 W
Codec ID/Info : UTF-8 Plain Text
0 t* k8 c3 u- j: N# w3 d5 y8 QDuration : 1 h 21 min
6 D4 E: a9 b  n9 B9 WBit rate : 23 b/s
% z9 P% q$ ]) X0 v% q/ ?! I& HCount of elements : 267
) X" B, e; F) G* |5 o9 TStream size : 14.3 KiB (0%)
# b3 Q; E, p( b8 }# ZTitle : Hebrew
. \6 y' l0 M  f6 A- v3 ~Language : Hebrew; w$ n( B) N$ b3 q$ B
Default : No3 z  m; ?! C! t# T
Forced : No
& S& @& `; B- Y3 ]' u! o! C
9 m+ I! ]! ^& M* C/ }) L$ f& O5 y& U

* v6 {( \7 |0 I/ |1 ZText #11
/ ?; i8 k1 i2 k5 }7 o* W% n% I& C( }' bID : 16
# O+ X. g" T9 |6 @1 J$ IFormat : UTF-8$ {6 d7 D( h1 E, d, w
Codec ID : S_TEXT/UTF8
  y2 I6 @& I) e2 I) ?6 K$ K. o* NCodec ID/Info : UTF-8 Plain Text& B6 M1 n4 ?6 r0 Y% v6 l
Duration : 1 h 21 min% J  Z, Z: _0 Y) d. c7 s
Bit rate : 18 b/s4 w' ?- O7 l' y: h( a, m" Q) v: L
Count of elements : 2429 V" X; g2 J" S; ~
Stream size : 11.0 KiB (0%)
3 _. t, w6 {3 VTitle : Italian
* O* Z2 A( a; g$ NLanguage : Italian
: ?; W" H/ z1 B" b8 l' tDefault : No
& m' P% H; a1 Z' G$ UForced : No
$ ]0 o' H# S6 z. ]2 j! P: f# [9 I* K

* j. {% D5 A! a, \Text #12$ d: G- G: B* f' m8 G
ID : 174 S' n$ X0 }1 j
Format : UTF-8
" {7 D: t- a) c+ K0 j5 s$ k* ]8 {0 |Codec ID : S_TEXT/UTF8
4 |5 q3 B" [) V& S% }; Q6 vCodec ID/Info : UTF-8 Plain Text' p/ @9 B# p) L6 @% y
Duration : 1 h 14 min
! a, X8 p- x7 c4 j' L* P1 IBit rate : 17 b/s
% O' K, A% W2 L$ a. g% I7 g. qCount of elements : 254
) G  G  {& n6 X$ L; l  fStream size : 9.50 KiB (0%)
) S3 Y% g) m' J  w. NTitle : Japanese
5 {; ^3 B* }$ {- L9 Z3 DLanguage : Japanese
* s1 g) x" q3 T5 fDefault : No+ Z0 J" n( A$ O( |( \; L1 M$ P
Forced : No
, N% r% p0 N9 [  D) C
3 O: q( H" g. y' T

% m. B0 n+ C1 l0 H0 t5 y  }Text #139 q9 n% w6 f9 P6 _
ID : 18
. C, n' m8 T5 q# j0 l: M1 N4 mFormat : UTF-8
+ M' y: H3 i% U7 I( H1 V3 n7 ECodec ID : S_TEXT/UTF8
% S* F6 b$ Z' D1 ^5 RCodec ID/Info : UTF-8 Plain Text/ S; P2 u* H6 @0 R6 \% S
Duration : 1 h 21 min
. c- h, N9 u& @  O1 u8 M* qBit rate : 21 b/s) a" m; k" L5 R$ [) ?
Count of elements : 2699 R' p& a2 g5 V5 N% F0 i8 t
Stream size : 12.8 KiB (0%)
, r. [/ j7 D1 U2 `( X& ?Title : Korean& }9 z* X/ K' o* H% ]5 c- j1 u
Language : Korean
5 f( W% `# ?. _! ]/ V. @Default : No
# h/ d7 B/ K# Z- M7 ~$ i. {Forced : No9 p. Z  m* P1 Y! g) N

6 M3 f' |1 `0 K7 ^

  k3 k# Z/ E  h  ~8 d# HText #14: \, @; c* q6 G: E
ID : 19/ e: L; c' o7 W% o2 r# S
Format : UTF-8$ p* s3 i3 J# r3 [
Codec ID : S_TEXT/UTF8. A" G& M: j) Y- M# E. Z" W7 f
Codec ID/Info : UTF-8 Plain Text' ?) X: K3 B( u- j6 f+ s" Y8 f
Duration : 1 h 21 min# W0 m  a  B5 \! w: V0 k0 m
Bit rate : 17 b/s
0 J  v6 e# O2 \# o2 [0 F" E: c. |Count of elements : 265* m) s5 K/ P8 _- s0 j
Stream size : 10.5 KiB (0%)
( d; @, B/ `8 u, o' k# F  _Title : Norwegian5 j9 ~  ^8 B5 V/ E& I
Language : Norwegian2 S5 I2 |0 ^0 y: Z
Default : No
+ f  `5 x4 w- S9 X9 wForced : No' f" p" N) \+ ?0 P  S$ @
- V: `3 p/ d* a* S$ y

3 L4 w* a  E( y3 a$ I' Y/ qText #15# m) o3 z6 E* k4 J. y
ID : 20& s$ D- B4 W  p4 B
Format : UTF-8- _+ H) I, V- T! L2 F1 x
Codec ID : S_TEXT/UTF8
+ q5 _2 T) x9 _& g, zCodec ID/Info : UTF-8 Plain Text  w' w- A' W& K8 h* G
Duration : 1 h 21 min) E( B- q- u: b6 q
Bit rate : 18 b/s- d6 c0 i9 f2 b
Count of elements : 249
* [) V+ ]. E8 Z4 w. M, I/ }Stream size : 11.1 KiB (0%)$ E: \/ c9 v& {- h& J" {! ?
Title : Portuguese Brazilian6 s- t( l- Z0 F3 a
Language : Portuguese3 {; l7 b* H6 d. B
Default : No
: ]! j5 B) }+ DForced : No
2 Q* ~9 _8 \$ N
' t1 k; T$ {* ~$ f7 O# _

* R$ q0 O* a; c1 \* v/ QText #16
/ n1 @4 \( {9 z" s  i, Y/ sID : 21
; D3 |. N8 O% G/ j& H1 s3 ~Format : UTF-8
  H9 C( z, G; F! d# pCodec ID : S_TEXT/UTF8/ o( |* |! A; }1 F! O; T9 j
Codec ID/Info : UTF-8 Plain Text
% L, P' `; Z) z5 c( ~$ U  LDuration : 1 h 21 min6 Q' {: i* k7 Y; _5 k0 \/ [& l
Bit rate : 18 b/s
$ C% j$ Q% }/ g+ l/ g& VCount of elements : 267
* b; s( D) C# v2 \! aStream size : 11.1 KiB (0%)
3 j* h$ e. y- K, M% A$ ^' ?) oTitle : Portuguese European
: ?7 ]2 [3 g# T' b7 e% I! sLanguage : Portuguese3 `# f: H  ?9 A/ ~4 r
Default : No
8 Z$ n; ]% |- d4 v- C# a( N! xForced : No, s) t7 \( Z* L% ]

0 M7 @9 B  W; D( j. B! ]7 I  M) ?
) l% `& f4 ~! z% S
Text #17
/ @! |8 ]5 ]. |6 G# _1 ^ID : 22
) L2 R) v$ Z4 {" l: LFormat : UTF-8
+ K9 }3 _7 s5 _Codec ID : S_TEXT/UTF8) z5 T2 q( W1 d4 ~
Codec ID/Info : UTF-8 Plain Text
% e& ?2 C7 }4 N& e+ BDuration : 1 h 21 min
9 b2 {. C3 f2 JBit rate : 18 b/s
( e6 r* T" {9 f+ o/ pCount of elements : 2677 H9 M( Q% N) s$ E; h
Stream size : 10.8 KiB (0%)! Q6 o8 H& `+ g" q* V8 X1 z
Title : Swedish( e2 j7 ^% b# d# [* O/ N  F  e1 Y
Language : Swedish
" v" x  v3 V- ~" ]: h1 c/ H, LDefault : No
( A8 {5 u$ q' U; y: u1 \) HForced : No
) b% P1 W9 a1 o- r; k- O% w5 N2 a. m' I: L) {% ~
- x$ Y* u4 e8 a: L$ E8 A9 k% B
Text #18/ X1 Y% B& ~$ b2 r* E
ID : 23+ ^: Z3 Q2 v8 ?( ~! o* K
Format : UTF-8
- x7 n3 P. g' |Codec ID : S_TEXT/UTF8  x" j6 K5 ^' ^) B2 |# r
Codec ID/Info : UTF-8 Plain Text
! W$ S/ T4 f+ g: J# P7 |Duration : 1 h 21 min
, s9 X6 K, A. U3 D: G1 qBit rate : 39 b/s
, J* i  F% H+ S! u6 x9 W+ c- HCount of elements : 269* B) v) p) T# l8 x
Stream size : 23.6 KiB (0%)
+ g* Z* |7 i2 ]; ~' B# ]' VTitle : Thai8 b8 H; l3 `$ N3 P+ U. y: I& ~
Language : Thai
0 ~. A3 E7 W4 T4 JDefault : No
: ?0 n" F- z% r" `3 ]; cForced : No7 ?4 v/ n" \  N$ _3 @# s! d

" Y3 c  {* }1 M5 ~
" j, K# Y3 _+ e% A! }8 P/ U2 ^
Menu! C) f/ M7 w& q# Z/ U- W
00:00:00.000 : en:Chapter 01
2 z) B+ p: T2 }9 t3 ?6 R, G$ [00:03:47.143 : en:Chapter 02
& d1 N) p  }/ d6 v4 U00:09:10.925 : en:Chapter 03
( k5 b) i3 }7 D1 a/ {( \00:15:24.132 : en:Chapter 04
( s; J6 i# k& i' i00:20:37.195 : en:Chapter 05+ F6 P9 Q1 x+ [5 _& m3 ^7 s
00:25:13.596 : en:Chapter 06
3 W# }( J7 q0 Q# d00:31:13.498 : en:Chapter 078 v9 o7 C* c1 c9 z, Z9 B
00:37:17.862 : en:Chapter 08, h3 y+ U# h% ^$ t! Y$ ^
00:43:57.178 : en:Chapter 09
) h* i) r8 k& L00:48:21.151 : en:Chapter 10
0 Y5 T  |# P# ]% r6 S) e3 H! l0 ?00:50:20.395 : en:Chapter 11: C1 I. G! @! r4 l# l7 N
00:58:09.406 : en:Chapter 12
3 `6 o3 P- S) b4 N9 c3 Z01:03:03.658 : en:Chapter 13
8 G* v% r: [! h4 Z' p0 j01:09:51.066 : en:Chapter 14; H- _- M5 a' c. f2 Y
01:15:57.807 : en:Chapter 15
6 p7 c3 B: c3 I0 e  A' ^6 L/ G! d01:18:58.863 : en:Chapter 16

( H6 ]  B# ^: r( b3 z/ g* F6 D8 o4 W$ }' E' _( B
% _. D* B: G7 C1 J: P$ C7 d

8 j/ l6 j0 {% A9 x. }/ @0 b
( ?! b5 \' k3 p西部之星/西部明星4k.Western.Stars.2019.2160p.WEB-DL.x265.10bit.HDR.DTS-HD.MA.TrueHD.7.1.Atmos-4k纪录片下载
  S: F) ^6 C/ [) R( J- ^; ~3 }
( G+ m+ P1 o6 O4 A) ?7 P2 k7 g( E西部明星4k.Western.Stars.2019.2160p.WEB-DL.x265.10bit.HDR.DTS-HD.MA.TrueHD.7.1.Atmos【4k HDR 13.48 GB】4 J- @* o5 D0 |3 X2 m8 V! R
- J7 D( D; g% S9 p

5 V% J7 G+ G2 [8 T4 ^# W西部明星4k.Western.Stars.2019.2160p.WEB-DL.x265.10bit.SDR.DTS-HD.MA.TrueHD.7.1.Atmos【4k SDR 12.03 GB】  g! n" w% s/ }

  R) A3 ~5 K3 I' H0 n. I) x; @/ F8 q# o# d, d2 M3 e9 v, G+ l
西部明星4k.Western.Stars.2019.2160p.WEB-DL.DTS-HD.MA.TrueHD.7.1.Atmos.DV.MKV.x265【4k 杜比视界 13.43 GB】
2 |' c3 F( S4 H9 p0 m* [! C
' x) v$ r5 X! M5 Q9 K! K2 U- e9 O& b) y" Z9 O4 d7 {$ @! O
西部明星4k.Western.Stars.2019.2160p.WEB-DL.DDP5.1.Atmos.DV.MP4.x265【4k 杜比视界 8.82GB】# {/ z- ^) [9 ]; r
" E( {1 W+ z' a+ V) x  x

7 G9 E8 U& A8 U5 i1 b/ T9 k) G$ W$ e4 u' |- K; R

7 n5 b" w" k4 Q/ `* l6 X' ^0 b$ F; ?+ X
登录 发布 快速回复 返回顶部 返回列表