开启辅助访问
 找回密码
 立即注册

机器人挑战赛4k.More.Than.Robots.2022.2160p.WEB-DL.x265.10bit.HDR.DDP5.1-4k电影-13.88 GB

#4k记录视频#时间:2023-04-28 阅读:133 回复:0
112155arky1knpi0wiaykp.png.jpg
& ]0 ~$ ]  H0 r: U
- e7 \3 x% t9 }# z6 v9 V' \简       介
5 y5 t8 f1 P6 M0 e

" W- B/ `! r6 K% e& U3 q0 l  “不仅仅是机器人”跟随来自世界各地的四支青少年团队为 2020 年 FIRST® 机器人大赛做准备。了解来自洛杉矶、墨西哥城和日本千叶的团队,他们正朝着将其独特设计一路带到竞争激烈的全球锦标赛的目标而努力。尽管他们在此过程中面临克服挑战,例如社区内资源有限或因全球大流行而搁置一切,但孩子们坚持不懈,并了解到竞争不仅仅是机器人。
" K1 ~2 r) E5 ~3 Y+ ]1 ^8 b* k9 D; B. W

4 ^# Y( J" W7 }8 U$ ^2 b+ Z影片参数" k  }$ W# E7 @1 J( H
ao / ctu-info=0 / no-lowpass-dct / refine-analysis-type=0 / copy-pic=1 / max-ausize-factor=1.0 / no-dynamic-refine / no-single-sei / no-HEVC-aq / no-svt / no-field / qp-adaptation-range=1.00 / no-scenecut-aware-qpconformance-window-offsets / right=0 / bottom=0
! F2 R" K, J& |2 W8 C+ `Default : No0 M; U- u% F( o* q
Forced : No
( {# D+ |( e9 N2 eColor range : Limited. ?1 |; V  {1 E1 e& W
Color primaries : BT.2020$ d, o& H6 j4 G
Transfer characteristics : PQ+ T* D* j+ r9 ]! L& B
Matrix coefficients : BT.2020 non-constant
' {: ~1 T7 p0 ^: J  f  L- _) l( x* j& b
' v. y# c& X/ O: @
Audio; h, Z  D/ B' [
ID : 2
! U2 [, [* P7 ?Format : E-AC-3
' U, D- ]' g' t+ `) BFormat/Info : Enhanced AC-3
& {# ?0 q' {0 D4 g% X' O8 MCommercial name : Dolby Digital Plus
4 e7 }5 x( ^" C# h: PCodec ID : A_EAC3
# T, l. b" U4 r) eDuration : 1 h 29 min
3 I. {; V" g$ MBit rate mode : Constant4 C( R# ?' N3 Y6 S/ u
Bit rate : 256 kb/s
# p5 u5 a) }' y5 l3 p2 \4 {Channel(s) : 6 channels" d. H" S& F" {7 j
Channel layout : L R C LFE Ls Rs: c$ n3 B) w: V; ^8 R
Sampling rate : 48.0 kHz5 }0 G- |+ D6 t: ]
Frame rate : 31.250 FPS (1536 SPF)
0 q- f, P6 x0 C! Y. F; e1 o! L+ b( }' }Compression mode : Lossy
" P8 w! n5 I" Q/ u8 x# a) k  o( b, C8 fDelay relative to video : 2 s 2 ms
/ {6 e. s6 p! f8 z) wStream size : 164 MiB (1%)
$ b& u2 z7 Q  Z1 f9 oLanguage : English
1 r& V2 ]! i+ a9 ]# @  X8 X$ J0 NService kind : Complete Main
. V4 Y  h9 t+ a# KDefault : Yes3 J1 P% Y) e5 W* d2 `* p2 S, N6 u
Forced : No' V% c! c* R9 Q% H; a0 k9 I5 j
% @3 Z8 l7 R& `$ ]  Z) y8 f$ Z
7 d5 ^# Q# R$ u/ I  O1 @
Text #1
/ J4 o0 S) Y# e% c2 yID : 3
: a, X2 d) [. {& r3 C" f4 rFormat : UTF-8
1 ]- p( e0 G3 v  m- P' ^Codec ID : S_TEXT/UTF8
) _& ~* B  V0 M* v) E6 d1 PCodec ID/Info : UTF-8 Plain Text7 }1 v3 N, }/ f7 @# w& {
Duration : 1 h 26 min
3 n, w* Q5 N8 [# F( x5 R7 ZBit rate : 76 b/s* t8 f; z$ }$ ]( W1 w' j
Count of elements : 1114
) @. b  ~& d2 D1 O: Y0 J* v( {Stream size : 48.7 KiB (0%)
1 E/ B% R1 I; _' b+ v$ GLanguage : English
4 r2 a/ D) f% Z) |8 ^# i* PDefault : No1 z& f; i& d4 ^6 Y4 m% N
Forced : No, s& v% R" G2 T4 B5 ^& |% s
% {  U9 @5 q2 D, u! F6 f
7 J+ H  \1 x% D
Text #2
$ r2 o. Q; l5 j, ~" n; Z9 vID : 4& P8 N) e; U1 Q6 }) }
Format : UTF-8. q$ j  S2 m0 ^; A! C6 K  Z
Codec ID : S_TEXT/UTF8
+ c9 i  |# z5 a. R% B+ xCodec ID/Info : UTF-8 Plain Text
& {6 \9 t/ Q7 c# {, O" ZDuration : 1 h 29 min2 {* W9 k. W4 l' [; I
Bit rate : 83 b/s
$ G( h$ W5 C$ N" B8 ACount of elements : 13187 E4 T* x# G2 S1 C. F
Stream size : 54.1 KiB (0%)' q: Y" f, a+ X
Title : SDH
; m% H3 k2 I5 R  T8 g! NLanguage : English
) N; f; U: _: PDefault : No3 P; e) C8 }# m' D
Forced : No$ e' T+ Y' r' D4 c, g6 v+ t, i0 x

7 ]3 ^2 @6 ]. o, o; u' \. c& D, G

3 ?) J/ X' J; P* RText #3$ ]1 e+ @  D0 T' I8 [
ID : 5. S8 x; C. Q* H/ W1 i8 o; ]
Format : UTF-8' Y: V8 g- R9 g
Codec ID : S_TEXT/UTF8
3 I. h7 i$ Z* GCodec ID/Info : UTF-8 Plain Text1 |1 f4 I9 ~. m' h/ A; e; ~# Z  V
Duration : 1 h 28 min% @  A) f/ Q* p& Q  B6 o0 h: v% k1 ~
Bit rate : 84 b/s/ Z7 t1 P, u7 U$ a& P4 K' Q+ p
Count of elements : 1381
- q& ^# c/ P" }: yStream size : 55.3 KiB (0%)# t3 n+ |4 s+ d. e
Language : Danish
  Y5 J- {# S/ E. U2 E9 S( JDefault : No' M& p& c8 n3 r/ f' {1 z
Forced : No
" \9 Y- ^0 h$ j$ e$ d
/ w7 G) k6 I, A/ [! a

7 L8 m  F  k( P/ lText #4
: ~4 B& j) v* \ID : 6
# a0 k8 v3 i# r+ Z2 f8 m$ ]: hFormat : UTF-8' Q0 `7 O) F7 n7 n0 Z
Codec ID : S_TEXT/UTF8/ W7 z1 Y- h. R8 V
Codec ID/Info : UTF-8 Plain Text
& n3 Q6 B" t9 E- {0 o7 z9 aDuration : 1 h 28 min
0 Q7 K: p4 d' w7 M# MBit rate : 77 b/s- V/ `3 u1 _! g0 q& ^8 W  B, D
Count of elements : 1296* o7 Z) l" M8 z" X1 E7 f$ x
Stream size : 50.8 KiB (0%)2 y# N4 v, ]4 P# \3 _/ z+ {8 n
Language : German
7 y1 g6 t$ a. B. o* ^- O& ]Default : No
4 V+ N1 g2 }' ]Forced : No# c9 M* ~1 g: N# r) ^: M4 n9 K

0 A: }' }/ I  P$ M4 d

1 p) D9 f# s, ~, l( m/ b& w0 J- n9 tText #5$ ]: x# O7 ]% B  n% S
ID : 7( C% O/ \' q- U" r
Format : UTF-8
! V+ C+ o. o  [! H; s8 eCodec ID : S_TEXT/UTF8+ b. p5 a' r7 N0 H
Codec ID/Info : UTF-8 Plain Text
8 H) L& x9 P, RDuration : 1 h 28 min3 z" D8 b/ Z# N, t- b+ j+ g- Y
Bit rate : 70 b/s/ y& y; O- J6 l' @- a& `
Count of elements : 1114
1 k2 t# u" y* z: D& M: i" T0 UStream size : 46.2 KiB (0%)7 K: g( G2 a  X5 @! \5 W8 G
Title : Latin American
  c2 l" y; R' i; X! F7 r! o6 l* HLanguage : Spanish
& G( ]. N" p$ g" N/ N+ BDefault : No) O! z, s0 Z* X
Forced : No
" d; F: T6 g& I* g
  N0 Z+ C5 Z" K! J6 a
. o3 U& X. j9 r+ v4 ~2 v
Text #6' q- [: Y  h, P
ID : 87 L9 `% i( J, ^; l, I
Format : UTF-8
6 V& T; B( N7 z: _Codec ID : S_TEXT/UTF8
- T/ W3 s2 k7 C, D8 P' M% W6 lCodec ID/Info : UTF-8 Plain Text
8 [% `8 z4 `9 J  x+ ^. a( z' VDuration : 1 h 28 min
1 b) r: Q- R9 m5 \2 pBit rate : 71 b/s
7 [3 }% A! _/ E5 d& W7 |Count of elements : 1231
/ z% ]+ C3 \9 z2 E! c% \/ MStream size : 46.8 KiB (0%)) v1 E2 F/ s% w; N2 g; Y. x% @
Language : Spanish3 Q1 l& l( q) X, X7 }7 b! K6 f
Default : No
9 ^+ Y- y2 U9 AForced : No
3 N4 U( k) w; p$ X
! j0 v/ @; k4 q
3 h! c1 s3 ]/ ?. D
Text #75 S( }3 Q! s" @& O. Q) U. V
ID : 9
6 G! ~% J* s) D5 V- `Format : UTF-89 X' I6 a. J6 _  N
Codec ID : S_TEXT/UTF82 }( ^+ i6 P! u" n% A
Codec ID/Info : UTF-8 Plain Text
4 a) c, j0 j, K; f3 v. s$ iDuration : 1 h 28 min2 C- h7 v$ a# q' u: _! y
Bit rate : 82 b/s
) F% [7 n. [9 h, ]# j5 c2 Z( DCount of elements : 1256' E" d: [4 ]5 Q9 g; w) f
Stream size : 53.6 KiB (0%)+ D+ E5 J5 m) ?0 [, u3 b9 Z
Language : Finnish
0 M5 F1 p2 D4 t6 ^9 NDefault : No
8 M  e; o8 @8 y/ w$ FForced : No
! G; h; J- ?. W1 q9 y$ F
, p. G$ D# @) R9 }

# m1 e/ r- P7 C/ t3 UText #84 p, w6 x+ d$ d* H7 m6 ]  M
ID : 10
9 d6 h' i9 a$ B0 D7 T4 J4 jFormat : UTF-8
( }- P" t& S& g+ d" h) x5 g3 ACodec ID : S_TEXT/UTF8
4 V6 R* L8 B6 s% `Codec ID/Info : UTF-8 Plain Text
4 p+ [4 }0 k  y1 O9 `Duration : 1 h 28 min
9 U+ ]# q; o( {% m1 \Bit rate : 86 b/s$ g( S; ^+ ?- b3 p4 t/ S& I9 ~
Count of elements : 13755 i5 S" [1 u7 A, t, W
Stream size : 56.5 KiB (0%)8 k9 E% b$ c% Y- r& _2 |
Language : French8 C9 t, u  j2 s1 w' X
Default : No4 i, S+ |( S) v# Q
Forced : No
" ?" h: G! E  O- V: ~, D" b% Z% n* U- F* [* e

! d, e$ U6 f# v+ z& p8 m9 W' ~Text #9" m; q$ {; H) k' E; Q# G
ID : 11
. t5 t; z" G" `% p+ J7 P: jFormat : UTF-8
" ]2 N- M. W! ~% m/ \Codec ID : S_TEXT/UTF8
/ `$ Q' u# v: k! B" z/ yCodec ID/Info : UTF-8 Plain Text2 n. Y4 E; U8 m- i/ X- Q
Duration : 1 h 28 min* }' N0 x& K  A' x" L; Z8 y7 _
Bit rate : 85 b/s1 Q( C" k5 H, P; h  q, W
Count of elements : 1329
( p1 J, }& w7 ]0 |3 dStream size : 55.7 KiB (0%). T5 b/ @9 O' d3 ^  V6 T( E3 A
Language : Italian
4 ~' H3 s9 d8 b8 K" g0 a* BDefault : No+ F7 P  t/ _& ^( x& D
Forced : No
' a% C% q% n0 K/ D& j1 k
$ R: d. z0 v; D3 p: u8 p
6 b! r* |! Z6 g# q! Y8 i; b
Text #10
. F  _9 x. \6 A2 I7 y  ^/ lID : 12' v0 t( W* b% g& b. j
Format : UTF-8* k6 h7 e7 E3 @( B% Y* W
Codec ID : S_TEXT/UTF8# E- Y+ I! h# s" f1 j
Codec ID/Info : UTF-8 Plain Text9 H: g' [" _. J# m: x6 C
Duration : 1 h 28 min
+ I. M, }2 w8 c, a+ M$ H1 Z% G5 C" lBit rate : 74 b/s+ ]6 A# R3 W. T2 ^
Count of elements : 11360 z- z* ^- ?! Z1 Z$ s- Q# r
Stream size : 48.3 KiB (0%)
& e/ p# [8 S  h' g4 _Language : Japanese: A0 Q" A0 P# a3 s# u
Default : No* p& b5 @( |% E2 n& z& o
Forced : No
- G( r9 B0 J0 f; q( H; g; }1 y! b4 W- u$ t) G, Y5 ]  S, T
) l" G, U  B# e0 X0 I" Q
Text #11
6 L( V! j% V8 E# r  Q  V0 CID : 13. j) x& e% d: u0 G* z$ x+ z3 X
Format : UTF-8: h* M8 q; g( s  A
Codec ID : S_TEXT/UTF8
4 l6 a( R+ v/ A$ L% O6 CCodec ID/Info : UTF-8 Plain Text4 |+ J/ J5 f" J' s
Duration : 1 h 28 min
% e6 n/ E3 w: v4 `3 `Bit rate : 100 b/s  X2 ~! M* A; @6 U& y
Count of elements : 1423: N6 {8 m. ]8 y6 \# Q" G& z
Stream size : 65.1 KiB (0%)& [  a, X6 c7 L& n8 N4 W5 D& L$ T
Language : Korean2 U6 ]+ @- M' ?/ S& W: S6 l& M8 ]
Default : No. X" r; s. j, Q/ V$ w
Forced : No
! D6 C, o7 e# z  K5 e# E9 z0 l
2 O- B$ M" J$ M  J
! j2 q; a4 c1 R0 q: q( I
Text #122 U$ Q  ]: D7 i: ?
ID : 14
& d& h* p9 F4 z; ^Format : UTF-82 ?8 P1 I- O$ ~+ w
Codec ID : S_TEXT/UTF8
6 V9 ~/ K/ u' r" rCodec ID/Info : UTF-8 Plain Text
" Q) i1 F8 u' T* r/ j( G6 VDuration : 1 h 28 min
% [& [9 m  `6 {9 j1 GBit rate : 78 b/s
9 p* A6 R  y8 z: rCount of elements : 1127% `$ w! Y4 g: g# x5 `6 M
Stream size : 51.2 KiB (0%)& Y6 ~; |0 p: X8 d& j: I  r) [% P
Language : Dutch7 I7 k6 K5 x1 ?1 w
Default : No
& o' G7 H7 L% `- qForced : No4 N; [( L  W( e
' w3 d. x- w1 `/ h( J
3 k2 R2 J) n' c) ~" @8 N
Text #13" Y3 s: \* J4 \# R, y4 K7 K
ID : 15
9 n( U  E, \* Y8 z' I% f- EFormat : UTF-8: d+ @9 m& @3 S7 M
Codec ID : S_TEXT/UTF8
# M: {: M+ O! v4 x2 d2 W) QCodec ID/Info : UTF-8 Plain Text/ t+ T9 {0 i! W
Duration : 1 h 28 min
) I* H! x/ L8 l: _- ]" ]0 CBit rate : 75 b/s
/ O8 T: R3 h8 I- ]Count of elements : 1207
$ G$ \6 V( [: R0 U) h0 x' Y6 pStream size : 49.2 KiB (0%)
' G, d4 n4 R/ I6 B- a4 }Language : Norwegian
0 c; z& n( b; t; X, |2 zDefault : No
9 b2 I3 \& g# w0 s* m5 ]/ o" z7 [Forced : No
  C4 K; P5 E& e) k; I$ ~0 m% I+ M6 n8 H
; q2 K4 }8 m0 C( b4 _+ y7 X- S- a
Text #14
9 D- l, ^3 q2 @, ~0 t5 ZID : 16
& L4 s/ M, X& Q! Q6 YFormat : UTF-8
% C: t  E! b. A8 |( D% ACodec ID : S_TEXT/UTF87 ]4 a' m$ o1 n/ \$ D( T4 `2 f; Y
Codec ID/Info : UTF-8 Plain Text
5 q# X& @  b* [  qDuration : 1 h 28 min/ u2 H; ~/ X5 y0 Y& [
Bit rate : 74 b/s# i2 p  J" J% o' t0 `: ^) F$ R& U
Count of elements : 1381
2 c9 _, J: F# A/ QStream size : 48.3 KiB (0%)
9 z( _# v/ {# v- `Language : Polish
% e3 Z; W: r0 a6 IDefault : No
, ~! k* ], g& N, FForced : No: g! E0 i; Q, @/ ~- \7 W

4 x' Y. W! L$ u8 d  Z* z

/ F. p  e+ U. s; g$ s# yText #152 z$ S3 J  q) J) P0 O
ID : 17% O1 M7 A. ?3 B) W
Format : UTF-8
  a: p5 p+ y# F  ]! p' LCodec ID : S_TEXT/UTF8" j$ p# L5 [8 A* _
Codec ID/Info : UTF-8 Plain Text3 o; Z1 d# G& O' @- m% N
Duration : 1 h 28 min2 s# Q( J# O" L" t- G! x3 R
Bit rate : 80 b/s
0 r4 F2 K* M0 V/ x$ ~Count of elements : 1395
/ {, R* B) Z3 j, [% l, g) j6 V% eStream size : 52.6 KiB (0%)
0 U9 r2 f1 S8 A3 y/ j4 E0 ~Title : Brazilian
5 y: J6 Z) W: ?/ qLanguage : Portuguese: F. C; ?6 K: \( ?
Default : No
* H+ F( t) L% Q( RForced : No
0 B7 f) c) r; w& g" L+ p! u0 v8 f
; g1 g5 S) y+ m: u8 a7 r
3 h' T) b+ h3 `, L1 w! b
Text #161 @5 L1 T$ w( D
ID : 18
; _- T# X5 N& a6 F; ^Format : UTF-8- i0 W& \% r$ z6 M4 q
Codec ID : S_TEXT/UTF8
+ i. N7 r6 Z! W  H" f, Y0 Q' mCodec ID/Info : UTF-8 Plain Text) j6 v+ P6 B. A8 ]6 `$ U! w
Duration : 1 h 28 min  p) U2 F  J. C* D
Bit rate : 87 b/s
9 ?* I5 P5 t+ oCount of elements : 1376
( ^. a% a( D! h9 M' x/ QStream size : 56.8 KiB (0%)+ u- }" {9 ^( A
Language : Portuguese- v- @# V9 M' Z# @) ?4 I7 ?
Default : No
% A  [* Y: A5 U# \, ]* Z/ U8 S+ QForced : No
3 k; `: m1 z7 X5 I9 s! b- L( _6 `% c: ]- x

4 k) b( _3 ^. D# P9 OText #17
# c/ W/ ]% y6 C- j. q* e% kID : 195 r" c8 j7 x5 r
Format : UTF-8
( s2 V) W' Q2 hCodec ID : S_TEXT/UTF8
8 b6 \' t: A7 N: qCodec ID/Info : UTF-8 Plain Text0 x2 W' a  B/ [8 ^& d$ Y+ H
Duration : 1 h 28 min2 H  b8 q9 l, J2 Y$ C# d2 p
Bit rate : 87 b/s
! G% Q; o1 w  W' p: @Count of elements : 1383
! d/ \# N/ [4 B3 NStream size : 56.9 KiB (0%)4 s) j1 f/ T2 @) r& H" _1 h8 H
Language : Swedish
/ w$ v7 z% C% k( r& U- R; _Default : No
1 u/ Z- x4 L4 Q7 UForced : No8 e  i7 g& ^; X( p1 W+ V9 M

) s! U3 q$ ^0 s- k* f
2 N  q5 L% u5 T/ v
Text #18; l) W1 [* @! k% t3 N2 |# a
ID : 20
0 p, y. s2 v; a; h7 S6 YFormat : UTF-8
) j, W: c* o; WCodec ID : S_TEXT/UTF89 u. g' h# q( U7 X4 V% ?
Codec ID/Info : UTF-8 Plain Text5 U3 n$ [) s6 E' s7 [
Duration : 1 h 28 min2 ]* c9 A- ?) d3 p8 E' s/ w8 P0 M
Bit rate : 77 b/s
6 b- N" `- C" I" zCount of elements : 1418# n. }% \, V: \1 S, l, s; e
Stream size : 50.3 KiB (0%)) l7 W. M8 a7 m, o! k
Title : Cantonese9 L. u& e7 e% {: ~5 I
Language : Chinese
) c/ A* p# H, v0 v1 X/ KDefault : No
% z' q* U9 b% J% w/ B- SForced : No. ]8 d; L5 c- [* R7 H: }+ L

! ?6 j1 v+ ?) e

0 s; x/ `" Q/ k) rText #19
; d3 ^3 b. Q' ^1 r% b9 l& nID : 21
0 c4 J* C3 Q* iFormat : UTF-8
/ C! X2 n5 D6 Y1 |$ G: U* i# yCodec ID : S_TEXT/UTF8
9 ]; W; p" _& P' N2 X" xCodec ID/Info : UTF-8 Plain Text
( Q& A" w- a/ U' \; F' v3 o, M& bDuration : 1 h 28 min
' w6 \2 ^5 s& A' a, `# }Bit rate : 75 b/s
" t5 T, F5 }) c: Z1 g6 pCount of elements : 1422
; i# k/ t1 l. T: Y( ]- t7 s. d- hStream size : 48.9 KiB (0%)1 P& A1 b9 |' r- v/ G  t. t; D
Title : Simplified: J- T- j9 J$ |) C
Language : Chinese0 F: I* T2 H" y* H
Default : No
  U8 n8 r3 X, }% `7 c! i; KForced : No
* S1 }5 h& M6 y! A
3 ]5 ]8 b/ s( x( a# `6 C+ t

* W; |2 I5 S6 @' L+ BText #20% b& E" ~0 s+ N- [3 q1 Z
ID : 22
& j) d+ u9 J: N2 j' y& KFormat : UTF-8( f2 L$ d0 G3 S2 ^1 @
Codec ID : S_TEXT/UTF8
. k8 l- ?; r5 N/ [  Q& kCodec ID/Info : UTF-8 Plain Text
, `" A% I* t0 l; IDuration : 1 h 28 min
) Q  h7 s) K7 b3 [Bit rate : 75 b/s
6 L/ ^$ S2 K5 y$ {% T1 x" |& r9 nCount of elements : 14239 g' ?3 n. F2 }+ T& r3 f+ l
Stream size : 49.1 KiB (0%)
  h! w. @6 E/ qTitle : Traditional8 j3 D" L9 I; I- s! s
Language : Chinese9 s4 s1 |& E8 b- I5 `3 z, {6 e
Default : No
' Y: \, A. L* k7 wForced : No
9 ~" t+ e; V1 @. S( u9 ^" y, b# W% [) [6 o" H$ e  F, A

. U% \( Q1 T3 p5 @; s5 a  TMenu5 G- \5 Y4 H8 g1 t6 H
01:27:49.269 : en:Credits
9 W; C7 x0 R5 @: g" q0 Y, `
/ J, }* t! B/ j/ b) E5 G
) Z9 G6 R; ?- Z$ l6 a; {0 d3 O/ I

7 z  i: x4 W# l! [3 C
3 y5 w  l, }; S) j2 [8 s* v: c0 F" i机器人挑战赛4k.More.Than.Robots.2022.2160p.WEB-DL.x265.10bit.HDR.DDP5.1-下载【自带中字】
: C) t" c5 x; I. u8 W  n" r6 q" x6 R, W3 S- @
机器人挑战赛4k.More.Than.Robots.2022.2160p.WEB-DL.x265.10bit.HDR.DDP5.1【13.88 GB】* G+ F# R9 @" M& S& r1 t* s5 j4 g
. y- j$ h( ^$ p9 S; ^# B) L0 T
5 S' _  D7 [; m* e! S) M
机器人挑战赛4k.More.Than.Robots.2022.2160p.WEB-DL.x265.8bit.SDR.DDP5.1【12.45 GB】
5 U: i# R, P3 {" _; l9 A& e' S) Z  r! E" H3 \* W/ R6 e
  a, C: v4 \; W; }# x5 J' x

- \2 z( t9 }8 P0 d
' M. U  Q4 W+ r" J  Y# v8 d0 \
登录 发布 快速回复 返回顶部 返回列表