开启辅助访问
 找回密码
 立即注册

新蠢蛋搞怪秀 / 无理取闹4 / Jackass 4/蠢蛋搞怪到永远4k.Jackass.Forever.2022.2160p.WEB-DL.x265.10bit.HDR.DD5.1-4k纪录片-16.41 GB

#4k记录视频#时间:2023-04-28 阅读:135 回复:0
112215imrdss7q3dyy3lld.png.jpg
1 a. M/ H4 a% A$ O7 F- {: ?0 u1 R4 H. f: y
简       介

. _# L) [, t9 S0 u' p! H9 r
. p3 G2 Y' A; B  本片是一部真人实景闹剧喜剧电影,是《蠢蛋搞怪秀3D》的续集,也是系列电影的第四部主要作品。讲述一群人体验各种刺激疯狂搞怪事物,影片一开始就向怪兽电影致敬……
3 p6 T! ^9 P, j. ~9 P: i. ]; t2 P7 }. \  m! U& K

: ~5 z! ^  W; ]& Q+ o4 v影片参数* _2 g) k; Z" r# `  ^; G
新蠢蛋搞怪秀 / 无理取闹4 / Jackass 4/蠢蛋搞怪到永远4k.Jackass.Forever.2022.2160p.WEB-DL.x265.10bit.HDR.DD5.1-4k纪录片信息
5 a* U5 U" O  w9 Y  g6 z/ s  Q  xVideo+ @, m- z" s; f. a
ID : 16 G5 m! J7 G. z  Q' v) k# S
Format : HEVC, v: m$ p% n& F6 o; [6 `- y
Format/Info : High Efficiency Video Coding! o, n( |- \( Q1 B5 }; K4 ?
Format profile : Main 10@L5@High
& n# U3 Z/ L3 `5 s# W. jHDR format : SMPTE ST 2086, HDR10 compatible% D9 I# {2 a1 u
Codec ID : V_MPEGH/ISO/HEVC
' ~* _' C9 v" R9 F& B7 bDuration : 1 h 36 min
9 M! E: R4 {8 @Bit rate : 24.1 Mb/s
( J. V$ f- b, y- M1 RWidth : 3 840 pixels( [' A+ a+ k& v# _3 u
Height : 2 160 pixels& i. o5 J+ Z  p$ M
Display aspect ratio : 16:9
- R8 |( d# k# p/ n+ }* W% h; OFrame rate mode : Constant9 K: \# T$ n2 j
Frame rate : 23.976 FPS% G/ r" _9 Z- [% f, j, \
Color space : YUV; G0 [* n9 }! j3 E2 e$ C* y
Chroma subsampling : 4:2:0 (Type 2)# N% f4 B! `9 a# P2 E, z
Bit depth : 10 bits) I" Z, e; P* l: T0 t/ t  Y
Bits/(Pixel*Frame) : 0.121
: R5 P2 J( C! b! d. {6 bStream size : 16.2 GiB (98%)
8 F# J+ ~9 L: M& R; G1 fDefault : Yes
1 j0 `3 G. G: O3 r2 z) C7 y6 ~$ zForced : No
5 v  P. t% D4 w: I/ K- zColor range : Limited
: Q5 f# n  s( o0 W2 WColor primaries : BT.20206 J+ x$ V9 u, b, ^
Transfer characteristics : PQ. `& z! x+ q/ c, `' [
Matrix coefficients : BT.2020 non-constant
' I4 g, l- d% AMastering display color primaries : Display P3
5 a: _, I2 g$ j5 P" e% T7 HMastering display luminance : min: 0.0050 cd/m2, max: 1000 cd/m2
3 x/ d6 C7 C8 L9 _) d2 U3 Y: d& bMaximum Content Light Level : 2406 cd/m2+ M+ X: U- |2 {! P  k/ P: }
Maximum Frame-Average Light Level : 447 cd/m2; q: @0 D* ~' j! C1 y
: F1 S' O/ d% N/ t

# y3 D1 i' n5 y) v! U: |& aAudio
. M# g; Z; Q4 f; v9 uID : 2& W! u* m- i/ u; u2 r( k- b
Format : AC-3" v: F! t' @- N; [2 w& ?: V
Format/Info : Audio Coding 3& j' n# K$ t$ a
Commercial name : Dolby Digital
7 F! S0 `& P8 ^8 q% A" s, X6 CCodec ID : A_AC3
7 [( S( S1 M7 d& @; R' dDuration : 1 h 36 min
. t/ w$ Y' H0 A: r* v! _4 vBit rate mode : Constant* [& q$ e  }9 B! s) S& o
Bit rate : 384 kb/s
$ ~# m9 y( c9 RChannel(s) : 6 channels4 ?  U5 {) V" K
Channel layout : L R C LFE Ls Rs# R! M0 }/ f2 K! G2 ?, y
Sampling rate : 48.0 kHz3 D3 M# d' C+ T. c1 ^! P  O
Frame rate : 31.250 FPS (1536 SPF)
" h' N3 b" l. u$ `Compression mode : Lossy: U! d) e! S! }1 C8 ~
Stream size : 264 MiB (2%)/ l- l2 G2 K. C* Y# ^
Title : English
0 F0 J- C. b1 }1 i) ELanguage : English4 G- Z% x+ \: g' R8 o. p
Service kind : Complete Main
+ x' U, m" ^' B7 QDefault : No# i9 |1 F$ Y1 `9 ?
Forced : No9 a5 A" V, n. \. N7 \+ D2 P
; Q7 [+ i4 R) E2 `- y# l! D# J  X  h
- }: Y: R; I9 m2 N8 F4 ~5 b
Text #1- ]5 R4 J4 A6 u
ID : 3
. }  ]$ f6 I. b0 [% a# u" P& R. WFormat : UTF-8
3 M' T( @/ B- x$ q" r' @Codec ID : S_TEXT/UTF8) i% N+ O6 _7 g( H) ~/ S3 I5 c8 g
Codec ID/Info : UTF-8 Plain Text
. H8 W- K& \) |0 h0 @Duration : 1 h 33 min0 z1 [8 L1 x. y! I8 Z$ t, ~
Bit rate : 71 b/s
$ s3 a9 G! ^; }0 L+ ^# @" PCount of elements : 17011 u% o, t. F4 c" v/ y) w. ^! U$ {
Stream size : 49.3 KiB (0%)
$ W7 T- C2 o( `! x( V$ uLanguage : English
- I$ T, }$ Q% CDefault : Yes9 b* D) L4 @$ w* V5 \
Forced : No; w0 c* n4 f3 ^. G

  V1 M4 _9 `; a) U& m
9 h9 b( M$ w7 d- O
Text #2
+ e+ z% X( B1 FID : 4
. S+ [2 i& ~9 O, L1 I' x; RFormat : UTF-8) u% L$ U- x( z% z$ O+ l- L
Codec ID : S_TEXT/UTF8
' u3 v5 s" z! n" E  dCodec ID/Info : UTF-8 Plain Text" G* z: t: o. D, R
Duration : 1 h 34 min
9 w1 s; S, U$ ^" E! XBit rate : 85 b/s
% p! M& H1 m8 }) E/ Z6 A5 |Count of elements : 2007
% ^6 `( e* t7 {( `+ k5 JStream size : 59.0 KiB (0%)4 H- S! }: I3 {. j' C: P+ [
Title : SDH8 S$ H3 x; {3 ~& Y2 F$ B! }2 M# ]
Language : English
# H# _7 M: d8 C2 V. QDefault : No* S5 d+ ^. W6 q' d" Y6 V" z: H
Forced : No
( S) o, h& g$ s$ C
2 g' l0 Z8 C$ M' G! p- o

( {- J4 F+ r% V' b新蠢蛋搞怪秀 / 无理取闹4 / Jackass 4/蠢蛋搞怪到永远4k.Jackass.Forever.2022.2160p.WEB-DL.x265.10bit.HDR.DD5.1-4k纪录片下载! G$ X3 A5 d) u$ r" y0 f4 `8 e' O
1 i. H* r' I) I, \0 b" b
2 H# O, k8 F5 p7 H% }: x
蠢蛋搞怪到永远4k.Jackass.Forever.2022.2160p.WEB-DL.x265.10bit.HDR.DD5.1【4k HDR 16.41 GB】
6 k) a; T' Y+ P3 r" ]
4 G  M* X& V' ]) N  Q( q9 `
( C, t* J3 f4 r; v8 T6 h/ ]$ U蠢蛋搞怪到永远4k.Jackass.Forever.2022.2160p.WEB-DL.DD5.1.DV.MP4.x265【4k 杜比视界 16.56 GB】
4 }* k& S: Q! C8 @# }) H" ~5 X5 W( J8 v0 H

/ T  z) l7 \  u$ f) E% h蠢蛋搞怪到永远4k.Jackass.Forever.2022.2160p.WEB-DL.DD5.1.DV.MKV.x265【4k 杜比视界 16.56 GB】
1 Z5 `: @6 W* T/ P  N/ G8 Z/ h3 y7 U! v# w* s( H- v

& t- B( Q( [8 ]/ I
8 P; r0 C- l- S& L7 q0 G! S0 n. _, z5 m, a
* M6 q# Z% M5 s$ C; r& R7 n
登录 发布 快速回复 返回顶部 返回列表