开启辅助访问
 找回密码
 立即注册

拥抱熊猫:青春变形记幕后/拥抱小熊猫:青春变形记背后的故事4k.Embrace.the.Panda.Making.Turning.Red.2022.2160p.DSNP.WEB-DL.x265.10bit.HDR.DDP5.1-4k电影—5.42 GB

#4k记录视频#时间:2023-04-28 阅读:146 回复:0
112244whif2w71f22t5x9g.png.jpg 9 l* U  L; X2 X; L5 G7 U7 b

4 l0 y+ O% e2 o# y: X$ S简       介
7 P, t- w& A8 b+ k- y. M7 R4 k( C9 i

/ e& F" [; d- _  讲述了皮克斯原创动画长片《青春变形记》幕后“娘子军\'团队的故事。该纪录片深入幕后,采访导演石之予和她的核心领导团队,展现她们强大的专业能力,分享她们个人的成长感悟,正因为她们,《青春变形记》这部无比真诚、感人至深的爆笑喜剧才得以走上大银幕。
8 L% h+ J% j+ W" ]' U3 r) S/ c% P9 L. B- `' j, }+ p1 N2 M4 o' [$ P
" j, k' ?3 z" j/ J. f5 a) b
影片参数+ W0 [, l$ {4 w# {* T+ J
拥抱熊猫:青春变形记幕后/拥抱小熊猫:青春变形记背后的故事4k.Embrace.the.Panda.Making.Turning.Red.2022.2160p.DSNP.WEB-DL.x265.10bit.HDR.DDP5.1-信息' s+ H% Q$ f4 y  V" s0 E! ^2 ^
Video
' w. h0 L! v0 I- fID : 1  @! P9 d8 o" I
Format : HEVC
: k: h( M9 a' sFormat/Info : High Efficiency Video Coding
  \+ R, n+ j- u; xFormat profile : Main 10@L5@High$ X/ h& Y% w( q0 s/ K
HDR format : SMPTE ST 2086, HDR10 compatible
" r5 X. @; F, Z- N" RCodec ID : V_MPEGH/ISO/HEVC. Q' @% M& K/ g2 i& |: X# d
Duration : 46 min 55 s
) I) q1 n3 ~1 w6 w- R5 U( ]Bit rate : 16.3 Mb/s
" d$ A4 k' E( c) X, NWidth : 3 840 pixels% S3 z5 b" R/ x
Height : 2 160 pixels$ i- w  l, e: x
Display aspect ratio : 16:9, |( V' |: C0 ]9 ^$ w3 H
Frame rate mode : Constant9 o- S' j" \5 b- _  z; }3 U" E
Frame rate : 23.976 (24000/1001) FPS
8 J' O' }8 E; [' ^1 yColor space : YUV
: w: S# }6 l* ]) s$ G8 n6 {Chroma subsampling : 4:2:0
4 x  I+ q: O& r- }+ ?/ sBit depth : 10 bits
, v" Y! z3 p6 g- h7 B; t8 fBits/(Pixel*Frame) : 0.082
* a2 ~/ N6 x  U$ L; O7 n. Z( dStream size : 5.34 GiB (98%)  {& }6 G1 [  z3 D/ n# J
Default : Yes
& H0 Z9 |4 j# ~5 s4 Q& ~: G# u9 UForced : No
% x" h( `$ A/ j9 E" H6 ?Color range : Limited
3 j& i0 q* O: @( n2 hColor primaries : BT.20202 c) N* ?* j/ ^/ Y1 j
Transfer characteristics : PQ
6 ^5 F( B- v; w1 @/ D6 Q9 m" _" KMatrix coefficients : BT.2020 non-constant# B+ v0 p* |  e
Mastering display color primaries : Display P32 W7 f: ^. A* c# p: j( P! h
Mastering display luminance : min: 0.0050 cd/m2, max: 1000 cd/m2  N. p9 _% w$ w, R7 m, i2 a
2 x5 b' _8 }  U- `9 G7 ^0 B
: G( i' s' `9 K' @
Audio
  @, b. M$ G% \7 P: K1 y" ?* \ID : 2
3 O7 P# N! R+ M, E! {4 o" x! ?Format : E-AC-3
- B2 X3 i# [! B& z. jFormat/Info : Enhanced AC-3- C  z4 `' B2 O5 t, [. w" b
Commercial name : Dolby Digital Plus
2 G4 ]% @. B2 O5 g% }Codec ID : A_EAC3- N3 m& {* @5 q
Duration : 46 min 55 s
+ \5 V+ \& j- RBit rate mode : Constant9 _2 P6 D, @* S/ V, U
Bit rate : 256 kb/s5 Y8 l( R5 a4 G: Z3 @
Channel(s) : 6 channels
3 `6 Y$ w( V& A/ YChannel layout : L R C LFE Ls Rs
0 I; M# ^- q1 W& w$ i7 PSampling rate : 48.0 kHz
2 @, G4 ?9 E6 u# jFrame rate : 31.250 FPS (1536 SPF)
9 Z! D* Y3 d0 k4 Y+ @2 [Compression mode : Lossy
& @" o7 @0 V+ }' C: nStream size : 85.9 MiB (2%)
0 I. |. }- V+ ^Language : English
. _3 l. Q+ ]1 I9 g' r& ?Service kind : Complete Main
8 a$ ?1 l+ z: y- LDefault : Yes& q7 q  t- y3 u. l
Forced : No2 n4 t- y& j) l. M8 H, {
4 r; _, E8 c3 A0 r1 m" e" Y8 w
7 H9 R: h8 b+ M% r! A# w- K
Text #1, c/ L; x: b5 n; h2 J
ID : 30 t1 r) Z; O" O
Format : UTF-8
# y- U, ~2 D6 D/ E) ?1 SCodec ID : S_TEXT/UTF8$ _) T5 C. ?7 V3 l3 I& A' ?: C
Codec ID/Info : UTF-8 Plain Text: l1 Q7 |* _8 D. V) k# H2 g
Duration : 46 min 45 s
5 U- F4 ]! F$ f/ c* V# CBit rate : 112 b/s
* {; _! C0 r! {  n/ BCount of elements : 8290 I! v1 y8 ?* ?" {! \+ E& D& H
Stream size : 38.6 KiB (0%)
( M9 C2 h) k, `6 c' SLanguage : English5 |! }0 _" E! ?$ z7 b; r4 `/ u
Default : No
! r7 B+ W: R% {5 D3 n  ZForced : No
" w4 X' [7 r9 d: f
3 }. S5 e: H# n; d8 T6 h
% ~9 l) d0 Q+ x6 _2 \! j  G# F+ n& X
Text #2% p; E0 i, T8 \. ~
ID : 4% s, P" I7 q( y! I; j3 x0 S, ^/ [
Format : UTF-8
* U, |# U) y$ b8 M+ ~; p: lCodec ID : S_TEXT/UTF8, N! p( k9 Q. s1 v  Y5 z
Codec ID/Info : UTF-8 Plain Text" M$ f# @; ]1 Q  a9 e- ?+ A
Duration : 46 min 45 s
1 i0 Q& e+ ]4 n; \5 C& GBit rate : 115 b/s; O, h: \# r0 R0 e' G% g5 i
Count of elements : 850
) F$ r$ m) L5 n( r4 V& ^3 BStream size : 39.7 KiB (0%)
2 L% H7 b" v( N5 uTitle : SDH0 O# X- I; m; n1 d0 I4 P- _( [
Language : English
- D) C* z$ M4 N. {+ u, cDefault : No' A7 c- ]4 M& `/ S( X4 k$ h; Z; X
Forced : No. T% Q+ J; c9 Q/ m$ W/ l

" U+ T3 U# V" \' S, b1 a+ f- d

! u' W2 W' _, N4 Y" q; Q2 G3 P" c, yText #3
) s/ I" l' o; R9 E* V0 |" UID : 5
* P/ M) u2 x) r1 [. tFormat : UTF-8  o# T: z' w9 s7 [% ~3 j0 q
Codec ID : S_TEXT/UTF8
7 F) E. D* z9 D8 iCodec ID/Info : UTF-8 Plain Text
% A9 y% x% k# bDuration : 46 min 44 s( T: W8 R" ~5 Y$ j3 s/ s7 c# \
Bit rate : 118 b/s; C9 T3 ~( |+ G4 y7 \
Count of elements : 855
5 h4 \9 o8 f1 X' E5 hStream size : 40.5 KiB (0%)+ z: P+ q0 a5 H6 ~" E9 ~' |2 b
Language : Czech6 T. ~# P. V, w2 @3 c# {! O
Default : No
9 P  [8 f5 W6 B: C! uForced : No6 ^$ ?9 p/ B1 g
5 R  \; x1 H* J" d7 P; C* {& Q

5 l. I3 j& P* dText #4
6 g  g& Q/ ^. h5 N$ B7 r! G0 cID : 6
3 q, E! ]+ g3 i% CFormat : UTF-81 M2 b" N: {& A7 r% f  i
Codec ID : S_TEXT/UTF8
' c  p+ }6 p0 E  c3 y; X; I! t+ ^( kCodec ID/Info : UTF-8 Plain Text+ a1 z4 Y( U* q6 y* d! e
Duration : 46 min 45 s
5 P$ v; d% q1 n. e# R7 g0 S* qBit rate : 84 b/s  w3 m9 Z4 m9 P% s2 X
Count of elements : 583# Q$ k3 i  }) Z+ A2 k! e( j- z
Stream size : 29.0 KiB (0%)( j3 W6 h  _  j0 T  m
Language : Danish  p. I$ B) s& X0 T" n. y
Default : No
1 t! t8 [3 _6 Y+ i  cForced : No
0 G5 I$ q3 t3 E1 T9 W2 V5 I, @
, D! r; N) ~# @' \, B

& j; }# Z% |* |- v3 H1 L7 Q% J$ iText #5
) B( M( e- _- `! @ID : 7
. H0 ]+ {# D( ]/ n0 g7 p2 IFormat : UTF-8
7 I- p7 j: E7 |) @4 }* n" w- gCodec ID : S_TEXT/UTF8: Y9 Z. ?1 x+ I6 J! E
Codec ID/Info : UTF-8 Plain Text- A! c4 ?& f. s' u& n# `
Duration : 46 min 44 s. s! S* `  B. {9 W, m8 y: q5 a" M% S
Bit rate : 114 b/s
& e0 e, m$ r. F4 |4 M% ]4 l" [Count of elements : 830( x0 t' m! Y. ]  S4 O: d
Stream size : 39.1 KiB (0%)5 ?8 g; Z" E/ N" e$ ]9 ^. W5 x
Language : German
( [6 F/ T+ Z" ?: v% Q' iDefault : No
' C2 P' z: C0 a5 wForced : No! Q/ c1 I5 i. O+ [/ w
8 @4 V8 M9 D' S

! z% [7 Y/ z" f% |: L8 \Text #6! P0 T9 P9 `8 B7 V
ID : 8, I0 @1 i& x. H* }6 x" u# z
Format : UTF-8% z( D9 x9 X% i
Codec ID : S_TEXT/UTF8" P! l$ Y- A- C9 N! V- y; P3 o
Codec ID/Info : UTF-8 Plain Text
, h1 h4 e4 l4 |/ N6 s3 X/ A* SDuration : 46 min 45 s; u) [" s& E( T$ U& z
Bit rate : 178 b/s6 Y/ @3 f. n$ U; \- z6 p
Count of elements : 856
. Q( k/ j1 {$ H* n( j9 ~- ]Stream size : 61.2 KiB (0%)
7 ]9 }& r+ I8 ?8 JLanguage : Greek) }; s, `4 m- q0 b! D; N0 S
Default : No7 P1 b; c% z( D  C* F
Forced : No
# l% W( r1 g7 o( n' ]5 ^+ D$ i# z( h) b; L
. Z" [9 A; o! S( V  \
Text #7" N7 m( A5 h9 H4 c$ }* N' a9 z1 }
ID : 9
, z3 k% x6 l. X" |2 P9 OFormat : UTF-89 @. ?) f8 C+ k' ]
Codec ID : S_TEXT/UTF8' H6 h8 M- {- s3 C' r
Codec ID/Info : UTF-8 Plain Text, E( H, Y* F/ F# O
Duration : 46 min 45 s
1 N- k4 ~+ t; [- _/ M4 FBit rate : 112 b/s: H( b3 c" D. u
Count of elements : 8541 Z: B8 c# X5 o" f; j$ H
Stream size : 38.5 KiB (0%)
4 A0 X5 T& A7 m, G. H0 T! x  J* rTitle : Español (Latinoamericano)* b& A4 }+ f; x* L$ e
Language : Spanish7 @3 o# X% E  n* Z) w  ]8 ]
Default : No4 R$ `9 L! Y: J! W3 T9 Y  R' o& t
Forced : No! _/ a0 v; u, N. D
$ u: Q" I9 N/ g( [
$ A) {1 h7 V! m  ?# H4 A
Text #8
, @3 s8 `; E  P! F6 RID : 10
8 x" F% A7 N9 n3 [. nFormat : UTF-89 q* x' r3 {8 e3 h& p& a. m* Z
Codec ID : S_TEXT/UTF8* `+ r; i2 w" Y# \/ S
Codec ID/Info : UTF-8 Plain Text. U+ h2 r0 N" {' J" n7 r
Duration : 46 min 45 s. h0 F" R7 v! X8 f
Bit rate : 112 b/s
3 b: {& {) G& W8 Z3 w9 PCount of elements : 855
5 }' I: i2 \5 _. l. O) q4 tStream size : 38.7 KiB (0%)6 \# H. u+ G  d0 f( K
Title : Español
# I: \. S1 G: n3 J$ @Language : Spanish
1 A/ ]" k5 q& w) Z2 ]: dDefault : No
$ @+ l5 _& J2 @1 u6 A: k* g" S4 aForced : No
" f: J2 E# C' ]# n3 |7 G
& y3 c: i/ p. s8 y( D

6 @! |" G( s  c' B7 EText #9
: l, y' X( Z4 q6 w: {ID : 11# C+ K8 ~& b" {' y6 d/ H$ M
Format : UTF-8/ N! b8 w" ~) E8 k3 E; _9 F
Codec ID : S_TEXT/UTF8* P5 z4 V3 F7 B6 w1 I
Codec ID/Info : UTF-8 Plain Text3 b4 D2 w+ j2 E+ Q0 U+ j& F1 `
Duration : 46 min 45 s
0 J6 V5 h! q/ R$ b) f/ gBit rate : 108 b/s
- M; v9 Q7 d9 c& E3 f# ACount of elements : 850! X) x8 [8 s; C$ \
Stream size : 37.1 KiB (0%)2 |8 M+ g1 ^: R# q3 k1 M
Language : Finnish
# ?5 f5 o4 z$ g, V% s& e  ]Default : No( X' l+ l4 f* b7 p/ n9 _, t
Forced : No
( s- ?( k# N- k4 L+ s. k$ a! I8 \  s& q5 V+ e4 }0 |" e" x: q. v
0 P7 r; E. ], m9 a+ \: M
Text #109 a3 u) f0 U# }$ f" h
ID : 12$ }* w! N4 N  S9 t
Format : UTF-8
) A5 c8 m  k: ^+ `8 PCodec ID : S_TEXT/UTF8( _& @$ f4 `6 j7 `  B4 J0 x
Codec ID/Info : UTF-8 Plain Text+ Z$ ^$ t1 ~! W. K- b" b7 y* V" q
Duration : 46 min 45 s
3 C2 i( h: n5 }1 i& Z, g7 oBit rate : 100 b/s) w/ I9 ~( j4 R$ `, p2 a
Count of elements : 848
5 d2 d/ n/ d1 S, ^7 W% U7 d/ c2 ?& CStream size : 34.6 KiB (0%)  C, y$ h6 V# c) y' {
Language : French1 H$ ?/ a- Z8 v
Default : No- e5 b" Q9 \: S- o1 L' _% l& V0 k
Forced : No
' Q: N! B2 [; d
2 ~( ~: u5 a0 g$ \" j
- o/ O" m8 e. Z, T/ E( O  R7 C! i
Text #11
  P; y! R" c/ [& S0 HID : 13' b. T" a6 D+ R! A7 X: Z
Format : UTF-8; x  `5 J6 T2 g# Z5 j$ {3 T' R
Codec ID : S_TEXT/UTF8, {* _7 v: M$ e1 ?
Codec ID/Info : UTF-8 Plain Text
, O) U+ H8 N. A$ jDuration : 46 min 45 s
6 V# e* C- d  T) R& RBit rate : 112 b/s# e9 |4 a/ ]1 @# w' X: F: z
Count of elements : 8564 c  z: k# w: U" X. y' u
Stream size : 38.6 KiB (0%)2 E7 h! F0 g! x4 w' E
Language : Hungarian
$ \  G  f# u* K, `" eDefault : No# l, v9 b' k7 l' E4 ]
Forced : No3 H4 A, m) @! b( k4 v
2 s$ L( c$ w5 m' b

$ u  P6 \" R$ k( q$ y5 ?Text #12% w" D9 }5 E# {0 f+ H4 k
ID : 140 `3 X2 \9 W* ~8 E8 S
Format : UTF-88 ]$ t  k4 V4 I7 }9 s1 M4 H7 K2 d
Codec ID : S_TEXT/UTF8
$ W: }- w  ]& _/ N% \$ }Codec ID/Info : UTF-8 Plain Text
& X5 [/ V; z5 R! L5 B0 p* TDuration : 46 min 45 s
4 Y( i' T) s# dBit rate : 112 b/s
6 t* ^- q! x- a2 v0 ^Count of elements : 854, E" g/ b4 c3 H5 [4 p  ^0 z
Stream size : 38.4 KiB (0%)4 c: u1 U. b0 U5 w- x
Language : Italian  Q# s, T8 B! o) d
Default : No4 N5 q. c/ V' N" N, X
Forced : No
" L5 A, M% Z# `$ L$ v" S/ r# D* J+ t& H  U. k# ?
5 R! d2 C# L' g$ r0 m* K6 [
Text #13) Y: c* X: y# G: C2 D
ID : 15% W- Q! ~$ I6 e# G, j
Format : UTF-8
+ H. o9 K( B2 hCodec ID : S_TEXT/UTF87 \( I3 v% h, [; h+ i& w; G
Codec ID/Info : UTF-8 Plain Text
7 f5 w2 h! i3 @; ?  uDuration : 46 min 45 s
. d, M8 z5 T0 n$ c' B5 Q3 iBit rate : 88 b/s3 ?; [  U! D, S, l
Count of elements : 771( `! q# Y( t# S( M2 O1 q4 }2 f( @
Stream size : 30.4 KiB (0%)
, ~) V3 X; I! z8 rLanguage : Japanese
. ]9 P# Q  ]6 h' H" ?; K6 jDefault : No9 g/ {6 L, ^% d2 _- F
Forced : No
1 @7 v& b) U5 @& K2 w2 _5 c% K+ J2 z- Q$ b$ z; z( [- p9 h# \
) E  l) R  h& [% M& y
Text #14
! H$ J0 K, [" {6 l! @: PID : 16( X* T6 b7 m0 N/ e, ?7 g" v
Format : UTF-8
6 m& X/ @2 H" YCodec ID : S_TEXT/UTF8! C- L: A+ ?& ^& G/ V+ R
Codec ID/Info : UTF-8 Plain Text
  a2 u4 F$ m9 X( `Duration : 46 min 45 s* m: e& u' s9 r$ g4 S
Bit rate : 105 b/s0 g0 b# f. d# a4 m$ r* S
Count of elements : 8565 D1 L( [- w8 f& a( U6 k
Stream size : 36.3 KiB (0%): @6 l% M8 J7 k0 j/ @  S
Language : Korean: @: \4 g4 e! n) z) F( r/ N
Default : No9 P: I9 ?) @/ b) @
Forced : No
$ t; b- |& C2 ?2 e
3 ~! ?2 P  ]" z7 J+ I4 o
6 f5 j5 w. ^# W; `# T( ~
Text #15- j) _% D. p2 y# v  S. L# Q
ID : 17. w) O9 Q) O* @, d5 C3 \4 m
Format : UTF-8
8 ~8 B! M3 t* z% d6 QCodec ID : S_TEXT/UTF81 d3 i# f  J) \
Codec ID/Info : UTF-8 Plain Text
" ?) _5 h& p; w+ p4 D% UDuration : 46 min 45 s- x/ `8 `$ c5 Q5 H( n/ I9 V
Bit rate : 85 b/s
9 e4 C, T$ c8 s/ K- h0 b$ h- i. G/ cCount of elements : 717" R" Q' C6 T2 V( B  ^0 l
Stream size : 29.3 KiB (0%)+ z% o+ V4 a3 Q9 ^" c+ B( A2 L6 U
Language : Dutch6 U, G% U6 k& _, H5 q
Default : No
" p3 U9 ?! R( @. a4 \3 DForced : No7 I) W2 N. E) Q2 J, K7 p
2 M/ K/ J7 W: Y8 {6 C! K
  J8 M7 {# u9 s0 u3 ]9 O5 l
Text #16
$ d* J( `7 b3 A: D3 N7 }5 |ID : 18
; p8 t) k( v* _* L/ T; t5 S! s9 xFormat : UTF-8) k  f: `& J0 s% I3 e: z
Codec ID : S_TEXT/UTF87 v7 v; I" s6 l5 [% M+ g  h  G
Codec ID/Info : UTF-8 Plain Text
3 \; D' E* L4 s1 cDuration : 46 min 45 s
* |& [" l( N- y* }3 vBit rate : 105 b/s1 d7 w( }: F6 W  E  o/ w) ?4 y
Count of elements : 858. R; X( i7 j& A2 O5 L
Stream size : 36.3 KiB (0%)/ p" q1 h! e% f6 Z+ s
Language : Norwegian
6 C2 B/ i  Y, q! s  }% A  |Default : No, V' p  v( b0 n) L/ m
Forced : No
$ l( z' O0 A. E  c' S6 I2 H7 C) Y0 C: O" a- d: V

" U! j. f0 n! @  l7 c. f0 y( r/ U/ h6 gText #173 C: A. N2 f6 @4 s7 w' n( S/ f
ID : 19
$ |/ w! I! S. t: G% t' L4 z$ m/ L% MFormat : UTF-8
, A6 J5 y$ _% i/ h6 a7 V( YCodec ID : S_TEXT/UTF8
: z" b2 O+ m" fCodec ID/Info : UTF-8 Plain Text
: M3 ~5 B9 B$ Z- MDuration : 46 min 45 s
5 X# S: F1 q; v8 ^) ?8 \3 V' tBit rate : 109 b/s6 }8 {8 M/ T5 a. W& I. b" g
Count of elements : 855
1 ^- R8 p" Z; m* [$ v" v$ N+ nStream size : 37.5 KiB (0%)
: X* T* C3 X. Y( `7 g! cLanguage : Polish
* P- ]8 z% M: _7 C# xDefault : No1 d; M3 T; @2 X: ~* h
Forced : No  c; K1 j& e) y; u+ E( g0 T+ X

0 G4 H& f4 A6 l3 I8 E- {8 m, q- X9 ~* d
' \% p. z9 s% n2 d
Text #189 `: O; ?$ l  l5 [" f/ A
ID : 20' K% K! J. H) m( {  D
Format : UTF-8# c) _% h1 m2 Y/ b9 [
Codec ID : S_TEXT/UTF8
7 G4 F5 K! b5 ?4 xCodec ID/Info : UTF-8 Plain Text
- M1 A; x' ~! s; M; }4 r) A" ADuration : 46 min 45 s
& T5 K5 b8 ?$ [. I- k% |Bit rate : 113 b/s
0 C: ~. i0 Q" eCount of elements : 853( n0 ^2 E' q$ ?5 e
Stream size : 38.8 KiB (0%)! L; f* f% [% A* B7 z) y
Title : Português (Brasil)( v, |4 `% t+ M
Language : Portuguese: ?1 p& ?# X" \8 ^* G
Default : No3 f# L/ S3 y; o
Forced : No9 I+ `3 }: h. s3 G
( Z7 ]% ]) V" E6 g7 X

  q; O4 B, @9 sText #19
. P( i0 N- L$ X) pID : 21
* u0 i" _' R7 H9 k( }, EFormat : UTF-8
: t+ P" O0 G/ i' s: A1 TCodec ID : S_TEXT/UTF89 P; {6 V2 L8 q, i5 k
Codec ID/Info : UTF-8 Plain Text4 k/ k0 {( x) Z* O
Duration : 46 min 45 s
8 E$ K9 g. u. G5 R1 U  r5 }& b* s8 o: x, [2 GBit rate : 104 b/s; n8 ]$ ]/ d+ o4 Y8 s: B
Count of elements : 8552 M1 M0 H+ M* N4 |$ P$ a
Stream size : 35.7 KiB (0%)
7 m; k+ I. N5 ?Title : Português( `. A6 y$ I, W% f: b6 P* E
Language : Portuguese* L5 m* Q1 L1 O8 h% ?9 T2 u0 \7 d
Default : No
0 j4 z+ s) E0 t  D- L5 o0 ]1 oForced : No
& v* L/ q8 O8 n( t: p9 [' J9 Q1 @; P+ J0 s
' P( j) J4 c5 z- \) V3 ]5 n
Text #20
" _& M4 T9 W1 i, XID : 22. s$ U2 e; B/ N* O3 J0 G5 t
Format : UTF-8
: L& @; Z. K; ?# S2 S* _" Y2 K" wCodec ID : S_TEXT/UTF8
1 F& ~, a3 R5 a# rCodec ID/Info : UTF-8 Plain Text
* F' L1 r, o& z1 @! [+ U# h  |Duration : 46 min 45 s2 g) h# T* f& W" v; p7 K
Bit rate : 112 b/s4 @/ W5 y) c% I3 B
Count of elements : 857
! f3 s5 e; I' x- T/ [5 \# nStream size : 38.5 KiB (0%)
& P2 M/ i9 {+ A4 pLanguage : Romanian# q+ H, ^6 `0 ~+ [: o
Default : No
" q! y1 A# z/ m+ G" x- xForced : No3 C+ s9 O- u1 E" a* _, \7 ]
8 u( ~/ y4 f3 O' @: }3 r" g7 C
8 ?3 k: v! V* E6 O% v
Text #21/ T; L  P$ H3 d; J6 D8 n! ~
ID : 231 R5 I/ i' h. _9 Z  X: J  B
Format : UTF-8
  z. }- A: O* p9 l# ~+ N& K. LCodec ID : S_TEXT/UTF8& @% V4 r1 Q% |
Codec ID/Info : UTF-8 Plain Text2 r- ?* f* K- j
Duration : 46 min 45 s
/ D6 Q7 y; j2 R! q, ZBit rate : 108 b/s9 T" `6 n5 D) X+ i  Q3 B0 x
Count of elements : 853, z: ^7 f* ]4 T/ |
Stream size : 37.2 KiB (0%)1 m% u9 I4 G: \
Language : Slovak
3 G% j* X. j6 [9 X7 x1 ADefault : No
& ]" ^0 h  B$ NForced : No
' f. s  z/ C% A
7 N4 {$ d+ t: J* m% N; Z, j0 C7 X

. D8 c  b0 @* D9 E7 jText #229 N8 `! f; \; M/ o) {; }
ID : 24* }. ?; U0 a0 S' i
Format : UTF-84 M0 O+ z( [7 Z# T! M
Codec ID : S_TEXT/UTF8
3 ]) l' ~1 I4 X$ T5 RCodec ID/Info : UTF-8 Plain Text! h2 o) g3 ?, v5 k
Duration : 46 min 45 s
; |& F+ D7 c2 a- L5 w) X2 VBit rate : 107 b/s
# Y; ^+ u  z) O3 e% A+ LCount of elements : 852$ \7 F! l1 A& [' o% k
Stream size : 36.8 KiB (0%)+ I  I# u  {# Z9 o; \
Language : Swedish
# l' }! M. M5 v1 a, N$ xDefault : No4 x/ N/ F& m5 Y2 {: q8 C3 a
Forced : No
5 J% f5 ]' j7 `1 g; a1 s( |# T; I% z. F' j' n
. \' ^) Z- @) T9 M0 n. j
Text #235 V$ z& r5 @" z/ ^; l/ P4 m1 P
ID : 250 H* C+ n6 @) I! A( H/ J7 y6 p
Format : UTF-8
% E0 ^6 B. h2 V+ FCodec ID : S_TEXT/UTF82 H2 t! t+ F% @# v
Codec ID/Info : UTF-8 Plain Text
1 x- ]: k# e" U$ s$ k: P9 UDuration : 46 min 45 s, r; m0 J& n# j; H  P) E  T
Bit rate : 86 b/s5 o; [3 ~. a. D2 d* d) t7 q" C
Count of elements : 8575 U( w7 r0 s% a
Stream size : 29.7 KiB (0%)7 G# g' E# s3 u* K% p% ?
Title : Chinese (Hong Kong): [' L/ d7 F' Y8 b5 g
Language : Chinese0 [( a" V/ j# P  A( F
Default : No
! X6 k) i4 T1 R( @2 sForced : No' k( Z0 n9 Z- H. u
! C9 U- G0 L% Q2 g5 B
& A9 K/ G# R% U9 p( P/ \: r
Text #24
- \, y: T, t. n% t' JID : 26
% l  q  v5 B( G; \( l- w$ G  L; VFormat : UTF-8
# L: w- ]% q0 }' z8 z* m3 W, NCodec ID : S_TEXT/UTF8
! w. l" r! J+ P( v2 ~Codec ID/Info : UTF-8 Plain Text" S/ g' B% Y4 a: ^3 F
Duration : 46 min 45 s
( m7 }1 \" M/ kBit rate : 92 b/s
- ]) X' v$ Y: c( f. w* VCount of elements : 858( J1 g- R% t4 F; P# Z
Stream size : 31.6 KiB (0%)
: f. o  P$ e+ r& e- ~  CTitle : Chinese (Simplified)' u6 h! e" {/ m8 v$ @
Language : Chinese0 v* A- X9 x* E. O
Default : No0 Z6 M1 L$ R  O9 G- I% K
Forced : No
1 V  q8 d3 j6 n' b$ F$ i8 O* I; d
2 @1 s( `  ?8 r# s: o6 F! g
7 g5 V  i9 _2 W0 |
Text #25
( ]$ y# h! K' h) ^/ C* sID : 27- h, u( d& d: K, I
Format : UTF-8+ F$ Q* ?7 o; Q
Codec ID : S_TEXT/UTF8$ ]7 p4 m  Z" [9 ~' E1 j
Codec ID/Info : UTF-8 Plain Text+ C$ F1 q( E( N4 x9 t* g
Duration : 46 min 45 s) A* U( A7 b+ _. `. A) z; }
Bit rate : 86 b/s- G0 E0 l7 M' M* b! m" P7 G
Count of elements : 858
. n4 e+ s$ j( [. U: ?Stream size : 29.5 KiB (0%)+ {1 J: E+ H2 @6 t( E+ |, |
Title : Chinese (Traditional)
8 d  Q; ]& r; ?3 X$ mLanguage : Chinese
7 w8 p5 }$ T" Z/ A% i7 GDefault : No
( B9 D' b6 y  {+ `9 F: `/ K- }9 N) QForced : No
) D- r; q5 c. {( B' `5 u
. T) R! j4 w% |& z' T- ^  Z
- A$ t& q, P# ?7 M" E
5 S" X' A! y% I# l) |8 [5 @
拥抱熊猫:青春变形记幕后/拥抱小熊猫:青春变形记背后的故事4k.Embrace.the.Panda.Making.Turning.Red.2022.2160p.DSNP.WEB-DL.x265.10bit.HDR.DDP5.1-4k电影下载
* |" ?: C5 L) `6 [
1 X8 h! I* j& l: p拥抱小熊猫:青春变形记背后的故事4k.Embrace.the.Panda.Making.Turning.Red.2022.2160p.DSNP.WEB-DL.x265.10bit.HDR.DDP5.1自带简繁中字【4k HDR 5.42 GB】3 b+ Y9 h3 e  w  q. M- @

* A8 A6 P, g5 n) V# w$ M9 i
$ N" Y' O! S2 v3 D$ }) H+ m4 s; P! D拥抱小熊猫:青春变形记背后的故事4k.Embrace.the.Panda.Making.Turning.Red.2022.2160p.DSNP.WEB-DL.DDP5.1.DV.MP4.x265自带简繁中字【4k 杜比视界5.48 GB】
" p# ]; }9 B! p: d# f
3 K! _3 Y6 D# b( b' b- N) }* v
1 S" `; r' D' j4 \* M9 J拥抱小熊猫:青春变形记背后的故事4k.Embrace.the.Panda.Making.Turning.Red.2022.2160p.DSNP.WEB-DL.DDP5.1.DV.MKV.x265自带简繁中字【4k 杜比视界 5.48GB】* r/ S: Q$ ?2 l4 K+ j3 A
  x) {" u/ A# Q: ?# _1 J, L
9 h" T" C+ N: u' ^

2 x% i% c/ f# J+ R1 s% b
. @. Q9 Y, n# ]# z& X) L' p
& S" |# ]8 s% k1 X6 v3 K" n: \
登录 发布 快速回复 返回顶部 返回列表