开启辅助访问
 找回密码
 立即注册

拥抱熊猫:青春变形记幕后/拥抱小熊猫:青春变形记背后的故事4k.Embrace.the.Panda.Making.Turning.Red.2022.2160p.DSNP.WEB-DL.x265.10bit.HDR.DDP5.1-4k电影—5.42 GB

#4k记录视频#时间:2023-04-28 阅读:220 回复:0
112244whif2w71f22t5x9g.png.jpg
$ r. @6 v5 l: G. W8 ]/ ]5 V$ [4 A+ U# O" S' j
简       介
$ V2 s6 _4 j! D) I  P

; @% v" a" C) k& Y( t  讲述了皮克斯原创动画长片《青春变形记》幕后“娘子军\'团队的故事。该纪录片深入幕后,采访导演石之予和她的核心领导团队,展现她们强大的专业能力,分享她们个人的成长感悟,正因为她们,《青春变形记》这部无比真诚、感人至深的爆笑喜剧才得以走上大银幕。
6 U5 [9 N, V+ O8 i0 [
- U9 A) D+ z( a+ z& w( S

8 ?- i  v% ^* ]3 h; ?( A3 V影片参数& J2 x, h  m- F  r2 s3 s
拥抱熊猫:青春变形记幕后/拥抱小熊猫:青春变形记背后的故事4k.Embrace.the.Panda.Making.Turning.Red.2022.2160p.DSNP.WEB-DL.x265.10bit.HDR.DDP5.1-信息
# ]& x# ~  a6 _! v3 P. D& Y+ {Video
. B* c6 N8 F- V0 e  jID : 1/ [. t4 F# M, O$ c$ [
Format : HEVC- G) s0 a6 a$ ^8 l7 |4 t7 m& i8 g
Format/Info : High Efficiency Video Coding
% _. B( h1 S9 _/ q8 W$ ZFormat profile : Main 10@L5@High
1 Y1 p* R/ k- I1 V( ]3 [HDR format : SMPTE ST 2086, HDR10 compatible
# l4 V6 l" e9 G) H  Z$ NCodec ID : V_MPEGH/ISO/HEVC
7 V; a3 @+ _3 s: k8 q' p# RDuration : 46 min 55 s* t; g& o" O4 b
Bit rate : 16.3 Mb/s
) r% o4 `! x, gWidth : 3 840 pixels6 \! S# Y2 K/ e1 O2 v, l) R
Height : 2 160 pixels
% t4 M( g( K6 }& C+ L( b% r$ tDisplay aspect ratio : 16:96 B% ?9 W& \, P6 R, u+ a
Frame rate mode : Constant
" _3 ~0 z3 @$ Q; u+ dFrame rate : 23.976 (24000/1001) FPS
% b! c$ D% n- _& ]1 mColor space : YUV
3 f$ O: b* _$ c; s/ _3 hChroma subsampling : 4:2:0+ \1 @# M# l6 E3 S( W+ L1 O3 ?
Bit depth : 10 bits8 k; M: I2 Q3 {) l
Bits/(Pixel*Frame) : 0.082
) c7 v. j8 d) o$ S. ^% e1 T$ OStream size : 5.34 GiB (98%)
; H% p$ c9 F. n8 R* i6 QDefault : Yes& u4 q" t* `" j- n* R" Q( I
Forced : No
! {4 p! ]' J6 tColor range : Limited& N1 D- f/ R7 |/ `
Color primaries : BT.2020
& B3 N) c+ V2 i* Y+ }Transfer characteristics : PQ
- v7 y. I& F/ `! B2 HMatrix coefficients : BT.2020 non-constant% `( b. P0 U- A' v
Mastering display color primaries : Display P3) [# F$ ~9 d' U6 [8 P, D# O
Mastering display luminance : min: 0.0050 cd/m2, max: 1000 cd/m2
1 {$ i( Q0 n$ P1 E5 I) G6 ?1 r/ O
$ x5 z  T% P( a% H: A9 O/ E

$ N$ n7 d4 J8 P( c1 i" ~Audio
3 c) A" i; \0 u3 Y. W0 sID : 2
; o0 r5 s  A& ^5 A$ ~  i- {+ tFormat : E-AC-3
1 _+ x5 K8 Z" R6 l4 w7 zFormat/Info : Enhanced AC-3% |7 q+ v5 j+ f  I% y
Commercial name : Dolby Digital Plus' ]2 E+ k4 V; f, |* f5 r( Q5 h
Codec ID : A_EAC3: G( O0 f9 E+ `. x$ P
Duration : 46 min 55 s- K+ i7 I4 J5 f5 b, F
Bit rate mode : Constant6 l) |9 u% Q+ j/ e: h0 p; u
Bit rate : 256 kb/s
3 z3 ~0 k9 T  X+ I3 ]Channel(s) : 6 channels* H: ?+ z+ j, w  b+ W8 g
Channel layout : L R C LFE Ls Rs
: g# e9 t4 `) \6 D7 RSampling rate : 48.0 kHz" L' ~& H6 T( {9 @  V  v' }) u
Frame rate : 31.250 FPS (1536 SPF)
1 S* Q- G/ Y/ o& T5 l3 M* S# vCompression mode : Lossy( p5 B8 \8 w/ J. W$ O
Stream size : 85.9 MiB (2%)7 q, a* M9 S0 k
Language : English
9 L6 B! [% \' M; S% L/ A6 B* r( G0 pService kind : Complete Main
  F. k2 K! X; oDefault : Yes
$ h( C6 c: L8 L3 GForced : No
; R0 a5 l: Y; \6 [
# O5 R1 e% H/ ~' b4 I
+ u: A2 Y% {1 D% w: e
Text #1' q7 d+ H) Z& \) f, x, j- E
ID : 3( V( S! d' _4 M* x
Format : UTF-8' a, G, `4 c- n8 v9 }
Codec ID : S_TEXT/UTF8
- z, F, Y) N" xCodec ID/Info : UTF-8 Plain Text; [: Y$ K7 q7 \9 ~
Duration : 46 min 45 s
  N  n% |$ C$ v3 a; r- GBit rate : 112 b/s
  ]8 s& W4 m3 P( C" GCount of elements : 829  O( k+ {* ?" v8 T
Stream size : 38.6 KiB (0%)! z# X- x6 B. K. M
Language : English, B2 C; H6 G" E: y
Default : No
1 r- E0 d0 K& A9 ~' a+ {0 \9 Z) D! gForced : No. x: a: K! U+ H2 V. }6 ?. r

& D* F& }9 t8 p, {4 v! h! p

+ i: W. I( [3 s$ S, }Text #23 L+ i, _' o& D+ R7 {3 i/ B( h
ID : 4
& L# T, Y, |; GFormat : UTF-83 Q) Z. E3 Y# K; v: s
Codec ID : S_TEXT/UTF8. G( Q, Y6 u, `! o: c! {
Codec ID/Info : UTF-8 Plain Text
, o) K# W% I( x4 O( H7 g/ hDuration : 46 min 45 s0 X" f8 z& Y9 w4 V! D1 e- n5 w
Bit rate : 115 b/s
; m' _! k# v! |  [Count of elements : 850
6 F/ c( E  ?% c- w2 D& iStream size : 39.7 KiB (0%)
3 q# m4 p! ^9 C7 w6 `( ~& R  ATitle : SDH2 U, _3 |8 j! N2 V% R
Language : English
$ y! h* R9 i, j0 W4 i5 wDefault : No% r3 Y9 E3 f# w; \  t0 L7 x
Forced : No9 g  F1 C: N+ ]& ?7 F
& n; Y+ u. E) Z& e. G
; j8 Y. \* W( X  T& [( u, y  R5 H
Text #3
! z; y; s! r% ~) D% ~( ^' qID : 5
3 S3 y$ e$ M  {% @9 XFormat : UTF-8
' p, q0 k/ b8 b# q( p0 A$ x7 ECodec ID : S_TEXT/UTF8
" a" E2 ]- s. O' G. ICodec ID/Info : UTF-8 Plain Text$ s. m& ^2 _: j4 A: c1 m
Duration : 46 min 44 s9 Y5 F/ w, R* F. r; o
Bit rate : 118 b/s/ Y" R" Q( b% p5 j
Count of elements : 855
) E8 X$ {: L& O) lStream size : 40.5 KiB (0%)
* G0 E# V8 Z0 Y$ j, D9 K, ?, U. W8 oLanguage : Czech5 i0 I1 i- l! l& k0 F1 r
Default : No
$ }2 y. P  X" d. lForced : No
' f9 }! q# z! g* a% b: ~3 Y6 T7 _  v3 W* Y

  F0 C- h/ }" YText #4
8 _- J  N' M" c9 Y6 S' |2 ?0 X+ p( A! S3 kID : 6/ ~  c4 w, J( |  V7 p. h: M
Format : UTF-8
( v2 u% J  A) v% e" R5 g1 ]  |Codec ID : S_TEXT/UTF84 U! q( M( b) i" `/ y! ?! O
Codec ID/Info : UTF-8 Plain Text$ x4 o; E" t6 A/ k* i9 s; _# B
Duration : 46 min 45 s
! ?* i! P# i* F& G, yBit rate : 84 b/s' t- p; s0 h4 k+ C& ^! Z0 i
Count of elements : 583" Y$ [" F8 N0 L1 k( U
Stream size : 29.0 KiB (0%)
1 L  A# a# _+ e# B; HLanguage : Danish
! w: I( y/ ~" B4 f" B1 G( Z; pDefault : No* W. C5 Q& [# g
Forced : No
9 q0 @! \1 z2 t  D' }
  S+ b* w5 d2 s$ n
4 [5 I5 H5 Q- |4 _
Text #5
) h$ c. W4 s  ?ID : 7
4 g4 I- r  X' }9 \( pFormat : UTF-8
0 Z# Z# C2 _$ [+ c0 ~7 gCodec ID : S_TEXT/UTF8
* ?5 O- D/ y% N8 }$ g* FCodec ID/Info : UTF-8 Plain Text) \$ ~# }. D+ @% j9 o4 Q
Duration : 46 min 44 s$ i' a& ]7 p3 g
Bit rate : 114 b/s# ?5 c) W& h& q7 D8 {/ s, @
Count of elements : 830+ K$ Z; p7 H$ W/ z6 ]' K) g/ w
Stream size : 39.1 KiB (0%)
% ^7 V: K- ~' k) D. p, a3 k# O& ]Language : German# i! g9 D5 n$ l2 K' m% ^2 F
Default : No# \' c# ?2 t2 Q) D% }* ^
Forced : No# d* a0 s0 k9 z; Y, y* K( I. E

. F5 M+ \3 h  t* s  b3 G, ]1 [6 L
' D- N- [& w4 y, Y
Text #6- h' N* J" A! L; l# O4 d
ID : 8
+ l1 n! H+ C1 j4 I# e$ f1 YFormat : UTF-8+ K3 [. E7 n& l& D+ e: I
Codec ID : S_TEXT/UTF8  l' w7 ]9 O7 K" Z  x6 H( V/ h
Codec ID/Info : UTF-8 Plain Text, a3 a  d0 f, Q9 r6 I& k( r, x
Duration : 46 min 45 s
' J3 v! b) t% }: w, L0 g% y& aBit rate : 178 b/s
2 g8 y6 [" e% I$ |  ^  {. wCount of elements : 8564 R% L/ B! M8 _# L( t9 @
Stream size : 61.2 KiB (0%)! F* ?2 [- q" R- c
Language : Greek
9 X% C2 z  `  m4 KDefault : No3 h: ?1 _0 F( m8 E; [8 w, M( f" l
Forced : No' B: O& ~2 S, o; _* g9 F/ _: W0 g& d
3 S* q9 N9 s6 x) R& x: S" p
6 F& ~  ]; B# S: ~
Text #7* V# s% M( _' X" m1 N. f
ID : 9
; S* P6 Y; j' w+ f  _Format : UTF-83 C! Q4 L" N9 W( v
Codec ID : S_TEXT/UTF8* F) d) L# F" n& }" K
Codec ID/Info : UTF-8 Plain Text
8 C9 i6 e6 o8 Z+ L, M+ L8 CDuration : 46 min 45 s" p# Z& @( @; u  V# D" R! R
Bit rate : 112 b/s% X/ [2 Y5 L( Q8 @$ C7 s
Count of elements : 854
( g* @& d6 z% _4 c2 N) aStream size : 38.5 KiB (0%)0 ]. h( z9 ~* T' K2 m4 U& d8 J
Title : Español (Latinoamericano)
- ^$ h. c$ u% A' n+ c4 @) |$ E, O8 P6 |Language : Spanish
  x; k7 j5 t% d. ?- L& ]* XDefault : No, h6 E3 T3 L( T0 E0 d  x" y7 ]" t+ ~, J
Forced : No" v! V1 {0 _4 M+ i
) X) R: j8 c' n6 y3 g- `3 K! X

) Z  W1 h1 f, V3 \Text #8
$ ?& v( S  l6 yID : 10
6 }- T3 V. s/ p+ }5 Z) P; k+ [Format : UTF-84 b% J1 m& }7 L" R2 t
Codec ID : S_TEXT/UTF8
+ [, G7 R: g  m* E9 vCodec ID/Info : UTF-8 Plain Text
) Z& G+ I! J) i1 s* |: jDuration : 46 min 45 s8 O( n7 c. ^! z6 `/ ]2 Q0 D/ r
Bit rate : 112 b/s' b0 y0 \7 S1 P4 P
Count of elements : 855% }8 x; h5 T8 P( |) f& Z
Stream size : 38.7 KiB (0%)
# @; L3 U$ p; i/ I3 b+ TTitle : Español: h! P' F1 l4 Q$ J) Z( T
Language : Spanish5 |( H: m% b0 T6 q
Default : No% `: w, N( o" x  T/ w, k
Forced : No
3 Q! M' R! [- Y" u6 w0 H: l' g* g" F9 {% D9 Q/ z5 Q

' U! d& \6 y9 y% U9 z5 FText #9
7 Y  x) r& d$ ?) w9 mID : 11* L. U9 k; l: q( G
Format : UTF-8
1 ~6 \: A% {3 @% ?0 H- ]Codec ID : S_TEXT/UTF8
9 ]  W; b4 f/ VCodec ID/Info : UTF-8 Plain Text$ w* [% Y4 s2 N; Q; M! N4 u
Duration : 46 min 45 s1 r3 o5 `- P. \* ~
Bit rate : 108 b/s
& f9 o/ u% R* b/ _7 L, y! u) jCount of elements : 850
) a, v3 n/ O- E9 u! aStream size : 37.1 KiB (0%)7 \5 E/ f! o9 y' u3 I
Language : Finnish  w1 E' d/ Q. _. y
Default : No1 k6 N  f& e4 Y6 ^7 |, F+ u
Forced : No9 F* r% E8 J( J+ S3 e

1 _1 K6 D' H. f0 h; R
' [* D# [3 _3 m! l1 c- t" I
Text #10
  k# V, N+ ^! k$ a6 N) Q8 x: v, OID : 121 ?% ]% ?- G; U, b
Format : UTF-86 _! _1 L% \8 n7 o9 h! z/ B6 X6 ^
Codec ID : S_TEXT/UTF87 ~0 ~# d6 T& y
Codec ID/Info : UTF-8 Plain Text
* D7 P; h( B" M. mDuration : 46 min 45 s
, [( q- g8 a+ \" U- q& s: ~Bit rate : 100 b/s
! c! T: M1 f$ z% D. m4 z/ e% H  PCount of elements : 848
& p9 P3 h2 q' z3 S5 RStream size : 34.6 KiB (0%)% z* ]2 P: S5 v$ ^" I- E
Language : French
  |, ]+ e. H) d2 F2 `1 GDefault : No
# D: i2 A2 _* ?' O1 d3 ]3 OForced : No
5 ]) A( f, s0 G9 E& M! Y
: p# A3 \1 t; [5 A6 e+ l
8 R7 M( M. b5 A. i# [+ ?2 n" k
Text #112 m( Q& C6 V3 R. p
ID : 137 ~9 m$ n3 n# v. m* a
Format : UTF-8
: a0 j% b* F' N& E+ D  VCodec ID : S_TEXT/UTF8& O( p) ]4 V+ }4 ]) D
Codec ID/Info : UTF-8 Plain Text7 U* k5 R7 K# g3 z( [* s4 I( B
Duration : 46 min 45 s+ k/ y2 m( ]4 F, F0 [$ r. Q
Bit rate : 112 b/s( J2 \4 j0 _& S0 c4 `' @3 f
Count of elements : 856$ P2 _0 b8 ^4 h# i$ ?: J
Stream size : 38.6 KiB (0%)$ }6 O! E- H* X1 |
Language : Hungarian
7 A& U% o% B9 h" \4 L2 FDefault : No, x, n# E$ n$ e& `
Forced : No
$ m4 I2 @6 `9 v$ _% Q
% G( p/ E: ], g% e' w6 g
, u  k+ W  Z% f$ d  ~* v
Text #12
2 l  l: }  r  Q+ r6 aID : 14
+ L$ Y" }+ f/ y- i" a4 NFormat : UTF-8! e( j# n- y; \
Codec ID : S_TEXT/UTF89 V! q! g2 t! V* A) a/ c
Codec ID/Info : UTF-8 Plain Text" U7 w! i$ `) ?$ r
Duration : 46 min 45 s
: @1 q+ w  u( H9 P. M$ cBit rate : 112 b/s* |2 c9 e. C1 M9 F4 K/ ~: [% e% R: |
Count of elements : 854
* v/ n& U/ S# T8 U  LStream size : 38.4 KiB (0%)
: ^1 `6 V& q, t: r4 @Language : Italian4 [' Y) g: i; n. d& U
Default : No& ]7 `9 U8 T- n
Forced : No
  F" M0 k. r6 X0 G! S0 r" I2 c; ?( ~

: `7 h) F5 a' r% t5 b0 KText #13- y6 `' p  b  \, I$ o) p' B! \
ID : 15* I: b$ R0 S1 h$ }
Format : UTF-8  e+ M/ Y) {0 j: W  }( c4 A& H
Codec ID : S_TEXT/UTF8
9 \5 H$ z3 R$ z- o3 H5 G; X9 FCodec ID/Info : UTF-8 Plain Text# D& T* u1 Z. K' w# D
Duration : 46 min 45 s9 {- i5 O- W( f& S' {4 D, z
Bit rate : 88 b/s
, k, V8 `2 m" s( r" h5 ICount of elements : 7711 ?8 M5 |. J5 ~: X1 A
Stream size : 30.4 KiB (0%)% v* a. k: G* Y, s/ x2 L
Language : Japanese
2 ^) x* [; n9 }/ fDefault : No2 h2 n$ w" D  A% x
Forced : No( {7 y; c1 R3 d. }

# K6 V' p/ A6 d! i* F6 b+ d

( x( |" E5 \% gText #14, p) i2 W% b- ?6 a/ X% _
ID : 16/ T: x" U  r/ |9 [. l
Format : UTF-8
! r: I" Q. I" e6 ICodec ID : S_TEXT/UTF8
. k6 Y6 X* Q6 N0 L- G! m$ ACodec ID/Info : UTF-8 Plain Text
: D3 V; F1 Y4 Q1 }) iDuration : 46 min 45 s6 Y. v) X! h# J9 S7 h$ c
Bit rate : 105 b/s
9 r( m- a; m( x) U9 P* `" fCount of elements : 8563 A3 a- ?/ u6 |
Stream size : 36.3 KiB (0%)
- U8 W' V$ r  b/ J) k# n8 @Language : Korean1 u/ K2 X9 `3 z) Y( N
Default : No# P/ b8 {0 e. }9 H( |6 J
Forced : No
5 q* E0 y3 a. }
* H# c/ y+ o" Q: ^% s
) c. p5 l1 i3 |& T! T5 V4 t8 G
Text #15' n" R. A+ ?; |# ^7 [5 n( W6 K! q
ID : 17" f& V# ]; o/ x0 G7 v# V' q. Q
Format : UTF-8
9 N9 s0 b2 [0 C; D7 o) _: FCodec ID : S_TEXT/UTF8
/ f4 R/ [2 ~' {. C6 @. Y/ Z' h$ wCodec ID/Info : UTF-8 Plain Text
( C7 X' ~6 Y6 \: D0 pDuration : 46 min 45 s( H$ W2 Z$ E3 A8 y9 ^( t9 d' |
Bit rate : 85 b/s( Y$ Z6 v5 c# S; W6 L) L& ^
Count of elements : 717& o, [7 l7 e. J7 D8 o" R/ y' o1 h( B
Stream size : 29.3 KiB (0%)
# z' v; b& \/ P0 A1 w# J  ELanguage : Dutch
" o. O' V# M$ Y, w8 N: w, JDefault : No/ d: Z& d* J. Y5 i5 d
Forced : No
- a; R9 S) r& a* w* w
/ b9 O  A7 m  v

' c8 T, p6 W% ]& G) e1 R; TText #16- B9 l6 @9 k0 `' c5 j; N0 `
ID : 181 Y3 X( |* I) V8 L/ b
Format : UTF-8
5 o4 G' M* V' R) y* xCodec ID : S_TEXT/UTF8. ^* ]+ F, e2 [- Z' w5 i0 y4 f
Codec ID/Info : UTF-8 Plain Text
! L# A( r7 t8 g/ m' I5 K" _# qDuration : 46 min 45 s
% s5 N3 J( a; Z  pBit rate : 105 b/s; ^% i) x, k- M) O: f7 j7 [
Count of elements : 858
. Z8 [8 F' _( U1 e- q2 }Stream size : 36.3 KiB (0%)) Y% m: U+ E$ c, ]1 J( k6 E; f( f
Language : Norwegian: g1 t  T1 e0 f) \/ n! J! F
Default : No
3 W# t" J& E+ W/ X6 ]( mForced : No
; e# z; q4 O  \4 Q6 J" E! P) C# ^0 b  \, ?9 ]9 L0 \
1 b# Q; C( z& J5 u8 n7 `
Text #17
2 W1 {6 ]- @6 g: u# q0 dID : 19/ d. i5 P$ Q* E4 @. I
Format : UTF-8
. U$ @) _- X; [/ N5 CCodec ID : S_TEXT/UTF8, {% _! _/ f+ I6 {
Codec ID/Info : UTF-8 Plain Text% t1 q5 J; Z( @: I; `- }+ z
Duration : 46 min 45 s. h- v# Q+ p/ i* s- B
Bit rate : 109 b/s; c/ c! g- c- ^. B3 Q
Count of elements : 8554 \& D+ C0 U" y2 F$ u
Stream size : 37.5 KiB (0%)
8 L' M: J. J5 ~% F$ S' L4 ULanguage : Polish
) A% P& A) r7 J' `- k" vDefault : No8 t- R& J$ h% }
Forced : No# Y4 F* F! O. A4 c7 M1 Z

$ y. b% `& `% a- e

1 L5 e5 ^" K: o" M* H1 g5 y, gText #18
! u; G; z. y: D7 }+ c0 @5 w. kID : 20
5 _& W8 p  J$ [: b( Y; j3 z6 c( UFormat : UTF-8
2 P7 C5 j& x: xCodec ID : S_TEXT/UTF87 J* D4 J: L2 o0 E; r
Codec ID/Info : UTF-8 Plain Text
/ g$ J$ H; M& J+ W3 b  aDuration : 46 min 45 s
! U/ e0 h4 O) f/ `; i$ IBit rate : 113 b/s* R6 C5 U1 e6 N4 V+ }2 K: p
Count of elements : 853- r! f4 }, v# K; O
Stream size : 38.8 KiB (0%)
8 b. ?; J! C4 h# ~( T) R1 H6 t7 NTitle : Português (Brasil)4 C. q( M* |: y1 i' l3 c! I
Language : Portuguese
+ q( F; ~4 q- m: lDefault : No
9 X4 A1 F6 z7 q; y# W% Z9 |8 hForced : No
' c. H3 _: V3 {. T" |% n7 q! ]( }1 T" T" F( b2 ~

" b( ]( i/ G! y1 \9 V, xText #19
, ^/ W4 ]2 a9 v8 r/ ^, F% X0 AID : 218 w) c, S  h% O/ \* b# A
Format : UTF-8
; ~8 W* u9 s. e) u% J) [Codec ID : S_TEXT/UTF8
& {% j7 K4 H  s1 X2 t' s, KCodec ID/Info : UTF-8 Plain Text
1 z# \8 X+ d' p, n  |Duration : 46 min 45 s
8 G# L2 f, f, a" fBit rate : 104 b/s
" }# n2 f4 i/ N' f# R$ R- ^* \Count of elements : 855
* u8 J% K1 _" I' k& b, EStream size : 35.7 KiB (0%)8 n' k, S% e) c5 v* E1 @
Title : Português
# W- z/ `; A3 z) B! T( HLanguage : Portuguese
9 g/ W3 p" V/ R4 n! H( v, e+ cDefault : No
- d+ j# S5 X5 [  G2 GForced : No
1 a2 l+ N- v% T! R+ y5 ]9 c: x2 v! f( `

3 r% b4 C$ |- X6 |; |1 i2 eText #200 s  Y/ _7 [9 I% n: g* y4 |
ID : 228 T( y- Z' s0 d
Format : UTF-8
" C5 Z( Y  h- u4 S$ [" }( s2 _/ _8 UCodec ID : S_TEXT/UTF8
5 Q0 y: a6 W  E5 p8 i8 A! B: LCodec ID/Info : UTF-8 Plain Text/ L4 j4 V( l0 g- j
Duration : 46 min 45 s
/ |, {& s) G8 b+ v( z, U7 L3 rBit rate : 112 b/s# g! c8 F  ~- a* @' l% m
Count of elements : 857
- Q& Y0 W3 r, x* G3 `! OStream size : 38.5 KiB (0%)8 J+ f5 g; _' b+ V2 f
Language : Romanian$ e! N, u, f# Y) `2 o! s
Default : No6 ~4 W. W7 T* X' z; V$ ~1 c$ U6 t
Forced : No
2 o8 }( T6 R0 e* r( t# X# \, q9 U1 M. ?$ |: ~

  x. {! P8 Q: O3 T) c! e; s2 XText #21
  y" w( l) r& t3 `' ?) `5 }1 k# S6 hID : 23
9 g4 N; D0 i) R$ n" HFormat : UTF-87 A( E( H2 t8 Z& l' p  k+ k6 m; q
Codec ID : S_TEXT/UTF8
  n) n/ m7 u: S2 J5 vCodec ID/Info : UTF-8 Plain Text6 Q6 @& a' j8 f1 Q5 P" |" s2 ^) r# R
Duration : 46 min 45 s. n5 ~1 |* [3 q  O3 d1 k
Bit rate : 108 b/s
/ \& C1 U  l% |5 P6 YCount of elements : 853
4 T. x. V5 w* ZStream size : 37.2 KiB (0%)0 i9 r. u0 R; L
Language : Slovak) f: ?- l* o" Z- T$ F9 S
Default : No
' ^( H! T& Z. g5 k6 Q! p0 z0 ~Forced : No. ^6 x' g3 M+ E
) ?/ A2 D, F6 k% |( W% \

0 q! s; ?# a3 p: K, z& N8 u$ c. XText #22  B" o/ j6 m+ h# ]5 `# i
ID : 24
8 i- A( ]2 R% P4 I0 t3 ^; H5 e2 FFormat : UTF-8
# L: p9 G( t" t6 \, L# q6 vCodec ID : S_TEXT/UTF8
, N0 ]- |' g( {0 g" B) ~: D( }) VCodec ID/Info : UTF-8 Plain Text
( w, f) T' s8 G3 E; j, RDuration : 46 min 45 s
2 l6 \& W% Q/ c- a, B' b  \/ jBit rate : 107 b/s
$ t' b0 E1 s! _9 uCount of elements : 852
# r' [3 _: x$ X% p$ f; x4 NStream size : 36.8 KiB (0%)
8 {5 R7 K/ b9 B2 T/ uLanguage : Swedish. w  |0 f; A5 D- a- A( w9 [
Default : No
# v# [, f2 ^, z( M  x. zForced : No
( u, o+ l: C/ R+ Z' P$ m9 S- y- b4 H/ N( f: N$ H

4 i: a, O' D0 ^% E; oText #23
- T( `) B- L5 b8 j$ v6 F1 BID : 25+ B/ w, [7 d7 h
Format : UTF-8( C- g+ @+ X5 E, j! I
Codec ID : S_TEXT/UTF8
' ]* z: Y" K, r# u6 f% H1 @2 z5 i0 wCodec ID/Info : UTF-8 Plain Text
) C- @' i$ b, v6 R6 F, lDuration : 46 min 45 s
+ j, c. X0 Y" k5 BBit rate : 86 b/s9 p# t9 h/ j8 W: }4 M
Count of elements : 857
3 ^8 R" P/ ~2 K6 D- HStream size : 29.7 KiB (0%)# K7 L$ L& i9 j0 ^; ~
Title : Chinese (Hong Kong)0 D4 ]. @0 D+ X* k1 y
Language : Chinese
' a, I+ W% D+ q9 VDefault : No) H% [. N4 _& w
Forced : No
1 D+ s- P/ ~0 w5 L/ J  ^6 W9 h) C
! D- a- z3 a3 w! D3 ?& S* k5 i

4 Q* U8 X2 a1 l+ qText #24
; }/ r7 w# V6 E/ p& V9 SID : 263 {8 [7 {; V# g$ R3 e
Format : UTF-8/ [# T0 s  P7 y- Y
Codec ID : S_TEXT/UTF8* D. F/ E7 Q5 \+ E) d& Q+ [; F  K
Codec ID/Info : UTF-8 Plain Text, m4 O1 ?" [2 r, v
Duration : 46 min 45 s
) r1 D5 C, k0 W. y5 \6 q' gBit rate : 92 b/s! r2 V# E) y! L) e- I
Count of elements : 858; o. [" D  W& A! ]
Stream size : 31.6 KiB (0%)# Z2 T' s. _8 ^; ~9 Q0 ]3 G* ^
Title : Chinese (Simplified)
( h) j" U3 d, iLanguage : Chinese1 ?4 H& g+ a- @6 d3 S& T
Default : No! y) L& H4 }+ P, o/ M
Forced : No
% n; f* y8 e( A; J0 t: p8 V5 n( o! O- {  v7 X' L
& z: u! \! e7 C" W; q/ t
Text #25! L! w" r4 X4 i- n
ID : 27' q% f+ a% s. V& h( d# q
Format : UTF-8
5 ^5 h$ a, {( TCodec ID : S_TEXT/UTF8
" B, [. o. h0 E6 V2 _; @( oCodec ID/Info : UTF-8 Plain Text
* T3 O8 h% I( {Duration : 46 min 45 s
  |& t: R6 G9 }4 B. LBit rate : 86 b/s! B) o- {8 X9 B( I- |7 H% b' Z! F
Count of elements : 858+ a  s3 h3 h# u# q; y* j$ y) A- `& m
Stream size : 29.5 KiB (0%)
& g' Q+ I  M' x8 C' nTitle : Chinese (Traditional)" ^: V# Y7 x1 v( ~. K
Language : Chinese
" E% _1 {1 H" p: s/ E, P7 ^Default : No1 }" m/ L# A4 m$ C8 Q" \$ F
Forced : No

8 i$ d2 ]  m- s5 {4 x. j  D* w  A: N4 e5 d. q! a! K% ]

3 V& c9 k4 m5 R% {' V
8 I, }4 Y6 x( m9 M/ m, }, U2 {: m拥抱熊猫:青春变形记幕后/拥抱小熊猫:青春变形记背后的故事4k.Embrace.the.Panda.Making.Turning.Red.2022.2160p.DSNP.WEB-DL.x265.10bit.HDR.DDP5.1-4k电影下载( \% b* w0 b7 W' Z' I3 g

$ [3 W8 h  I% I  a! ^+ X) B. r拥抱小熊猫:青春变形记背后的故事4k.Embrace.the.Panda.Making.Turning.Red.2022.2160p.DSNP.WEB-DL.x265.10bit.HDR.DDP5.1自带简繁中字【4k HDR 5.42 GB】
+ \" e% j& R( n9 D
2 P, ?  L' g- G. x
, i& }* [6 i5 G1 i拥抱小熊猫:青春变形记背后的故事4k.Embrace.the.Panda.Making.Turning.Red.2022.2160p.DSNP.WEB-DL.DDP5.1.DV.MP4.x265自带简繁中字【4k 杜比视界5.48 GB】6 }8 o+ R) P; E8 f* q: V& O& p# C2 d
+ C& E- I: P! ]5 v' d) J3 C

' F! _6 \, S1 D: ~9 B! U' ]拥抱小熊猫:青春变形记背后的故事4k.Embrace.the.Panda.Making.Turning.Red.2022.2160p.DSNP.WEB-DL.DDP5.1.DV.MKV.x265自带简繁中字【4k 杜比视界 5.48GB】
0 l, m6 J# J1 F" ]0 t( v3 I0 b
' w5 `! _. K6 J& u! R
8 X) x9 I8 d' s4 N, J

( V3 y! l+ Q7 ^& W/ o5 E/ A( i; y, f/ X% m- q
, i5 M- m; q  `2 u
登录 发布 快速回复 返回顶部 返回列表