开启辅助访问
 找回密码
 立即注册

露西尔与戴斯4k.Lucy.and.Desi.2022.2160p.AMZN.WEB-DL.x265.10bit.HDR10Plus.DDP5.1-4k电影—10.77 GB

#4k记录视频#时间:2023-04-28 阅读:138 回复:0
112330vbefajlbfyv0tilj.png.jpg 1 w/ I7 K  G+ [9 w! i
# l% ]7 Q3 _5 h; I+ y1 Q  G
简       介

% q1 b* [: b3 s& x
5 R5 L  M( A4 ~, r3 z3 d5 l+ o  艾米·波勒将执导纪录长片[露西尔与戴斯](Lucy & Desi,暂译,工作名)。[海豚湾]编剧马克·蒙雷操刀剧本。该片讲述知名喜剧演员露西尔·鲍尔与丈夫戴斯·阿纳兹之间的个人生活与职业合作。露西尔·鲍尔是美国著名的喜剧演员,在她的一生中,她一直活跃在电影、电视、舞台、电台等各种媒体上,成为了美国文化一个时代的象征。她与戴斯·阿纳兹于1940年结婚,1960年离婚,育有两个孩子。
. E8 K( `, V& v9 o7 ?; m
, \" ~+ |* B* O5 R& h/ j& R0 G1 h6 g/ m
9 [; y5 b5 L9 _1 l1 N
影片参数3 g7 [8 i' R. J' O- M
露西尔与戴斯4k.Lucy.and.Desi.2022.2160p.AMZN.WEB-DL.x265.10bit.HDR10Plus.DDP5.1-信息
) A, p9 G2 J/ |1 P* vVideo' V* ]/ E' ~  ?% J5 k2 Q7 j( [
ID : 1& i; d! G$ T2 h2 A+ Q. E
Format : HEVC3 Q3 q7 x0 ~+ m* y! F
Format/Info : High Efficiency Video Coding; Z  t6 L) f/ O7 ?+ l6 f+ b
Format profile : Main 10@L5@Main
* X7 z1 C* |. b. {. ?4 kHDR format : SMPTE ST 2094 App 4, Version 1, HDR10+ Profile B compatible+ j+ |+ _6 T9 S" @( V0 |% J* g
Codec ID : V_MPEGH/ISO/HEVC
+ J8 S$ K! n8 |- g. uDuration : 1 h 42 min
6 o' D: b5 p3 G, C/ ]% o0 uBit rate : 14.1 Mb/s
4 v8 H9 ~" i1 u, sWidth : 3 840 pixels$ `; O3 O8 c( R" G0 G8 I
Height : 2 160 pixels. r" y) o/ M. k* {
Display aspect ratio : 16:9( ]( ~, b- M: V: @  M- D8 K/ J3 ^
Frame rate mode : Constant; Z& j$ b$ T; `, ?% E- }
Frame rate : 23.976 (24000/1001) FPS" D# m4 I1 K! E5 \% ]7 A$ w
Color space : YUV0 I1 w9 d$ N" ~& ?( p3 C) \
Chroma subsampling : 4:2:0
1 g  u0 x, L6 ?7 yBit depth : 10 bits* ~6 w1 c6 @: K
Bits/(Pixel*Frame) : 0.071
) M& S6 D" [# x$ k* BStream size : 10.1 GiB (94%)7 l+ g- @5 u5 _& `
Default : Yes* P- ?# J& m+ y, p
Forced : No0 G! K( U% h9 ]" |0 S) t
Color range : Limited4 B# x+ u% v# n' ?0 `
Color primaries : BT.20202 w3 h1 J7 o; ?0 t: h! u
Transfer characteristics : PQ  Z, h4 T7 h& t2 Q- P" m
Matrix coefficients : BT.2020 non-constant5 O( X2 ~2 Q$ T  _) W
Mastering display color primaries : Display P3
! O+ }# x/ b2 l( JMastering display luminance : min: 0.0001 cd/m2, max: 1000 cd/m2
6 B7 A2 B% z. pMaximum Content Light Level : 1027 cd/m2  }, _: o( T1 K2 Y5 w
Maximum Frame-Average Light Level : 155 cd/m2
/ {9 V! X$ d/ p1 x8 i
/ ]# K% w& d4 U; d! s0 p
& b5 n4 a' q. ^5 [% v& S
Audio: j1 S. ?% S) W2 g$ f  d$ a# j$ J
ID : 2
5 i# ?8 S6 T5 Y: f9 I- KFormat : E-AC-30 t8 v: T& E/ w% Z
Format/Info : Enhanced AC-34 k" C, q3 m) p! {+ t. N! g; @% Q5 W
Commercial name : Dolby Digital Plus
$ ?0 S0 Q' F+ {. X4 P, ?1 {Codec ID : A_EAC3
" B1 O$ V) L- S7 k* wDuration : 1 h 42 min
9 _/ r! u' |/ DBit rate mode : Constant
9 q* T' i7 G8 jBit rate : 640 kb/s
: F8 Z& t* u- s- |Channel(s) : 6 channels
4 r" T+ [: d" u2 m  ]8 k) t# G1 x6 w+ lChannel layout : L R C LFE Ls Rs7 \: t4 Q2 i( G; {7 ]4 e
Sampling rate : 48.0 kHz
. q; f1 {1 H6 CFrame rate : 31.250 FPS (1536 SPF)) D" T/ e9 q$ f, l
Compression mode : Lossy
' u: x' h7 x# R0 YStream size : 471 MiB (4%)
' D1 ^* b( ]4 b, N; h. W- y) q5 I1 WLanguage : English0 O+ m% v7 ]/ q0 u! Y+ w
Service kind : Complete Main- s. J0 r2 U# p/ U1 @
Default : Yes4 x8 h9 [; y! a, L) l& D5 _
Forced : No
7 k; |, K" L) k) P1 {6 ]8 C4 ]" v# y% u" U6 L
. K2 j; {7 c9 \: r/ }' A7 R
Text #1/ p, f6 l3 U( e% k& t' E
ID : 3
' ~) `3 L$ q& B- M7 tFormat : UTF-8
3 w$ {2 ]- P% d( NCodec ID : S_TEXT/UTF8
* x8 b  P/ Y  p0 ?: C. {3 KCodec ID/Info : UTF-8 Plain Text1 {' p2 u# v. P' L" v: u
Title : English [Forced]
4 \$ H; h8 g* d/ F: Y3 c7 Q! SLanguage : English
7 j: v2 d$ f- t; V, W; vDefault : Yes
9 g0 \/ {; b  KForced : Yes3 r0 C- V9 f6 ?6 w

8 Y) e, k& \7 e1 g, c3 Q$ p
/ M3 o3 G- _/ k
Text #2  s0 _9 a' ~; \5 K, R7 |
ID : 4) B1 e$ s; E: w( Z
Format : UTF-8
% _/ x/ [: K# b  ~6 {$ qCodec ID : S_TEXT/UTF8
7 ?% l, g: ?4 N: A$ u7 K- l7 Z0 bCodec ID/Info : UTF-8 Plain Text
. [. n& A1 ]: B: V& oTitle : English4 K& H8 u% e; p; J2 d
Language : English, o% ?( [$ g# N+ U9 O  z4 q  Y
Default : No$ i" x4 K( ]9 G. w
Forced : No0 B$ c) B7 H' |  S. Z: \& J1 _2 w

# n+ Q  q8 \3 T, w$ g

5 Y6 H3 N1 z  L2 UText #38 y$ E2 W1 H/ }/ I$ C
ID : 5, J' V& j' t8 I3 ]. D
Format : UTF-8
( d/ ^* F( J, \1 P) u* K+ h; aCodec ID : S_TEXT/UTF8
. o( d2 X4 z9 H* L  Z9 vCodec ID/Info : UTF-8 Plain Text
9 N8 F, p# U4 b8 |3 _7 Y; U7 nTitle : Arabic& y: q& {7 |% B
Language : Arabic9 P  G: J' ?! ?: m
Default : No' Y& L" R; K( G0 z
Forced : No. K' M* V( E' r6 z  F& V

6 F' j7 V" H/ ~# i0 u3 Q
0 _+ G0 m! D# C3 l
Text #4+ L, D: e3 ^) I! E) @
ID : 6+ \" k; M6 N4 X( k: h* n
Format : UTF-8
: ]# C) f9 j# nCodec ID : S_TEXT/UTF8; w- h3 b  ^& J
Codec ID/Info : UTF-8 Plain Text2 J5 c9 x' b( t  v
Title : Chinese Simplified
+ E0 q# J- d5 v4 N$ |. ALanguage : Chinese: _; ~4 |- t9 J
Default : No
, q1 ^8 P4 R  B5 ?6 ?* k$ ~7 ]" j! {Forced : No
# A! b! r; H6 h! m$ P$ o. g7 F! T, ?

) s% ~4 B8 S9 W2 B- S" oText #5$ a$ s% I7 f2 \+ p
ID : 7
: O$ |+ |2 |, s; TFormat : UTF-8
1 f( G1 y! a- G* k! c. q. g! g1 _Codec ID : S_TEXT/UTF8
( \; z& O, s, H, t7 XCodec ID/Info : UTF-8 Plain Text
9 H  }( `4 {9 S1 J9 GTitle : Chinese Traditional1 W* l1 Q5 E. z  X* F* _
Language : Chinese/ H3 R$ w: `# |1 I% Q- o
Default : No8 h; Z6 v2 Y6 D: }. [: E
Forced : No) Z; q! b- {  F$ ~0 i
* _7 E2 `% S# D! @

  y! ~2 I1 }1 [6 I  TText #6* W4 J: C: P; j+ C6 S6 Y. A
ID : 88 r' l0 z/ U' X6 q0 {
Format : UTF-8
6 P/ j; T# X1 n* F& C! N0 g/ ~Codec ID : S_TEXT/UTF8& D% ]) {+ v4 g5 {" D& C% L+ p
Codec ID/Info : UTF-8 Plain Text
5 c" I3 Y9 v) S4 z% T' gTitle : Czech (Czechia)
" U6 v  E; {# d- }Language : Czech
% ^7 A- ?6 Y' f: i8 fDefault : No
: w+ K6 {6 l, V* h3 A' v% ]3 [Forced : No$ d3 ?  g. A4 U" p: Q* b9 O& C
6 {6 }! O4 [6 i* T) E% k
  M) l5 L+ [' [7 {) v2 v
Text #7
# H9 O4 t8 S' t+ b7 B! C" HID : 9
6 _# j( y( e5 ]$ g/ cFormat : UTF-8
" E2 Z/ F( T! r) {: g& r- @+ KCodec ID : S_TEXT/UTF87 U/ ^% `& O, \1 T( }7 B& w) x. M
Codec ID/Info : UTF-8 Plain Text
; ~% h( |9 e. L6 Z* B" XTitle : Danish
, A/ ?; U$ G# _. aLanguage : Danish
# L/ o4 ?. w; cDefault : No1 V, p! X. ~  E7 L/ a
Forced : No! |- V5 V9 c( `/ g7 N4 n" R3 O: z. W

6 _& Y/ j  N  W% O

5 A* C) W8 W0 U* n( nText #8& f% u' ^( ?$ ]' }& N  Q* c
ID : 10
5 m! C# ^* P- F' i7 o: A; gFormat : UTF-8
2 @5 w, t# j# A2 u% U- BCodec ID : S_TEXT/UTF83 N2 q1 n$ @  Y1 {
Codec ID/Info : UTF-8 Plain Text
; y+ t4 P  f1 r0 [; dTitle : Dutch
+ _/ K: p4 p4 {9 t6 E1 D3 D* j1 {1 B' XLanguage : Dutch
7 L/ N* s# w: {: v% Q1 @Default : No
0 P8 E" B$ {+ a  v7 i4 q" UForced : No
1 {! I; f2 v& i  O9 b; ]) x- L
, T  ]; [0 |3 y# x+ Z
9 {+ s% J. l! p8 h1 ?/ E2 p

/ r0 [9 C- u) \1 h6 a% R7 U2 N露西尔与戴斯4k.Lucy.and.Desi.2022.2160p.AMZN.WEB-DL.x265.10bit.HDR10Plus.DDP5.1-4k电影下载
. P$ D/ e* ?0 d7 R% c8 W7 o: r+ O* {$ Z& D6 _- w2 C- |* t+ k
露西尔与戴斯4k.Lucy.and.Desi.2022.2160p.AMZN.WEB-DL.x265.10bit.HDR10Plus.DDP5.1【自带简繁中字】【10.77 GB】
# O# M) ?9 g# m; v  P2 X/ Y: P3 N: v- H: V+ @8 P; ]
, b  L1 i' s& w. p& _

$ g5 u# A. w: w+ g: t" T4 D8 l6 e, M- _$ C8 I
5 |+ I2 L+ T( q! ~$ q( [1 {
登录 发布 快速回复 返回顶部 返回列表