开启辅助访问
 找回密码
 立即注册

火花计划:发现创新的火种 4k.A.Spark.Story.2021.2160p.WEB-DL.x265.8bit.SDR.DDP5.1-4k电影—11.84 GB

#4k记录视频#时间:2023-04-28 阅读:254 回复:0
112345tucrupzh3uuu68c8.png.jpg 8 j, G# z/ t5 ~
+ B4 P8 ^3 k1 R( X9 e
简       介

% }3 ^4 E) d' [5 b- L; l
' _; C2 L' s, ]! U# Z  遵循皮克斯的 SparkShorts 电影制作过程,特别是 Corbin 和 Gonzales 的过程,在他们将个人愿景带到银幕时提供亲密的外观。
" N7 d  h" \+ {6 _7 E8 x* _! A( ]% }' G7 w2 b

, E8 W; c2 B( p影片参数
& L% l1 f8 p' r% Z0 P% L9 _
皮克斯:创作火花的幕后直击(台) / 闪烁背后的故事(港)/火花计划:发现创新的火种4k.A.Spark.Story.2021.2160p.WEB-DL.x265.8bit.SDR.DDP5.1-信息
) e7 C" q2 ^+ U& G1 ~Video
  n" W; R- V9 F) c5 z0 B! x& Q/ KID : 1. N3 y9 u* M' y" y- ?% g) ^
Format : HEVC+ o8 B$ |: U7 s5 `( c" y
Format/Info : High Efficiency Video Coding& R- y  @8 a0 r' n! u
Format profile : Main@L5@High
1 A* d0 i* F) ^Codec ID : V_MPEGH/ISO/HEVC
* q* s8 a- a  h5 q! ?4 CDuration : 1 h 26 min; e7 ^4 N# p0 U4 g; a0 E; |  m
Bit rate : 19.2 Mb/s
& j* z0 V# W/ |0 J0 L( S! CWidth : 3 840 pixels( Q0 Y1 n1 y# k, B
Height : 2 160 pixels9 e% r0 F+ [4 r7 b/ X8 P) D' J$ f
Display aspect ratio : 16:93 V) b7 h% m! R3 i0 O! y. D$ L
Frame rate mode : Constant
- y8 q! x' i  r; Y# oFrame rate : 23.976 (24000/1001) FPS
- u) ]3 Z, `, Y. u- @9 y; eColor space : YUV
4 p9 B. K  `4 W3 I9 y. x* YChroma subsampling : 4:2:0
' u6 P5 e# B0 A$ u' t$ Y' D- a5 CBit depth : 8 bits
% o. _* k# H% |2 e7 ABits/(Pixel*Frame) : 0.097. A/ [: `8 Z. R( E/ D( ^; k& Q5 l
Stream size : 11.7 GiB (99%)
/ _$ q+ V% h' m# S; B$ fWriting library : x265 3.5:[Linux][GCC 7.5.0][64 bit] 8bit+10bit+12bit& }1 h! |, _2 _$ F. c
Encoding settings : cpuid=1111039 / frame-threads=1 / wpp / no-pmode / no-pme / no-psnr / no-ssim / log-level=2 / input-csp=1 / input-res=3840x2160 / interlace=0 / total-frames=0 / level-idc=50 / high-tier=1 / uhd-bd=0 / ref=2 / no-allow-non-conformance / repeat-headers / annexb / no-aud / no-hrd / info / hash=0 / no-temporal-layers / no-open-gop / min-keyint=48 / keyint=48 / gop-lookahead=0 / bframes=4 / b-adapt=0 / b-pyramid / bframe-bias=0 / rc-lookahead=48 / lookahead-slices=8 / scenecut=0 / hist-scenecut=0 / radl=0 / no-splice / no-intra-refresh / ctu=32 / min-cu-size=8 / no-rect / no-amp / max-tu-size=16 / tu-inter-depth=2 / tu-intra-depth=2 / limit-tu=0 / rdoq-level=1 / dynamic-rd=0.00 / no-ssim-rd / signhide / no-tskip / nr-intra=0 / nr-inter=0 / no-constrained-intra / no-strong-intra-smoothing / max-merge=3 / limit-refs=1 / no-limit-modes / me=1 / subme=2 / merange=44 / temporal-mvp / no-frame-dup / no-hme / weightp / no-weightb / no-analyze-src-pics / deblock=0:0 / no-sao / no-sao-non-deblock / rd=4 / selective-sao=0 / early-skip / rskip / no-fast-intra / no-tskip-fast / no-cu-lossless / b-intra / no-splitrd-skip / rdpenalty=1 / psy-rd=1.60 / psy-rdoq=5.00 / no-rd-refine / no-lossless / cbqpoffs=0 / crqpoffs=0 / rc=abr / bitrate=20000 / qcomp=0.75 / qpstep=4 / stats-write=0 / stats-read=0 / vbv-maxrate=24000 / vbv-bufsize=40000 / vbv-init=0.9 / ipratio=1.40 / pbratio=1.30 / aq-mode=3 / aq-strength=1.00 / no-cutree / zone-count=0 / no-strict-cbr / qg-size=32 / no-rc-grain / qpmax=69 / qpmin=0 / no-const-vbv / sar=1 / overscan=0 / videoformat=5 / range=0 / colorprim=1 / transfer=1 / colormatrix=1 / chromaloc=0 / display-window=0 / cll=0,0 / min-luma=0 / max-luma=255 / log2-max-poc-lsb=8 / vui-timing-info / vui-hrd-info / slices=1 / no-opt-qp-pps / no-opt-ref-list-length-pps / no-multi-pass-opt-rps / scenecut-bias=0.00 / hist-threshold=0.01 / no-opt-cu-delta-qp / no-aq-motion / no-hdr10 / no-hdr10-opt / no-dhdr10-opt / no-idr-recovery-sei / analysis-reuse-level=0 / analysis-save-reuse-level=0 / analysis-load-reuse-level=0 / scale-factor=0 / refine-intra=0 / refine-inter=0 / refine-mv=1 / refine-ctu-distortion=0 / no-limit-sao / ctu-info=0 / no-lowpass-dct / refine-analysis-type=0 / copy-pic=1 / max-ausize-factor=1.0 / no-dynamic-refine / no-single-sei / no-hevc-aq / no-svt / no-field / qp-adaptation-range=1.00 / no-scenecut-aware-qpconformance-window-offsets / right=0 / bottom=0
* Z  u& s) a$ ADefault : No5 w: F/ C/ q( }* L" E/ v5 d- k
Forced : No2 G8 F% p! D7 n# |
Color range : Limited" \, ~$ x5 Q# @- ~1 B" `5 S
Color primaries : BT.709# |# s3 e8 ?/ z% @5 a7 N! A2 E$ _
Transfer characteristics : BT.709; a5 q8 w% Q* C% e
Matrix coefficients : BT.709
( R0 @+ `/ u/ K" @  Q' l% V5 f% l& b4 ]1 D- \
+ Z# V  C$ j. F5 A2 s
Audio
3 {& U" O0 `9 x. U4 h( q; N$ Y- _ID : 2
# Q" g1 w; a/ G' M5 |Format : E-AC-3
/ r! p  {0 R, d% _' N. B. E$ B' jFormat/Info : Enhanced AC-35 U4 ?7 H3 a- X3 e; ~2 c. l
Commercial name : Dolby Digital Plus
( C+ t) V# D9 ^" ICodec ID : A_EAC3- ^2 G$ i6 ]1 Z7 w4 W
Duration : 1 h 26 min
8 h, v  D- D. o6 l! t( i! T+ g! ^Bit rate mode : Constant9 W; {. D! L& }' f3 M
Bit rate : 256 kb/s% Y6 M4 P( x$ [8 {& r$ E1 X
Channel(s) : 6 channels
+ D& r% K4 q2 {" v; A8 y1 ]Channel layout : L R C LFE Ls Rs
+ t' N) W0 x% rSampling rate : 48.0 kHz
" c9 e0 e- C0 f" j0 O& GFrame rate : 31.250 FPS (1536 SPF)
: [- E; p$ k1 i+ w; aCompression mode : Lossy
: {! l: G# A$ _  e. KDelay relative to video : 3 s 3 ms8 }/ n5 g: s8 B6 v) v6 B1 X
Stream size : 159 MiB (1%)
% ]5 P5 y7 ^! [7 D) Y1 q0 t+ uLanguage : English
7 a1 |+ ~* e! n' j! ^* c$ qService kind : Complete Main: u: n" z' K" l% ?. O7 k2 Y; n
Default : Yes
5 l; U: M" K3 O, _* L+ K8 @Forced : No; z( E( T" y5 [7 K; y2 K
3 R1 s2 S; e3 p& A* b
- E! Y' i% W" \1 P( Q9 K% }" D
Text #1
4 @$ U& K1 E& j; jID : 3
% n: Z5 x# k# c9 [' kFormat : UTF-86 [3 b% d7 ~6 Z6 x! ?
Codec ID : S_TEXT/UTF8
" A1 G: j0 Z+ V+ `$ c8 _Codec ID/Info : UTF-8 Plain Text
8 }2 r5 v1 u3 B& |Duration : 1 h 22 min
! I9 J1 b# @" N$ MBit rate : 124 b/s
, ?' n/ G! r2 t* E, BCount of elements : 1394
9 q: O, z! E! B! m: D) ?% }! o4 RStream size : 75.7 KiB (0%)
6 h5 P$ `0 E" {9 v: rLanguage : English6 \' R9 M- A; ^* m
Default : No* E$ ]9 {! _9 i
Forced : No
3 W; Q7 J  s) V) [  [
- [, r; b) W  J
) m! c. }% \, z' |4 y
Text #2
- e- T% z7 Z) m! E  b! XID : 4
* Q  N  m9 j. X; S. p8 }/ N$ EFormat : UTF-8( Z$ L. n: L& D; i
Codec ID : S_TEXT/UTF8
, o0 v3 M: b$ O. a0 d1 \. O' r, X5 d: OCodec ID/Info : UTF-8 Plain Text
( f. a3 Q. g( [% n, W# ^6 zDuration : 1 h 22 min
5 z8 ^) k4 u4 g) d* zBit rate : 127 b/s
3 ^+ c: S( s& v, ]( j, o) {1 PCount of elements : 1422
0 [% E( M* u+ q3 n+ H9 hStream size : 77.5 KiB (0%)
8 s3 f* t( u( ~9 n, TTitle : SDH9 Y0 N1 a6 B+ ]$ r% |% v
Language : English/ A1 B' Y$ P+ o5 _6 e
Default : No
% _8 g7 A7 o' sForced : No# {6 z7 @  L% t0 X' q, X
( E" v3 T1 ?7 |- z
: G5 [: \! ^* b7 F% @
Text #3
& C7 z. ^6 J! w5 JID : 5
' N. e" [( p2 {* |, w% Z8 \2 eFormat : UTF-8
" p# W% I: K. J; @' c  \' }2 OCodec ID : S_TEXT/UTF8
& V1 x: O  h' DCodec ID/Info : UTF-8 Plain Text) C2 ?4 O4 K" W0 M+ n
Duration : 1 h 26 min# K& O' R8 n# m) ]9 X% u8 |; W
Bit rate : 109 b/s; {( T- K* b5 r# u
Count of elements : 12588 b" I! `5 t* X8 ?
Stream size : 69.3 KiB (0%)
8 z$ f7 p* f: `" GLanguage : Danish
; j0 Y2 g2 x) m1 z( {8 b. [Default : No
- N9 U/ e4 `6 t# i  r( r4 xForced : No8 A/ O3 o' k) \% S7 P

) C7 J+ u' f; @; `
: Z: ?4 }6 \7 ^6 w" g/ |0 b
Text #4
9 k1 ]. e3 S; nID : 6
4 c  ?7 r5 d* uFormat : UTF-8
/ t4 T0 A: h. S4 e" f, tCodec ID : S_TEXT/UTF83 Y( x* O7 i) Y3 N7 w  N
Codec ID/Info : UTF-8 Plain Text
  H" @- i' }6 m! `8 D7 qDuration : 1 h 26 min
% f( n. z, I2 n( p& M- fBit rate : 105 b/s: W+ l/ O) n: k) W1 `+ Y6 `: _
Count of elements : 1417
; X% G3 Y) z' Q+ HStream size : 66.9 KiB (0%), ?$ m/ U1 g6 M' r
Language : German' d6 X  _7 r) r2 p3 R  i: o2 U" }
Default : No7 `4 z- s& r" ?/ x0 x6 J* [
Forced : No. |2 L% I! E# T2 c) d1 @

& P/ D% C6 M' i' v! d0 `

6 v0 {7 L! ~& |3 u5 vText #51 p( y0 W0 K) Y$ _7 u7 Q' F
ID : 7& l9 m5 j9 m( Y
Format : UTF-8
$ Z6 K2 k. H5 i6 RCodec ID : S_TEXT/UTF8) D1 |1 h% G7 ~* w- X; \
Codec ID/Info : UTF-8 Plain Text$ P6 u7 K+ O+ k2 l
Duration : 1 h 26 min6 g- x4 h  z) k
Bit rate : 110 b/s0 F5 N6 ]" @% ~; e( D" T; J
Count of elements : 1449
* C- ^6 |# G  K$ lStream size : 70.2 KiB (0%)( ?" m: i3 G8 E8 W7 e+ _
Title : Latin American/ L* e$ p4 p! G" r
Language : Spanish
8 E5 ]5 s, [  f  ?% o( I9 EDefault : No: h8 c/ K/ `- m4 C3 r% k: c
Forced : No6 G2 K6 t# J# b

+ j8 H) S# _" d

/ ]/ H4 q: m% M  bText #6
. S5 A7 w4 Y" L  e7 \: x' xID : 8$ e9 L: s. h$ W" ?9 H( u( ~
Format : UTF-8
/ x. t8 D+ d6 c  PCodec ID : S_TEXT/UTF8  a, F8 v* M9 h( C2 j2 v$ ?
Codec ID/Info : UTF-8 Plain Text
: S7 X8 Z' w  K: S! TDuration : 1 h 26 min
7 I! E3 O8 N) s7 R/ g( U* xBit rate : 110 b/s5 w1 C' X* d" Z9 L
Count of elements : 1459
6 `' y; Y3 y0 s8 y( sStream size : 70.1 KiB (0%)' V' }. I3 ?! B1 Q! @' }& e
Language : Spanish4 c8 m$ a; n4 M6 k5 o6 x" V+ z
Default : No0 P3 b7 q% i& O9 \; L
Forced : No
- k  \/ O9 V& m
; }" v) L9 N! H/ j

3 v, M% u) b, [! N+ U) wText #7
$ M) N/ A7 I# [2 R- k/ T; BID : 9
8 F1 J2 s; h# V: a' [Format : UTF-81 H3 l+ O4 b: h# l$ Z1 {: |- i  _4 `
Codec ID : S_TEXT/UTF8
) N8 I; N+ ~9 dCodec ID/Info : UTF-8 Plain Text: V5 O! u3 _5 z$ v7 P7 l/ V
Duration : 1 h 26 min" m6 \& }* Y$ X4 s4 W
Bit rate : 91 b/s" _' J. _* F5 Y9 A3 c6 z; U
Count of elements : 1449
" f* ~5 E& G! Y3 |) m2 NStream size : 57.6 KiB (0%)
" ~* Z( Q' e- Y* g3 U1 wLanguage : Finnish
* G8 e, E9 _& w4 V' P% ]0 }Default : No" d; h8 `# r: ~4 F
Forced : No
7 A, k# R6 z/ q- U. E4 J* h" t
' Q) s0 o$ b7 R& R. v
/ C. b' y# n2 c, `" `
Text #8
$ j/ Z5 V+ G( e( `5 J& mID : 10
0 Z8 ]3 a8 H. p  MFormat : UTF-8
% U& B6 S" G6 V3 g0 \0 c' aCodec ID : S_TEXT/UTF8; @) @. y" Z: X( H$ N
Codec ID/Info : UTF-8 Plain Text
/ P! U. g; j5 z6 y& u. f' X$ d, @Duration : 1 h 26 min( v$ y/ R* k0 \& j6 c( a
Bit rate : 99 b/s0 z( x; N  r7 J* j" t" i! K( D  a
Count of elements : 1340- S5 r0 H6 s" v$ o7 P; V# y( y
Stream size : 62.8 KiB (0%)
% p! l; F+ O$ ELanguage : French
6 N# g, K% x& }2 @* `+ g6 GDefault : No
3 U# Q2 k* r9 e4 n6 E% z& \; _! vForced : No5 t5 ~, V" h5 H7 l0 @( F

9 l5 c4 _1 p, g% K
% `4 o: w: b. @  B$ X/ W
Text #98 F7 [) @. W$ v+ @
ID : 116 Q$ m/ U5 C* B/ t; ~% Q9 C
Format : UTF-8: F* D2 Z2 V( P/ M
Codec ID : S_TEXT/UTF8
( W0 k5 v+ v0 h5 z; S) F2 ZCodec ID/Info : UTF-8 Plain Text# H6 x2 @# E! D/ v
Duration : 1 h 26 min
' I' p  }* _- s8 VBit rate : 112 b/s
: d6 y0 X8 X1 h' y$ i8 VCount of elements : 1443
3 N. N# r8 n- t% N( A0 }! rStream size : 70.8 KiB (0%)
# ~4 p# ~) B) Z2 t0 ULanguage : Italian: \) u4 I$ d2 v3 w
Default : No( J0 \8 u4 Z4 N) N! W1 c- G
Forced : No: F( E# ^. f2 H

: H" K) v- e$ x- M) Q6 W/ N) y! `

7 ]7 F5 j6 t! z+ [1 aText #10% p7 M9 l6 U( `  J+ h6 T
ID : 12
9 P9 e9 y0 w' }; s: v" ]4 @Format : UTF-8
3 R! W/ e' }4 e& I& TCodec ID : S_TEXT/UTF8
) Y& P, W9 ~, \' nCodec ID/Info : UTF-8 Plain Text% Q. K! a" [' Y7 Y
Duration : 1 h 26 min
! b' }$ h! b7 U  m0 c' W. J2 C# eBit rate : 84 b/s2 c) j- H5 P# i2 W* x
Count of elements : 1134
1 k' ?9 S) _' E4 u( {- HStream size : 53.3 KiB (0%)
0 j/ r) S2 J( ]  ILanguage : Japanese
) m- s) C0 I! H( h4 f- gDefault : No
2 Z+ v( ?+ p+ G7 SForced : No  A7 L  \% b( X

1 M5 n# x! S# p

, ^; f/ l; J1 X  E% JText #11" z/ c/ ~* G8 U* Y
ID : 13. w2 r) Q0 S3 ?' A7 x! |
Format : UTF-8
3 ]& r2 ]; c& _3 w* P7 g9 {5 MCodec ID : S_TEXT/UTF8
7 `* g1 r9 U: J( g2 P  `2 ]' [Codec ID/Info : UTF-8 Plain Text
' U% A$ Q# y/ TDuration : 1 h 26 min
3 n% e' K8 w1 m4 HBit rate : 115 b/s" c( |7 g( s, Q7 \
Count of elements : 14885 m+ H5 a' F! o' j
Stream size : 73.1 KiB (0%)
0 f  e' K" R! z, f& h0 kLanguage : Korean
0 n, `! ^) W4 `Default : No
+ `- U6 y; y& LForced : No
8 `: Q" n3 `. Y; b. {. t; _7 l) X0 y; V, |0 d

( q" [: M9 c* Y) UText #12
/ U4 x' s- j0 |  |1 s- l  qID : 14
9 G4 u) V. d8 X# A% C: ?+ ^Format : UTF-8
1 h% D* [$ |& OCodec ID : S_TEXT/UTF8# v, g: ~# d: G$ O. C
Codec ID/Info : UTF-8 Plain Text" t8 J! J. E; L% Y+ y  P' J2 y5 ~
Duration : 1 h 26 min- ?& a+ b! ]( c9 ?3 u; D. Z. a
Bit rate : 78 b/s% h' ~7 c1 x  ~& @( ^: x
Count of elements : 1123
0 ]! w+ b& q: x: G2 V8 k" O' tStream size : 49.5 KiB (0%)3 U: N0 ]+ s6 _& A
Language : Dutch
* G) \4 G4 K. q' o2 ODefault : No$ Y9 \( |) r4 J, V& O3 c* v
Forced : No) ~% C0 N  x( U) A. j* ]

+ E, \2 V) Q4 R! b8 q

, {4 W8 v" ^  @* h) K7 P: }7 S/ aText #13
# a9 d+ h# m. o' y# d8 r. `/ XID : 158 v4 R2 U6 F3 S; u9 g. t6 B6 ~; m
Format : UTF-8
4 f5 p: w" {" |9 `, u+ x1 VCodec ID : S_TEXT/UTF8
* b8 b- Z. h# k) mCodec ID/Info : UTF-8 Plain Text: G; |" Z, P1 g3 w9 ?* ]
Duration : 1 h 26 min5 O6 M% {- I# o  Z4 Q- ?$ J
Bit rate : 106 b/s3 i- ^1 z1 K# U( u# E) |
Count of elements : 1444
' O- a7 j1 S, \& m9 {# gStream size : 67.2 KiB (0%)
! m+ n: w$ g# t6 VLanguage : Norwegian+ C" G( P' _2 i8 N
Default : No
) B+ y9 J4 g0 J; E( v9 ~0 GForced : No
3 G" Z* N! A1 `, S0 B7 C- g8 z: X% W4 I% L2 L
! }: [8 j, |6 D: W* O+ y! e
Text #14+ A5 @4 Z# N- k& J1 b5 O
ID : 161 ]& x- s# U3 ^& T, j4 y: {
Format : UTF-8
! k2 @4 {# ^! z1 TCodec ID : S_TEXT/UTF8# N4 |8 d  E! i- N7 E
Codec ID/Info : UTF-8 Plain Text$ z" z4 D, Y; Z% B+ `: [" E& j
Duration : 1 h 26 min
( |) T2 c$ x+ }( {9 O* b) RBit rate : 103 b/s- q! j8 ^8 J- C! N. s" k3 O
Count of elements : 14634 q4 G5 J: M2 p  z: [1 X% Z
Stream size : 65.4 KiB (0%)
  i! ?7 I8 K3 d0 s& l: ZLanguage : Polish+ ~8 Z. ]: Z+ ^' E+ c! C$ D9 ]& c7 ~# R
Default : No. E/ a! h. T9 {  Y! R4 S
Forced : No; q9 B- `) E2 C6 K

9 f& o9 C; |9 P, o' b+ y2 F

! l; r: {' v9 W3 C- c$ o$ cText #15
' O+ ]7 q7 r) R' N. }ID : 17
* I' `; H- ]1 M& U) s- I2 FFormat : UTF-8
8 P+ D) e' w0 o+ p3 O* S; CCodec ID : S_TEXT/UTF8
1 b; N4 F9 v- n, _Codec ID/Info : UTF-8 Plain Text0 g$ U  ?  B, W3 E7 }7 x: y# N! k
Duration : 1 h 26 min" W5 J8 m4 b8 P: f: W: ~! ]
Bit rate : 117 b/s
  ]$ G) j7 V5 s) FCount of elements : 1461
, c) Y# ]" Q. `3 c* IStream size : 74.3 KiB (0%)& z6 ^4 A: V* q1 Q7 \
Title : Brazilian7 Q( E" J3 n. s: L7 V
Language : Portuguese" `( R' e3 D4 g8 }3 I$ P9 y
Default : No1 `7 M8 j, v; Y
Forced : No' V0 z5 i6 z! n5 I) x- `
8 j5 G: ~- c' T+ X! C. R8 H' O5 a) Y

: L. d( j2 {: x% aText #16
6 ~; p7 Y! L5 O; _$ o6 ~8 cID : 18/ {" n9 R. V% _
Format : UTF-8
# h5 o2 v+ k$ D4 u' L  a/ N1 {; c( DCodec ID : S_TEXT/UTF8* T3 k, @) ?2 y2 g5 w& w
Codec ID/Info : UTF-8 Plain Text
( R" I; ~0 l/ j$ G+ J+ DDuration : 1 h 26 min; s% j. \- u' A/ M% o
Bit rate : 109 b/s2 G  C' E8 M# o8 k8 i; [% @! A5 T
Count of elements : 1456& w7 e+ d" Y# y7 w1 {6 ?) I% w7 D
Stream size : 68.9 KiB (0%)
+ ?: U) Q. @5 ]2 f- bLanguage : Portuguese
$ f) I& h" J" f" k5 R% kDefault : No
/ I( _2 w" L" `! |Forced : No
  i% Q4 ]8 ^+ w( j3 O( w! \* n/ |, n: B7 x, j
8 J" l9 [8 _' b
Text #17
5 G$ i. t1 X7 y4 y+ B( HID : 19
+ a& e: e3 H0 m" o+ S2 H, LFormat : UTF-8' p9 R. y1 D" v( b9 w! ]+ O5 M
Codec ID : S_TEXT/UTF8
* p- Y3 C. G, dCodec ID/Info : UTF-8 Plain Text
+ ]- a) @' N* sDuration : 1 h 26 min
& r! j+ n. u3 L1 D& j7 UBit rate : 98 b/s% ?. f' h* _) d9 m+ w
Count of elements : 1447
$ I  X- C; e0 \/ g' xStream size : 62.3 KiB (0%)3 W" C# W" T% t3 t6 }
Language : Swedish; g7 f4 n3 b$ p, ?) s# f
Default : No
4 _3 O8 h8 C- l0 z0 fForced : No
# `$ w6 l& ^- a4 Z, F+ \# B0 j% w5 c/ F8 Y4 k! g' o% `( f

& ]2 Y1 p9 E* o" m- }' b4 s" \% B$ W; _$ cText #188 X, _3 ]0 s4 {; t! N8 O# M! A
ID : 20
# m& L# Z& z% i1 k) T' E( }Format : UTF-8
+ L- g) u; Q/ k( ~Codec ID : S_TEXT/UTF83 N1 Z; [- J" b7 o8 k% ~& U
Codec ID/Info : UTF-8 Plain Text
* k$ @  @) U( B$ fDuration : 1 h 26 min
! C% L3 U" k# A5 @6 P% KBit rate : 85 b/s
( }: {5 o& W+ G4 U- vCount of elements : 1484
2 z% w' y1 b$ s3 VStream size : 54.4 KiB (0%)# M( I: ]7 Z- P0 [" J2 ]4 S
Title : Cantonese
- M. z# h) U$ p1 w: j) BLanguage : Chinese8 G; N8 [( g( U, V
Default : No2 o2 F/ h) M  u' P$ r* ]% Y+ b) i; v
Forced : No
( z. r  ^0 f# f
! |- u$ F2 m4 A7 @5 z- R9 Y" v
+ q1 ?. R/ w# {, d. ~. O
Text #19
6 B( J* m& s; F* [3 Z1 sID : 21% O& g' I3 `4 j
Format : UTF-8/ Z# j' X) `/ k/ V
Codec ID : S_TEXT/UTF8
( f" X  A4 g' u* o- R$ BCodec ID/Info : UTF-8 Plain Text+ O$ N9 E, E2 P/ v
Duration : 1 h 26 min
' d3 P/ P/ L0 b* [" yBit rate : 88 b/s( T# I. C$ q1 c+ O) U
Count of elements : 1480
5 c4 z. e- F* L1 zStream size : 55.6 KiB (0%)/ D0 u1 v" g0 _& L- d
Title : Simplified1 c8 k. Y. P2 B- x" p! C
Language : Chinese
  r8 z  O+ E$ c8 LDefault : No
0 X2 R  Q4 O% |6 zForced : No
% m- u+ }) ~8 m  E1 m  e2 [6 A  }9 i, v2 m% e, ^9 d' @
' P; X' A/ Q" V
Text #20
8 E$ T' f) n' M/ BID : 22- B6 D9 v8 e, l" ]; U
Format : UTF-8) ?; _$ G. T& G+ v* m6 }
Codec ID : S_TEXT/UTF8* p. _, Y' l5 K) q, i& M0 N
Codec ID/Info : UTF-8 Plain Text
# `3 ^! U/ y6 A! K# W& z. K9 y- |$ FDuration : 1 h 26 min
+ b7 s; B! C+ Q9 GBit rate : 85 b/s
, \! }+ N1 Z- ~: jCount of elements : 1486$ `. ~$ Z+ ^- X+ }6 @
Stream size : 54.2 KiB (0%)( w5 G, m; u9 `) \0 a4 a3 w4 F
Title : Traditional* d- u1 D( f2 {9 D
Language : Chinese
1 o7 N- ?- D# D$ XDefault : No, {1 k. p0 U6 L" D% y9 Y1 f. L
Forced : No

+ N( R, l: ^) _( y, Q2 Y: E5 _' d6 Z5 O0 R4 z

2 f1 D/ O/ {6 q( @4 }7 s7 C8 a皮克斯:创作火花的幕后直击(台) / 闪烁背后的故事(港)/火花计划:发现创新的火种4k.A.Spark.Story.2021.2160p.WEB-DL.x265.8bit.SDR.DDP5.1-4k电影下载【自带中字】
; I: d) `* w$ O/ f3 B% x" O  P2 A2 j1 j: V
火花计划:发现创新的火种4k.A.Spark.Story.2021.2160p.WEB-DL.x265.8bit.SDR.DDP5.1【4k SDR 11.84 GB】5 M, W: n( K* [1 t* A

$ S9 [0 A. }- V7 {" k' `% [
( O( G* v, K$ m. T火花计划:发现创新的火种4k.A.Spark.Story.2021.2160p.WEB-DL.DDP5.1.DV.MP4.x265【4k 杜比视界 12.88 GB】& [* X. U9 N- h" Q
0 Y3 P) q8 r0 n" o2 O, }

5 n2 J0 x6 `9 j4 |& w火花计划:发现创新的火种4k.A.Spark.Story.2021.2160p.WEB-DL.DDP5.1.DV.MKV.x265【4k 杜比视界 12.88 GB】
% D3 f. ]3 ]! F( M+ b/ e  h
+ o: U# Y" a# W% T
" F/ \7 X$ v3 \8 k1 \  w" Y3 D8 f8 |
+ a0 Q) B2 @$ C+ Y7 z
" M$ l$ q' Z& C0 f5 e( N( g; q( E/ y- d  V; N- O3 w4 c! `8 r6 W
登录 发布 快速回复 返回顶部 返回列表