开启辅助访问
 找回密码
 立即注册

带上你的队伍4k.Bring.Your.Own.Brigade.2021.2160p.WEB.h265-4k电影—8.14 GB

#4k记录视频#时间:2023-04-28 阅读:207 回复:0
112358jaapk86z3to23d38.png.jpg
, \/ L! \7 R. O1 o* u) Q! ]
0 Z, E7 Y% H" f( Z; K简       介
; I; x3 Y( X) i, e' K0 ?
! G/ F! p" z7 g2 f# p$ a
  以人物为导向的真实性和启示性调查将我们带入了一段与消防员和居民一起执行的任务,以了解历史上大型野火的原因以及如何在其中幸存下来,并发现解决方案一直存在。0 z8 e5 F+ E) I& U/ _
# N6 F' u1 {( U/ D6 a
' B& y, J! _7 I+ ^( O& _4 _
影片参数: l! ?+ u( f! T
带上你的队伍4k.Bring.Your.Own.Brigade.2021.2160p.WEB.h265-信息
* e4 T! W$ a, B; x/ m- L5 e" mVideo. K+ M! Q  D0 M% E
ID : 1; r' a  B7 b0 c8 R: M
Format : HEVC
* {- F7 H* n. ]$ FFormat/Info : High Efficiency Video Coding# w: `0 W' d) h/ p
Format profile : Main@L5@Main1 o0 W: G  {" ^
Codec ID : V_MPEGH/ISO/HEVC
4 t* g9 J: E0 `' |+ O3 \3 U1 FDuration : 2 h 0 min7 H! L* B7 j) o  @9 R& {, s
Bit rate : 9 319 kb/s. M/ v0 x1 C  |4 G! F: J; g- c
Width : 3 840 pixels
- x5 a0 |% A! N! t7 A' y& IHeight : 2 160 pixels
3 S' ^$ \3 ?5 L2 lDisplay aspect ratio : 16:9: `; A6 K' `3 K9 V# M! U
Frame rate mode : Constant
, D. d8 j( X* u) R4 |+ z- R4 RFrame rate : 23.976 (24000/1001) FPS
# m, u  v# j4 A4 P% t) nColor space : YUV5 P+ f- z8 H" c
Chroma subsampling : 4:2:0+ a; p" R- u9 q
Bit depth : 8 bits
" P% a/ Y* {" wBits/(Pixel*Frame) : 0.047
, X$ }. F* w" I- D1 {Stream size : 7.82 GiB (96%)- f3 J/ \0 t4 A9 {
Writing library : x265 3.5+1-f0c1022b6:[Linux][GCC 9.3.0][64 bit] 8bit
  ]* B# M! ~4 o6 O7 U( J* ]Encoding settings : cpuid=1111039 / frame-threads=3 / wpp / no-pmode / no-pme / no-psnr / no-ssim / log-level=2 / input-csp=1 / input-res=3840x2160 / interlace=0 / total-frames=0 / level-idc=0 / high-tier=1 / uhd-bd=0 / ref=4 / no-allow-non-conformance / repeat-headers / annexb / no-aud / no-eob / no-eos / no-hrd / info / hash=0 / no-temporal-layers / open-gop / min-keyint=48 / keyint=48 / gop-lookahead=0 / bframes=4 / b-adapt=2 / b-pyramid / bframe-bias=0 / rc-lookahead=25 / lookahead-slices=4 / scenecut=0 / hist-scenecut=0 / radl=0 / no-splice / no-intra-refresh / ctu=64 / min-cu-size=8 / rect / no-amp / max-tu-size=32 / tu-inter-depth=1 / tu-intra-depth=1 / limit-tu=0 / rdoq-level=2 / dynamic-rd=0.00 / no-ssim-rd / signhide / no-tskip / nr-intra=0 / nr-inter=0 / no-constrained-intra / strong-intra-smoothing / max-merge=3 / limit-refs=3 / limit-modes / me=3 / subme=3 / merange=57 / temporal-mvp / no-frame-dup / no-hme / weightp / no-weightb / no-analyze-src-pics / deblock=0:0 / sao / no-sao-non-deblock / rd=4 / selective-sao=4 / no-early-skip / rskip / no-fast-intra / no-tskip-fast / no-cu-lossless / no-b-intra / no-splitrd-skip / rdpenalty=0 / psy-rd=2.00 / psy-rdoq=1.00 / no-rd-refine / no-lossless / cbqpoffs=0 / crqpoffs=0 / rc=abr / bitrate=9505 / qcomp=0.60 / qpstep=4 / stats-write=0 / stats-read=2 / cplxblur=20.0 / qblur=0.5 / vbv-maxrate=11406 / vbv-bufsize=9505 / vbv-init=0.8 / min-vbv-fullness=50.0 / max-vbv-fullness=80.0 / ipratio=1.40 / pbratio=1.30 / aq-mode=2 / aq-strength=1.00 / cutree / zone-count=0 / no-strict-cbr / qg-size=32 / no-rc-grain / qpmax=69 / qpmin=0 / no-const-vbv / sar=1 / overscan=0 / videoformat=5 / range=0 / colorprim=2 / transfer=2 / colormatrix=1 / chromaloc=0 / display-window=0 / cll=0,0 / min-luma=0 / max-luma=255 / log2-max-poc-lsb=8 / vui-timing-info / vui-hrd-info / slices=1 / no-opt-qp-pps / no-opt-ref-list-length-pps / no-multi-pass-opt-rps / scenecut-bias=0.05 / hist-threshold=0.03 / no-opt-cu-delta-qp / no-aq-motion / no-hdr10 / no-hdr10-opt / no-dhdr10-opt / no-idr-recovery-sei / analysis-reuse-level=0 / analysis-save-reuse-level=0 / analysis-load-reuse-level=0 / scale-factor=0 / refine-intra=0 / refine-inter=0 / refine-mv=1 / refine-ctu-distortion=0 / no-limit-sao / ctu-info=0 / no-lowpass-dct / refine-analysis-type=0 / copy-pic=1 / max-ausize-factor=1.0 / no-dynamic-refine / no-single-sei / no-hevc-aq / no-svt / no-field / qp-adaptation-range=1.00 / scenecut-aware-qp=0conformance-window-offsets / right=0 / bottom=0 / decoder-max-rate=0 / no-vbv-live-multi-pass5 m$ `5 s' _7 z  `, D0 d
Language : English' I+ i. L# j/ Y- B! ]% L5 N# T: O
Default : Yes) w* P" U& z- W
Forced : No
9 y" N% k3 r/ b8 \% Y8 lColor range : Limited* K1 y1 g$ R6 @
Matrix coefficients : BT.709) f$ G- n" d# ?+ R6 ]
/ n4 H, i; q( {& B4 w  ~& q
4 ~' N. O2 P" c. D9 Q- b; o" B
Audio' x0 O. v1 [& g8 V6 N6 W& S
ID : 2
/ c2 y5 j: |8 |5 }Format : AC-3
1 @: s; ?) t+ C1 y7 ^: HFormat/Info : Audio Coding 3: D4 ~. L+ p- g3 n$ f  P
Commercial name : Dolby Digital% g1 R! S2 Z3 c, V" e7 A
Codec ID : A_AC3/ y0 M9 T: q" O7 a# M
Duration : 2 h 0 min
3 Y: T$ w+ k4 v9 }4 [Bit rate mode : Constant) f* a" m2 R$ d1 E
Bit rate : 384 kb/s- s% Q+ m* {  Z3 B! f: t
Channel(s) : 6 channels- u' a1 _6 m% V. C3 U
Channel layout : L R C LFE Ls Rs
! B( c7 H- h5 v* I9 }- PSampling rate : 48.0 kHz  P) y. {# D1 J! P: n1 q
Frame rate : 31.250 FPS (1536 SPF)' R$ W9 a* e4 W' ~( Y7 z
Compression mode : Lossy
# |: H, r3 ~, D6 kStream size : 330 MiB (4%)8 {4 u' v4 F7 x1 ^$ x+ `5 e6 D: M
Title : English# d" }" U9 }) W) p
Language : English  c" {  v5 _  O8 X4 d0 o6 F$ k3 q
Service kind : Complete Main% ]$ [( |+ M  X$ a5 [2 r
Default : Yes4 q8 ^9 V$ v' O; ~# W7 W% D
Forced : No
: q# K. L8 K7 X* p. F  j
& d$ D  ^1 x# w/ w$ I+ N$ R6 ^

/ d% X$ Q8 @- n! B& R6 P7 }* ]$ z2 \Text! @+ b' I9 H; a. y
ID : 3
" \8 ~" G4 o! b2 K' u" HFormat : UTF-8
. M3 A8 `$ a. k- {Codec ID : S_TEXT/UTF8+ U3 B; L) @& S& o* d& N# p* n
Codec ID/Info : UTF-8 Plain Text
1 |1 ?/ [+ v3 G' T, A3 K" E5 P9 \Duration : 1 h 59 min
- y  s2 G1 s5 s3 CBit rate : 101 b/s8 a. m/ y4 r8 I7 ^4 L+ ~
Count of elements : 2294* u6 d( J7 E, l$ ~6 E/ e0 K* P
Stream size : 88.7 KiB (0%)* ]5 w: u& i3 R- \/ \
Title : English (SDH)" a7 _/ S7 o, I/ P5 v7 L
Language : English" U) `* `6 Y( {1 G  K* ]& ]! U
Default : No& a. C( D. {$ L; G, G, E" W7 J
Forced : No

, h( g! A* O* I1 B. [
* n/ ?: D1 R+ W7 ]5 W9 C$ l4 V' G6 k  D$ H, ?

2 x$ N4 U" N; T9 i. a: `带上你的队伍4k.Bring.Your.Own.Brigade.2021.2160p.WEB.h265-4k电影下载
( }) V; n" ~1 A) s3 X; A! ^' T) ]7 ]( U# M
带上你的队伍4k.Bring.Your.Own.Brigade.2021.2160p.WEB.h265【8.14 GB】
  ?" U+ a3 M2 X) H; w8 ^3 E  V7 q! o& ^! @7 i0 E$ T1 \
5 N  i, J" g% g5 T1 _5 ]; O

( Y- X+ @! k6 B5 s) z: C! B& T1 N* S. R# R1 s* C& s

8 q: \, H: E/ P9 B2 w2 N- V
登录 发布 快速回复 返回顶部 返回列表