开启辅助访问
 找回密码
 立即注册

Love.Tom.2022.2160p.WEB.H265纪录片—3.68 GB

#4k记录视频#时间:2023-04-28 阅读:186 回复:0
112425rtfoulgl5k9l8ozo.png.jpg
% q& B4 j6 E8 T1 u$ L) L# M$ ^+ y1 d$ {/ s+ o" E) U# f* d
简       介
! F5 D/ E' _  L% L

0 W, S  w) a4 W3 F) c  根据道格拉斯在 2014 年纳什维尔词曲作者名人堂的获奖感言,他分享了个人轶事作为他最著名歌曲的背景故事。
" A) e! T' l) E; p3 D8 S- S* `+ r$ K- r/ B$ ?: S

6 D( l  [5 P  A# F  q影片参数
/ L0 @  u/ j% s6 h" J. v( a5 D+ D
Love.Tom.2022.2160p.WEB.H265纪录片信息$ F& J# W" G/ R5 ]( W9 [6 R2 @: `
Video/ i* Z1 u- g2 k; X
ID : 1
2 o; L( z- e. y' u  R4 Q! a0 EFormat : HEVC
2 ~0 w% @- A1 p: b2 O4 ~3 WFormat/Info : High Efficiency Video Coding
% p; m1 u4 }0 b& v  cFormat profile : Main@L5@Main8 o' x$ n. H) i7 r* A1 c
Codec ID : V_MPEGH/ISO/HEVC
5 d/ G0 b+ Y3 |7 G  K$ L. ODuration : 56 min 5 s
' K8 S. k) A4 o: G6 R1 `& ]- e) FBit rate : 9 017 kb/s
- a' s# V6 B4 n' IWidth : 3 840 pixels
2 I7 y% w; G7 c. I, c/ V% R# p# sHeight : 2 160 pixels/ U, {, u) R! Z8 p  t! e3 Z8 y
Display aspect ratio : 16:97 y. B5 i( w2 j  n) |
Frame rate mode : Constant4 B" B  k9 w6 c% _* T  y0 D9 w( [
Frame rate : 23.976 (24000/1001) FPS
3 A& ^0 B0 J- C; S4 U# a' E7 zColor space : YUV0 |+ E8 Q! ?0 e* f, P! r% G. l
Chroma subsampling : 4:2:0
& X8 E0 E3 X& w- [( @- }/ ]Bit depth : 8 bits& w" a+ r4 {( ^& i& u9 Z  D
Bits/(Pixel*Frame) : 0.045
  A+ @$ S5 O4 v6 e- {Stream size : 3.53 GiB (96%)1 Q" T8 }7 |' f5 Q; B  `
Writing library : x265 3.5+1-f0c1022b6:[Linux][GCC 9.3.0][64 bit] 8bit, ]% p- R. a1 P6 X8 X
Encoding settings : cpuid=1111039 / frame-threads=3 / wpp / no-pmode / no-pme / no-psnr / no-ssim / log-level=2 / input-csp=1 / input-res=3840x2160 / interlace=0 / total-frames=0 / level-idc=0 / high-tier=1 / uhd-bd=0 / ref=4 / no-allow-non-conformance / repeat-headers / annexb / no-aud / no-eob / no-eos / no-hrd / info / hash=0 / no-temporal-layers / open-gop / min-keyint=48 / keyint=48 / gop-lookahead=0 / bframes=4 / b-adapt=2 / b-pyramid / bframe-bias=0 / rc-lookahead=25 / lookahead-slices=4 / scenecut=0 / no-hist-scenecut / radl=0 / no-splice / no-intra-refresh / ctu=64 / min-cu-size=8 / rect / no-amp / max-tu-size=32 / tu-inter-depth=1 / tu-intra-depth=1 / limit-tu=0 / rdoq-level=2 / dynamic-rd=0.00 / no-ssim-rd / signhide / no-tskip / nr-intra=0 / nr-inter=0 / no-constrained-intra / strong-intra-smoothing / max-merge=3 / limit-refs=3 / limit-modes / me=3 / subme=3 / merange=57 / temporal-mvp / no-frame-dup / no-hme / weightp / no-weightb / no-analyze-src-pics / deblock=0:0 / sao / no-sao-non-deblock / rd=4 / selective-sao=4 / no-early-skip / rskip / no-fast-intra / no-tskip-fast / no-cu-lossless / no-b-intra / no-splitrd-skip / rdpenalty=0 / psy-rd=2.00 / psy-rdoq=1.00 / no-rd-refine / no-lossless / cbqpoffs=0 / crqpoffs=0 / rc=abr / bitrate=9505 / qcomp=0.60 / qpstep=4 / stats-write=0 / stats-read=2 / cplxblur=20.0 / qblur=0.5 / vbv-maxrate=11406 / vbv-bufsize=9505 / vbv-init=0.8 / min-vbv-fullness=50.0 / max-vbv-fullness=80.0 / ipratio=1.40 / pbratio=1.30 / aq-mode=2 / aq-strength=1.00 / cutree / zone-count=0 / no-strict-cbr / qg-size=32 / no-rc-grain / qpmax=69 / qpmin=0 / no-const-vbv / sar=1 / overscan=0 / videoformat=5 / range=0 / colorprim=1 / transfer=1 / colormatrix=1 / chromaloc=0 / display-window=0 / cll=0,0 / min-luma=0 / max-luma=255 / log2-max-poc-lsb=8 / vui-timing-info / vui-hrd-info / slices=1 / no-opt-qp-pps / no-opt-ref-list-length-pps / no-multi-pass-opt-rps / scenecut-bias=0.05 / hist-threshold=0.03 / no-opt-cu-delta-qp / no-aq-motion / no-hdr10 / no-hdr10-opt / no-dhdr10-opt / no-idr-recovery-sei / analysis-reuse-level=0 / analysis-save-reuse-level=0 / analysis-load-reuse-level=0 / scale-factor=0 / refine-intra=0 / refine-inter=0 / refine-mv=1 / refine-ctu-distortion=0 / no-limit-sao / ctu-info=0 / no-lowpass-dct / refine-analysis-type=0 / copy-pic=1 / max-ausize-factor=1.0 / no-dynamic-refine / no-single-sei / no-hevc-aq / no-svt / no-field / qp-adaptation-range=1.00 / scenecut-aware-qp=0conformance-window-offsets / right=0 / bottom=0 / decoder-max-rate=0 / no-vbv-live-multi-pass. V5 [4 }! h- l) \2 `  h6 v5 p( z
Default : Yes1 F# ]6 R0 g8 X' ]8 H
Forced : No/ l5 j% P3 P0 }* }1 D( g6 j' ]
Color range : Limited
# ]; R7 T- `& P# i% YColor primaries : BT.709
. Q- X7 g7 j) O2 {+ M- sTransfer characteristics : BT.709  O. ]7 A1 l; n8 h* ]$ C
Matrix coefficients : BT.709( _; @" ~2 r& v4 n. s2 q, ~

" K- S$ U! g- R, F2 \
! ]: q$ ^7 P: u- s( B# L& R
Audio) n  ^; X: w6 u+ A
ID : 2
) y) v2 B$ x4 CFormat : E-AC-3
# R' k" {+ t$ [4 ~" E5 lFormat/Info : Enhanced AC-37 `( u, \" f# F* J2 O) Q9 N" x
Commercial name : Dolby Digital Plus
5 M1 p# w, M9 y; A: c8 CCodec ID : A_EAC3" W# J3 ~- G% U2 M8 t5 g# i
Duration : 56 min 5 s% T) q9 B6 J+ a. u9 J
Bit rate mode : Constant
. H3 ^# u7 K3 d5 Y) T' FBit rate : 192 kb/s
& e$ O5 y; k# \6 E) cChannel(s) : 6 channels/ N" g5 O/ r  i+ i
Channel layout : L R C LFE Ls Rs
/ z; O% @! S/ j$ dSampling rate : 48.0 kHz
0 @" K( S, K2 v* Z; S( D8 tFrame rate : 31.250 FPS (1536 SPF)- U6 a- _: V- B
Compression mode : Lossy
6 Q$ c" G; K/ N) ]5 V$ tStream size : 77.0 MiB (2%)1 u$ P* q# }1 j' i% |4 q
Language : English" N4 a% `7 {( G
Service kind : Complete Main
4 E' P$ Y" z1 o7 cDefault : Yes( N' M) T' e7 P# K& ?' P
Forced : No
5 X3 K! q9 H* v+ k0 u  a& C; D5 j6 Y

" p/ i6 z2 B. Z" EText/ s3 t& \+ e, R$ I) H0 L
ID : 3
, j- q; e) E- dFormat : UTF-86 s' R# a9 _3 [: b' Q5 Z4 ?5 f
Codec ID : S_TEXT/UTF8
/ G6 I9 k/ B! n2 Q! qCodec ID/Info : UTF-8 Plain Text
9 u2 V# ^/ b+ C0 F6 eTitle : English3 O3 F7 {' c0 n% n' B/ T& Z
Language : English9 m( Y% w3 i5 \  d- n2 E) d
Default : No9 {$ W; ~. N. X: n% K* z. W' `
Forced : No
! }+ a; @9 q; |# l* @5 ^

+ c8 V1 }0 j7 `! z/ n# ]) j2 z9 W; C5 D% r
) P: u# _4 d  m& ]  M# |3 X/ d4 [; L/ N

' M/ r7 z, H1 f6 ZLove.Tom.2022.2160p.WEB.H265纪录片下载- F& g9 _5 m9 `$ l0 `( H& q

- c. L4 c; {# m& KLove.Tom.2022.2160p.WEB.H265【3.68 GB】
; C$ ?3 X/ \: _+ H* O% T/ i" P0 E2 a+ x7 l# `, \6 {
' o0 |1 ?- T- t5 o$ `  i+ d" a

6 P8 ^6 t3 m+ T) q( S' B+ \- Z( K* L$ i; p7 U; K
5 Y6 }: _+ y- l* g- R* E
登录 发布 快速回复 返回顶部 返回列表