开启辅助访问
 找回密码
 立即注册

哈利·波特20周年:回到霍格沃茨 Harry.Potter.20th.Anniversary.Return.to.Hogwarts.2022.2160p.HMAX.WEB-DL.x265.10bit.HDR.DDP5.1-4k电影 13.10GB

#4k记录视频#时间:2023-04-28 阅读:140 回复:0
112438mulp2sys1g12gptd.png.jpg 2 h- \; F% Q( S# p
) z) D' z4 L4 Z( Z  S
简  介

$ m: k% ?9 g5 ]# a5 V! h
, p. _  f" ^* w9 L& B  “哈利波特”电影全系列的演职员在一场特别的回顾活动中重逢,庆祝第一部电影的周年纪念,其中包括采访和演员对话。
4 B; A; [! z- C; ]9 u3 G( F
8 [! i  C1 t: T' }7 N$ f影片参数- O4 l7 ?+ N; H
Video) n1 B+ S3 |1 r# p; A- C# e
ID                                       : 15 y* ^* L0 a, h& U, i' Z
Format                                   : HEVC
- {  l, T" G: H, c+ w. ]Format/Info                              : High Efficiency Video Coding+ [* E% q. c: a6 v6 @
Format profile                           : Main [email protected]@Main
2 ]+ ]+ k  ]# r/ {+ Z4 ?' qHDR format                               : SMPTE ST 2086, HDR10 compatible. d- m! |8 ~) b2 @: U
Codec ID                                 : V_MPEGH/ISO/HEVC
/ Z0 N9 h0 s9 D: s) VDuration                                 : 1 h 42 min
2 G( K" b% _+ J7 k9 |Bit rate                                 : 17.8 Mb/s
' b* l/ Y3 a6 |3 k) F+ ]Width                                    : 3 840 pixels! y, ~1 n8 p; p, |
Height                                   : 2 160 pixels3 c  T, p: h: W4 `, K4 Q
Display aspect ratio                     : 16:9
: r5 g( {( P, r1 A0 lFrame rate mode                          : Constant, R  f9 l' o$ x) `
Frame rate                               : 23.976 (24000/1001/189150) FPS
3 Q3 Y3 X( d7 a7 I% QColor space                              : YUV
* h0 ?0 D& j9 [8 UChroma subsampling                       : 4:2:0( X) l# A9 q/ R6 y( X/ f
Bit depth                                : 10 bits
" I6 |: D" f  C9 UBits/(Pixel*Frame)                       : 0.090
/ N, V, O2 [' o( ^/ QStream size                              : 12.8 GiB (98%)
4 _: l+ h( l6 v1 V! L& n$ gWriting library                          : x265 3.4hy:[Linux][GCC 7.5.0][64 bit] 10bit
# l7 ?( O+ Q% Q- n- Y! SEncoding settings                        : cpuid=1111039 / frame-threads=1 / wpp / no-pmode / no-pme / no-psnr / no-ssim / log-level=2 / input-csp=1 / input-res=3840x2160 / interlace=0 / total-frames=0 / level-idc=0 / high-tier=1 / uhd-bd=0 / ref=4 / no-allow-non-conformance / repeat-headers / annexb / no-aud / no-hrd / info / hash=0 / no-temporal-layers / no-open-gop / min-keyint=96 / keyint=96 / gop-lookahead=0 / bframes=3 / b-adapt=2 / b-pyramid / bframe-bias=0 / rc-lookahead=25 / lookahead-slices=4 / scenecut=40 / hist-scenecut=0 / radl=0 / no-splice / no-intra-refresh / ctu=64 / min-cu-size=8 / rect / no-amp / max-tu-size=32 / tu-inter-depth=1 / tu-intra-depth=1 / limit-tu=0 / rdoq-level=2 / dynamic-rd=0.00 / no-ssim-rd / signhide / no-tskip / nr-intra=0 / nr-inter=0 / no-constrained-intra / strong-intra-smoothing / max-merge=3 / limit-refs=3 / limit-modes / me=3 / subme=3 / merange=57 / temporal-mvp / no-frame-dup / no-hme / weightp / no-weightb / no-analyze-src-pics / deblock=0:0 / sao / no-sao-non-deblock / rd=4 / selective-sao=4 / no-early-skip / rskip / no-fast-intra / no-tskip-fast / no-cu-lossless / no-b-intra / no-splitrd-skip / rdpenalty=0 / psy-rd=2.00 / psy-rdoq=1.00 / no-rd-refine / no-lossless / cbqpoffs=0 / crqpoffs=0 / rc=abr / bitrate=18000 / qcomp=0.60 / qpstep=4 / stats-write=0 / stats-read=2 / cplxblur=20.0 / qblur=0.5 / vbv-maxrate=24500 / vbv-bufsize=24500 / vbv-init=0.6 / vbv-end=0.6 / vbv-end-fr-adj=0.0 / ipratio=1.40 / pbratio=1.30 / aq-mode=2 / aq-strength=1.00 / cutree / zone-count=0 / no-strict-cbr / qg-size=32 / no-rc-grain / qpmax=69 / qpmin=0 / no-const-vbv / sar=0 / overscan=0 / videoformat=5 / range=0 / colorprim=9 / transfer=16 / colormatrix=9 / chromaloc=0 / display-window=0 / master-display=G(8500,39850)B(6550,2300)R(35400,14600)WP(15635,16450)L(10000000,1) / cll=3798,990 / min-luma=0 / max-luma=1023 / log2-max-poc-lsb=8 / vui-timing-info / vui-hrd-info / no-concatenation / slices=1 / no-opt-qp-pps / no-opt-ref-list-length-pps / no-multi-pass-opt-rps / scenecut-bias=0.05 / hist-threshold=0.01 / no-opt-cu-delta-qp / no-aq-motion / hdr10 / no-hdr10-opt / no-dhdr10-opt / no-idr-recovery-sei / analysis-reuse-level=0 / analysis-save-reuse-level=0 / analysis-load-reuse-level=0 / scale-factor=0 / refine-intra=0 / refine-inter=0 / refine-mv=1 / refine-ctu-distortion=0 / no-limit-sao / ctu-info=0 / no-lowpass-dct / refine-analysis-type=0 / copy-pic=1 / max-ausize-factor=1.0 / no-dynamic-refine / no-single-sei / no-hevc-aq / no-svt / no-field / qp-adaptation-range=1.00 / no-scenecut-aware-qpconformance-window-offsets / right=0 / bottom=0 / decoder-max-rate=02 \% F  ?) M9 V1 t& U0 L
Default                                  : Yes
- `/ w- F9 V  s& R9 K! j2 y3 gForced                                   : No
2 v' a) q  w1 `: Y0 EColor range                              : Limited
- R5 e/ d% o: j, z( z/ `Color primaries                          : BT.2020
5 O1 o7 V2 O  I; X' T- |  qTransfer characteristics                 : PQ: `1 v1 l" T) t4 P  L
Matrix coefficients                      : BT.2020 non-constant
2 a: t, H' y. v. T1 r: W- GMastering display color primaries        : BT.20209 K$ `) N) H4 O. D  y
Mastering display luminance              : min: 0.0001 cd/m2, max: 1000 cd/m2" A1 Y: e2 _  \
Maximum Content Light Level              : 3798 cd/m2
  R9 ]4 l$ P4 |" a8 `" _% uMaximum Frame-Average Light Level        : 990 cd/m22 y2 z* _; Q; s  G9 J# |
Audio8 ?! \, T/ |9 ?7 ^6 x( E# f  C7 H  G
ID                                       : 29 f4 Y0 p3 q/ u$ d5 N5 k, k& X
Format                                   : AC-39 E* i. s. P( _( Q3 i9 d: S- s
Format/Info                              : Audio Coding 3' D1 ]' Z  P/ S9 U/ D' O( Y
Commercial name                          : Dolby Digital+ W( ]* P) K# o( o
Codec ID                                 : A_AC3
% s3 R5 B: {1 a$ Q6 vDuration                                 : 1 h 42 min
& ]6 I) s- i3 dBit rate mode                            : Constant) J% w, Q3 n0 X# V
Bit rate                                 : 384 kb/s/ x4 p: ^+ a, @, D4 `0 z) ~1 l
Channel(s)                               : 6 channels6 ?. i( c" z- W0 d
Channel layout                           : L R C LFE Ls Rs* W$ d1 \& a8 W) |- ?% ^  ^% S1 q1 G9 a
Sampling rate                            : 48.0 kHz7 i1 v1 W' O  b0 j2 }: k
Frame rate                               : 31.250 FPS (1536 SPF): |) l! N/ |+ B# ^% C4 P" m
Compression mode                         : Lossy
# @, J' m( B  j% T6 H5 @; ~Stream size                              : 283 MiB (2%)4 w% _" l1 j- t
Language                                 : English
8 H1 B( F$ I3 @; m$ N, kService kind                             : Complete Main
2 C& h5 s) N( P2 z' l  R; LDefault                                  : Yes; k- v3 c- X; _- Z- q1 v) _
Forced                                   : No
  z# ^4 t, R- U7 W6 Z- SText #1
3 u( `* E( }- E! aID                                       : 3
) O7 T/ L/ a1 t1 Y4 TFormat                                   : UTF-8
$ C5 U7 x% o' `. w4 m& JCodec ID                                 : S_TEXT/UTF8
& B/ O; Z; [" x: Q4 ^Codec ID/Info                            : UTF-8 Plain Text
& H0 E* ~' \8 D5 R. IDuration                                 : 1 h 41 min7 I" b* E6 u0 P
Bit rate                                 : 104 b/s
7 n; p0 i1 j: zCount of elements                        : 21717 X) a. l4 S) {7 D$ U# X) d
Stream size                              : 77.4 KiB (0%)
, y( r1 o  F: s+ \7 V4 r3 T5 ]Language                                 : English( C# k& L5 X! N! N0 B  k% L8 \
Default                                  : No- c; e; w, ^* e. G) V$ ?8 M  g
Forced                                   : No3 a. s, ^3 N3 V0 g
Text #2
! ~% C* K5 l8 i1 KID                                       : 45 o0 G9 C/ `! B8 W
Format                                   : UTF-8% t, \6 L; ?4 O  M
Codec ID                                 : S_TEXT/UTF8
2 F9 l' |9 v1 ACodec ID/Info                            : UTF-8 Plain Text) R, f7 J9 e7 T6 e: b- H% f1 {; U
Duration                                 : 1 h 41 min  I  ~/ h$ \( q- L! [9 D% C( r5 [
Bit rate                                 : 107 b/s
2 ?( `$ c2 ^0 j. {4 S& _/ \! e' n8 \3 pCount of elements                        : 2366! f( c" `( E# H( o
Stream size                              : 80.4 KiB (0%)
. L" q# L$ i7 j" O/ W$ y6 E% }( XTitle                                    : SDH
/ E5 G# L9 \% e; ^' b" ALanguage                                 : English. V9 }% j9 H+ s+ n8 b% b
Default                                  : No
1 ~$ j- z9 K4 z3 gForced                                   : No* u5 v. ~8 F* R5 `+ u* N
Text #3
! n, V) r. D8 M: I8 O7 DID                                       : 5
( o" k( C5 z. S) v. v! O: kFormat                                   : UTF-8; f7 R/ ], s* ~
Codec ID                                 : S_TEXT/UTF82 |" g- R+ L) q' q3 G! r" d
Codec ID/Info                            : UTF-8 Plain Text" F8 T. l. S8 k. q$ \
Duration                                 : 1 h 42 min/ F4 o0 \3 F  m
Bit rate                                 : 143 b/s; G2 E0 K6 |# w7 E
Count of elements                        : 1590$ X% g8 w3 A& U6 b1 i
Stream size                              : 108 KiB (0%)
5 S- M' ]4 w$ |5 b0 l( o6 KLanguage                                 : Bulgarian8 d( I4 b  Z" I4 g5 m0 Z
Default                                  : No! M/ K% B& e0 T5 c1 y2 g% L
Forced                                   : No9 q9 A2 q, U. `: x  v' V! ?. J
Text #4
& ^6 S. Z7 O: nID                                       : 6$ o0 o9 B" g' l% z: }* n7 a
Format                                   : UTF-8
( e; i# b: T: @$ zCodec ID                                 : S_TEXT/UTF8
$ i: o$ U1 j+ G+ k/ @Codec ID/Info                            : UTF-8 Plain Text
( b6 D9 I' e3 E( g7 Q; m" FDuration                                 : 1 h 41 min% J. o- T2 V! E9 F# V5 |+ I
Bit rate                                 : 86 b/s& s& w0 R( n& \0 V' s" V, T6 `
Count of elements                        : 1589
4 q4 Z) L: F* R1 z: Y* V$ a5 N3 oStream size                              : 64.4 KiB (0%)
* ?: a. W* u+ N7 \$ X  zLanguage                                 : Czech9 G0 |* @5 \* O: V8 d- w# g
Default                                  : No/ t& `9 G1 X* C) f- ?
Forced                                   : No
  F' N7 s8 W7 sText #50 x/ s% i1 y- l
ID                                       : 7
8 |/ E, @/ D# ?& n6 ~' LFormat                                   : UTF-8
4 S) C$ K! v0 \; {/ v5 wCodec ID                                 : S_TEXT/UTF8
8 H7 m+ s2 I; ICodec ID/Info                            : UTF-8 Plain Text, t& q4 m7 n' C
Duration                                 : 1 h 42 min
! A9 t( z: f8 {& U5 l! i* E! WBit rate                                 : 91 b/s
5 }/ g' w* p9 t- Q7 TCount of elements                        : 1583
0 @; F- ^& W) X! n6 Y. ?: g" `: N4 hStream size                              : 69.2 KiB (0%)
  ~; ^" y  ~: q" d1 ^) TLanguage                                 : Danish- H* A. d/ s/ i+ N
Default                                  : No$ S5 b9 S. M& R* J' R, P+ q7 R
Forced                                   : No
) x5 A/ z) k- j; E# \Text #6
0 m" ~$ H* N# n% e( n6 Y8 j) R* ]' _ID                                       : 8, B& `7 _: T+ x3 T. m+ @
Format                                   : UTF-8
0 i4 f+ F! S+ h3 P1 [0 u, HCodec ID                                 : S_TEXT/UTF8
5 a- P3 o( Q$ ^/ d) cCodec ID/Info                            : UTF-8 Plain Text: z8 I6 b+ o3 H7 }# {
Duration                                 : 1 h 42 min
! o. T! A8 v7 a3 W: c- L3 rBit rate                                 : 98 b/s
# Z" F9 k+ z, l+ m" FCount of elements                        : 1923
0 m2 v/ J/ d' u% ]5 G5 r7 @Stream size                              : 73.9 KiB (0%)+ l6 |% p: T1 |% t
Title                                    : Latin American" e5 [5 Q- F; g0 a; s- o% S
Language                                 : Spanish
" s( x3 [& j' W6 x! m& LDefault                                  : No
( b5 w5 j; A; Y0 MForced                                   : No6 r* J: D5 D% [( r& m. P; M6 P( ?
Text #7$ W1 G# S- f: D8 ~, R
ID                                       : 9
$ H' x" o! S9 ]7 b* f- w( eFormat                                   : UTF-8
7 }3 p2 c; B% w( n6 PCodec ID                                 : S_TEXT/UTF8
2 `3 [* d! U0 UCodec ID/Info                            : UTF-8 Plain Text
8 V( y" J; p: {5 {* e! {Duration                                 : 1 h 41 min: n( o  N) Q3 e/ S
Bit rate                                 : 100 b/s
) g! W9 K8 E! ?. f5 H: f. cCount of elements                        : 1742+ R6 f9 s' {/ N( y) y
Stream size                              : 74.4 KiB (0%)
1 j/ L( X0 q8 o2 k4 I0 v+ QLanguage                                 : Spanish
1 ^1 q- x6 j- E, d" F4 S1 zDefault                                  : No9 i9 N- Q) w& [# X* |& i; C
Forced                                   : No
0 x: K6 d$ Z: N8 t- O" B% {Text #8/ X: \  [, C& W) |" j
ID                                       : 10
* z  U/ s# x5 F/ Q3 O- ?' D" bFormat                                   : UTF-81 i) X/ v% d) ?. l" w8 o
Codec ID                                 : S_TEXT/UTF8& ^7 O9 n2 v2 p1 q7 N/ `# o( ~5 r
Codec ID/Info                            : UTF-8 Plain Text* E6 R: z7 B$ V* ?1 |
Duration                                 : 1 h 42 min. v$ W8 }& y9 r2 q, }* s7 P; c& ]# a
Bit rate                                 : 79 b/s+ W% g" b/ b% c) O6 x
Count of elements                        : 1583# p4 Y2 j3 @$ v+ m
Stream size                              : 59.9 KiB (0%)
5 r3 ^  b  B* l' @8 m  m* \Language                                 : Estonian2 d* P- f- I  X  x6 R
Default                                  : No6 i8 a0 x( W% V/ e- G/ O  }3 f+ W' y
Forced                                   : No, k2 H% n3 q3 n+ h/ W3 n$ \0 i6 f6 A
Text #96 L  Y$ E- d/ U
ID                                       : 11# Q$ g' D+ ?) U- x- g8 k; K
Format                                   : UTF-8
) G* E4 k) B8 v' e  JCodec ID                                 : S_TEXT/UTF8
. j' w6 Y3 ]) ]( eCodec ID/Info                            : UTF-8 Plain Text3 o* `! Q# g& m% \
Duration                                 : 1 h 42 min" A+ r6 r) M2 S% h* F" I. J
Bit rate                                 : 80 b/s
- C5 H& U1 I/ n. W  |0 E+ FCount of elements                        : 1583
/ g4 l; t* d- H& x9 x9 r# h; H+ h1 kStream size                              : 60.7 KiB (0%)  R" T$ O, R+ E' N) a, d( O* U& m
Language                                 : Finnish
- o$ c; C& `7 m" @6 UDefault                                  : No
( D7 y& J, `9 w7 X1 pForced                                   : No
( u$ Y9 M) V  L4 U: v: `Text #10$ l7 K8 G4 S2 G/ ]
ID                                       : 12
6 g* M1 a3 I/ _9 h7 ^! E* f, UFormat                                   : UTF-8: e6 {- p# f4 w) o4 q
Codec ID                                 : S_TEXT/UTF8; t( z+ T1 ?( S$ A
Codec ID/Info                            : UTF-8 Plain Text5 _9 \" e8 ^% P7 W
Duration                                 : 1 h 41 min
+ k' T' J% `6 A' V8 ?  ABit rate                                 : 76 b/s
+ |4 ~8 o5 u* R% V* }$ K7 s  \Count of elements                        : 1582
2 {0 R/ ~. T1 @Stream size                              : 57.1 KiB (0%)9 E( I( J- M, K1 ~7 U9 x& ]/ P% C
Language                                 : Croatian8 ?( b, }" R5 k. X8 ?) O
Default                                  : No
0 q" q7 ]2 A0 l" v- F% f$ WForced                                   : No
# s9 D; V. n6 g) B8 i+ N9 b! `/ z( KText #11
) X# h# W, D& z( jID                                       : 13
  e5 l  Z3 ]) FFormat                                   : UTF-8
$ d2 q. f0 q; u6 y  d, QCodec ID                                 : S_TEXT/UTF8" c  I* k* a* _) c
Codec ID/Info                            : UTF-8 Plain Text
: l2 ]2 N* B5 D* DDuration                                 : 1 h 42 min8 D3 L" o) I, P
Bit rate                                 : 94 b/s' r* Z% O* c* B, w% |/ n
Count of elements                        : 1581
  T6 V8 U9 Z& O$ ~9 s: m/ W! `+ vStream size                              : 71.0 KiB (0%)) D# L6 w5 m) z$ e$ Z5 y
Language                                 : Hungarian
+ O# K3 E. k, t8 A) v" XDefault                                  : No
( \. X) W5 H3 k1 n$ b$ X* K. oForced                                   : No; Q5 d. D# x  V' |. I# x4 B8 p
Text #12, x: X# h& \; n) {! Q+ q
ID                                       : 143 E4 [( x* [/ Y: z) ~
Format                                   : UTF-87 z6 A4 ~  L8 A. R, w
Codec ID                                 : S_TEXT/UTF8
. t. k* f9 k/ @5 k( L5 |3 t7 m) e& T4 uCodec ID/Info                            : UTF-8 Plain Text0 m) Q1 A# c/ [7 {8 C$ T
Duration                                 : 1 h 42 min: N: j, R6 m8 i  |$ M; W7 R
Bit rate                                 : 83 b/s
9 A7 x' `' ^0 j' v8 A1 xCount of elements                        : 1583
3 F, e: X% J- P1 c  t- d. m9 a1 I2 CStream size                              : 62.8 KiB (0%)0 ~1 b: N9 g2 W* B0 G* S
Language                                 : Icelandic& z0 Q8 C* i1 V4 G. G
Default                                  : No3 ^$ J7 t( }' h+ A6 T" z* x
Forced                                   : No
0 p/ X5 O5 ?. Q$ G7 a# O  vText #13; U0 @0 u* c% V. @) J* B
ID                                       : 15: X; ~/ `1 R# a7 `* l
Format                                   : UTF-81 _  u' }6 }% O! H& f0 X% A( Z
Codec ID                                 : S_TEXT/UTF8' m7 j! H# j8 `) x: _
Codec ID/Info                            : UTF-8 Plain Text/ p; b  }2 @0 u7 P# W, A
Duration                                 : 1 h 42 min
( g$ k& S+ {7 p) j" w3 aBit rate                                 : 80 b/s6 a6 L  \1 I4 H  U7 j( G) V" j# H) B
Count of elements                        : 1583* q" j: z+ l4 Q5 i& p9 f
Stream size                              : 60.9 KiB (0%)
# {6 d- Z7 u3 F- o7 V( e8 WLanguage                                 : Lithuanian$ z- a  R9 O" b! x& s
Default                                  : No/ D% x4 D7 m" Z
Forced                                   : No
9 ~+ n& [) }6 l$ HText #14
; @( g. ^1 L$ B3 R- EID                                       : 16! @- I3 m+ w+ x$ r0 C& T$ R
Format                                   : UTF-8) i, B4 f3 q4 E' Z
Codec ID                                 : S_TEXT/UTF8
( t; ]9 y  U  ]- B* rCodec ID/Info                            : UTF-8 Plain Text
, j! s1 Z! w, H$ C. ADuration                                 : 1 h 42 min3 ]) V- T% P& f' q1 x
Bit rate                                 : 77 b/s
# K4 [% _( c* P' f1 r1 v' UCount of elements                        : 1587
' c$ L6 r8 \; VStream size                              : 58.0 KiB (0%)
+ z' y* Q! J% a8 f  |5 o) A- m; \7 ]+ ZLanguage                                 : Latvian
  H1 e- O3 L, B4 @Default                                  : No* p2 e+ ?1 Y8 y2 |
Forced                                   : No
: U9 C! L+ b" F5 g0 a# EText #15+ y9 }: @8 V! J4 D8 C
ID                                       : 17/ c' t7 T$ @  N5 f2 E+ F; u
Format                                   : UTF-8- ?2 l' P0 g5 M% `0 j9 N1 F4 D
Codec ID                                 : S_TEXT/UTF8
' j" K! B( l, E& DCodec ID/Info                            : UTF-8 Plain Text
' Y, n' U2 o+ S' y! G7 UDuration                                 : 1 h 42 min
+ {$ T' M8 e2 c4 B( xBit rate                                 : 75 b/s) t0 s+ ~( h( j; [$ Q% U4 p  Y6 O% h: U
Count of elements                        : 1584
( e3 v; ^  h2 O8 _Stream size                              : 57.0 KiB (0%). @  L3 e. x" ^' _. W) `% ]
Language                                 : Dutch
; U! V  f3 O. F7 IDefault                                  : No
, p% ?0 P. [& [2 PForced                                   : No
1 M2 k7 t. _, w- P+ s4 h4 vText #167 U. L6 E! I5 \5 ~. T; e
ID                                       : 18
. a! e- g9 H# L8 ~Format                                   : UTF-8
3 F, u* [( c: k3 CCodec ID                                 : S_TEXT/UTF8( @' g; b; o; k' U: Q( \1 \  n
Codec ID/Info                            : UTF-8 Plain Text9 C* l0 r+ A0 ^, D4 e$ r5 D
Duration                                 : 1 h 42 min! W/ d4 M2 k8 @3 [$ m
Bit rate                                 : 77 b/s; T0 X& d$ E/ I
Count of elements                        : 1583
! \* \$ e8 B( g* N2 RStream size                              : 58.0 KiB (0%)
: b2 I, `1 I) E) H7 YLanguage                                 : Norwegian$ W! Y8 w9 p$ ~& `
Default                                  : No
' i5 a: `- C/ }1 o2 p- PForced                                   : No
+ a- ]  V- w% LText #17
% t0 H' R. V( W2 H: h. N: P2 pID                                       : 19
: B: e+ U" U1 \. nFormat                                   : UTF-8& V& Q) S; F- f9 j+ h
Codec ID                                 : S_TEXT/UTF87 j( d* f% J: U& ^, _
Codec ID/Info                            : UTF-8 Plain Text
; r; l1 d% D0 F- HDuration                                 : 1 h 42 min# Y2 q" I/ N, W
Bit rate                                 : 83 b/s  g+ O8 {9 q5 L6 Q) o# u
Count of elements                        : 1583
' l4 R6 j/ ^$ V  F( lStream size                              : 63.0 KiB (0%)+ ]# ?# H: c$ M6 r! ^! n
Language                                 : Polish
' N+ G5 X% f0 X0 X4 Q# Q% TDefault                                  : No
2 u8 M; B* T6 y( q; b7 d% YForced                                   : No
9 E' [$ V% g0 G/ T0 fText #18% ?! _6 H5 X! [# V1 ]
ID                                       : 20  I' C1 L+ i; \9 L$ [& R
Format                                   : UTF-8( s6 Z3 [' A. M' X  T9 F+ B, j2 p
Codec ID                                 : S_TEXT/UTF8
) W2 o! ]5 S  I' o8 rCodec ID/Info                            : UTF-8 Plain Text7 M+ k! L' b3 f( \' y
Duration                                 : 1 h 42 min
4 e; g9 l. ~; A4 o3 QBit rate                                 : 99 b/s! a. t. R6 D0 A
Count of elements                        : 1939' J+ x( r* `, E, H2 k! W
Stream size                              : 74.9 KiB (0%)
+ k: C$ R& r7 a+ G1 sTitle                                    : Brazilian
1 W0 I; }3 X9 M& \3 YLanguage                                 : Portuguese6 |( z* F3 G1 s+ \4 n( ]
Default                                  : No1 J+ d( b) o) _. q0 e, Z
Forced                                   : No7 R* ]6 C( ?: R! I: g3 D, U6 \0 {
Text #19: ]; r  O& d! [$ U. ^
ID                                       : 21' \0 H3 `' U- [' x/ a+ S/ x( V, E
Format                                   : UTF-83 f' K4 Y1 [9 b3 o: s
Codec ID                                 : S_TEXT/UTF8% A3 E- n$ B9 A6 g% Y- u7 H
Codec ID/Info                            : UTF-8 Plain Text
$ T4 ]* O( P  A. ?Duration                                 : 1 h 42 min4 x& C$ G+ m! ?0 E. h9 R% F# R
Bit rate                                 : 95 b/s' Y; E1 U% s% C+ B  O0 }% |+ V1 t
Count of elements                        : 1590
( j( y. Y( w7 ?0 w9 @1 QStream size                              : 71.6 KiB (0%)4 N9 ?/ A6 |  A
Language                                 : Portuguese
& P' W5 |9 s( T% \1 GDefault                                  : No
- K3 V" Z- P* q$ r: zForced                                   : No
) k0 {' m9 p9 @3 |. N/ nText #206 {9 i6 B- a- J% A" z1 I
ID                                       : 22
+ e8 b/ G0 E4 a0 q( qFormat                                   : UTF-8. G, k$ Q% n( f% Q& v, u7 T8 r
Codec ID                                 : S_TEXT/UTF86 x" R1 M/ L8 i; K" I* N& q& T
Codec ID/Info                            : UTF-8 Plain Text2 H( g% z$ a, o: ]8 b# m* P/ H
Duration                                 : 1 h 42 min* M$ V' x; H$ V( Z4 [( s5 L' c4 d
Bit rate                                 : 89 b/s
. f% t" l, z, M$ [Count of elements                        : 1581# Z/ ~0 @' n" n
Stream size                              : 67.6 KiB (0%)4 [9 L  L+ ]) J& R
Language                                 : Romanian
& ?) @2 ~6 \9 v  H: q5 aDefault                                  : No
2 @' W' }5 y- m( HForced                                   : No
2 r4 h- x1 h; z2 K$ b9 ^6 S+ N6 XText #21
& o# s+ ^  l4 ^ID                                       : 23
! y$ `* m' K7 O& Z9 S$ c) c1 pFormat                                   : UTF-8% L# T$ v; f2 o) ^1 l3 w( Y0 a
Codec ID                                 : S_TEXT/UTF85 I% [- o1 }# `, r( u3 [
Codec ID/Info                            : UTF-8 Plain Text! l8 `+ E# ]1 V
Duration                                 : 1 h 42 min
# Q7 d; t2 l* ?0 a' ]' tBit rate                                 : 144 b/s3 C) j7 ]$ X9 C% v# H5 x! C8 U* H6 \
Count of elements                        : 1587& U0 V. N1 U5 f2 T; Y$ _5 X. E
Stream size                              : 109 KiB (0%): Z) T: G0 i9 b0 R: N* S
Language                                 : Russian1 Z2 s. N; w. w4 @! v: K6 Z
Default                                  : No
3 F* _; j1 N. y1 B7 G: I7 vForced                                   : No
. U# a7 E) A1 b" k$ oText #220 C7 B0 d1 b% ]8 R( w) p2 n
ID                                       : 242 P; F! M- d! U
Format                                   : UTF-89 u/ ^* x1 D/ ~' H
Codec ID                                 : S_TEXT/UTF8( u" ^1 @) D# c0 ]# z0 i- W; K
Codec ID/Info                            : UTF-8 Plain Text
7 o+ q1 F: s; ]7 _) [( V' i, mDuration                                 : 1 h 42 min
/ n: G. c1 a/ l( O" V& iBit rate                                 : 84 b/s
7 m! g: ]* ]" x! e( eCount of elements                        : 1584! e) e1 I) @+ {; n4 z- s% J. H
Stream size                              : 63.5 KiB (0%)5 O% x0 ]8 v9 A0 w0 i6 E
Language                                 : Slovak! b9 [8 B( e/ Y& w' L
Default                                  : No
" a* i  ?0 P2 Z& rForced                                   : No! v+ J7 j6 p/ H/ Y3 M# Q, H) `" F; q
Text #23
1 _: {1 H8 p$ i  gID                                       : 25
8 @& b9 ]3 N, c+ vFormat                                   : UTF-8
& v: Z' i5 m; xCodec ID                                 : S_TEXT/UTF8  k8 f+ t) d/ J: X( n$ l0 c
Codec ID/Info                            : UTF-8 Plain Text
+ Y4 Y5 c# m7 W; ?  n6 aDuration                                 : 1 h 42 min/ e/ i! k4 p. \+ s* f  S1 r6 w
Bit rate                                 : 76 b/s/ ?- A2 ^$ }4 @& J
Count of elements                        : 1582
- F3 P9 r! t: ]: J6 b+ }Stream size                              : 57.5 KiB (0%)
5 a* Z! i! T/ m" [5 ILanguage                                 : Slovenian
0 k+ _/ N) |! X- g' w' S3 w; fDefault                                  : No4 i/ ?$ p, \4 j4 j8 o1 {* X
Forced                                   : No
+ g  J# ?: U8 r9 z& n+ x: j- BText #24
4 L9 [! I: E1 }9 V) C9 O# ^9 ], ?ID                                       : 26
3 X; Q7 P6 w# j' f& {Format                                   : UTF-8
5 e8 w! f' ~0 u5 [% ICodec ID                                 : S_TEXT/UTF8" q* u- B  v/ _& e3 {
Codec ID/Info                            : UTF-8 Plain Text4 t- U  l& e8 H
Duration                                 : 1 h 42 min
$ i/ `, Q* [/ gBit rate                                 : 83 b/s$ `/ B0 C, J$ ^, Q
Count of elements                        : 1587
3 I# j% E+ j0 }3 E% q  E0 k# W3 X/ f5 r2 ]Stream size                              : 62.7 KiB (0%)9 a( H4 G! S# K# E0 }5 C: |
Language                                 : Swedish
% z$ l. w) S$ O, b8 c  |) YDefault                                  : No/ x5 Y2 U2 Z6 t5 R1 t+ s
Forced                                   : No

, b- D, I' F+ Z" B: L. `
! ]# ]) n$ Y# V1 d/ i' u; A! ?( Y4 d

! s8 e! Y9 M9 A1 Q% B- p. [6 q哈利·波特20周年:回到霍格沃茨 Harry.Potter.20th.Anniversary.Return.to.Hogwarts.2022.2160p.HMAX 电影下载
) e. ~- z  m4 |$ U1 D$ X& w+ l. A+ |# J, k1 g! b1 t. e

& ~/ V, {8 [3 g5 Q& s- b

5 U% J- D5 c8 ^5 J' a2 i1 K1 n; E6 v) s9 }6 W- ?" s8 k

# u, V3 s5 H% V! x/ ~* ?/ [哈利·波特20周年:回到霍格沃茨 Harry.Potter.20th.Anniversary.Return.to.Hogwarts.2022.2160p.HMAX.WEB-DL.DD5.1.DV.MKV.x265-TEPES 13.14GB
; S4 p% l. x- O& k" v* m$ z2 D7 }* W0 v( U  \2 N1 V

. [5 I  I7 Y1 A/ H5 Y
% d6 W8 F4 m& Q7 A: R% s# t- Z$ g: I& Z# L/ C! [- V' Z1 T: c
2 \$ z9 |+ u' S0 q7 @. Z8 N. w
登录 发布 快速回复 返回顶部 返回列表