开启辅助访问
 找回密码
 立即注册

牛/奶牛4k.Cow.2021.2160p.WEB-DL.x265.10bit.SDR.DDP5.1纪录片电影-8.51 GB

#4k记录视频#时间:2023-04-28 阅读:186 回复:0
112450qdlehvphh00rrvm7.png.jpg
) l$ J) h$ M- F1 c/ q, d
$ [! a$ E, }+ u' z# m6 h简       介
% F' t* X# h: x% ~! W) V& v' N
0 `, h4 m: a4 e  v0 H
  纪录片聚焦英国农场里的奶牛们。以低视角追踪英国农场中一头母牛的日常,观察它如何在人类的干预下吃草、交配、怀孕、生育以及产奶。当刚出生的小奶牛数次被带离母牛身边,它开始了抵抗……
! I; G3 Q! ^( R: [9 x5 K' h  这部电影是重新看待“牛”的一个尝试。影片并不是以浪漫化的方式,而是用现实的目光带领我们接近它们,去欣赏它们的美丽和生命的挑战。这是一部讲述一头奶牛的现实和它对人类的奉献的电影。

8 O/ `- g* V( N6 }& O5 \: w" J( z% V0 [7 |4 C2 ]
! v# r6 p, t1 e2 R- a! p
影片参数
# B* x  }+ o- `  `8 u4 z
牛/奶牛4k.Cow.2021.2160p.WEB-DL.x265.10bit.SDR.DDP5.1纪录片电影信息
7 N/ p9 }: h) t5 M( R- ?) U/ mVideo# M! S! t+ F5 T# Y5 x4 g- K
ID : 11 X) f/ R8 Z5 G+ p
Format : HEVC
2 ^  z4 y7 e8 R- H: E4 eFormat/Info : High Efficiency Video Coding
- q4 w+ H$ @# m9 n+ p1 yFormat profile : Main 10@L5@High
( r; T9 p. K$ X* y% FCodec ID : V_MPEGH/ISO/HEVC
7 E6 q3 V: s1 ]6 Y5 Y4 DDuration : 1 h 37 min
2 D' W7 U* D) E0 PBit rate : 11.8 Mb/s% D6 r7 T; u2 B5 K# I& {/ U
Width : 3 832 pixels
. f* d* h8 H! a' V! vHeight : 2 022 pixels; O9 ]! ]; X& k# s- ~
Display aspect ratio : 1.8954 \% T2 j" ?" f! W# `
Frame rate mode : Constant) h; a( q2 @; }5 T& X1 N: O: `
Frame rate : 23.976 FPS
/ K" m0 [" w3 d1 _" ZColor space : YUV
$ v+ N  }# P% m1 yChroma subsampling : 4:2:0
' ]5 d# s( w- S. X* {Bit depth : 10 bits
8 S+ C, j1 G/ R  W8 S8 k3 `3 y1 ~Bits/(Pixel*Frame) : 0.0645 r6 ~  Q9 m7 J4 {, ?
Stream size : 8.07 GiB (95%)
% ]" B0 e! J& `( w, z" `3 kLanguage : English
( U" z* x5 d  g9 }Default : Yes
. @7 f  T/ H, z; ]& ]3 oForced : No
6 |( e: I' z2 l, {6 K4 {7 zColor range : Limited
" p  b& o3 h. z9 B- t" N! MColor primaries : BT.709
7 B/ @8 H- e4 i! s! u7 aTransfer characteristics : BT.709
" E$ k& y% H( q, T& ^1 b% e) U3 sMatrix coefficients : BT.709
* Z! U; i4 [/ w. k
5 W, r( j8 v' i5 h- e( l

& F5 N& E1 U" d+ H6 GAudio
# z0 F) k4 ~  ^! g' \% T" \ID : 2
. }1 e9 u6 X, I( w# XFormat : E-AC-3) e& e& m# O9 Q' b
Format/Info : Enhanced AC-32 _% [9 v8 _" d4 X! v  R; I. U
Commercial name : Dolby Digital Plus
- _$ c7 s  M7 ]/ i$ y2 nCodec ID : A_EAC3
& s4 M/ B' w  d2 _Duration : 1 h 37 min
( y) K; Z3 A6 a. G5 f7 W0 vBit rate mode : Constant
- }7 k" W' E6 Z$ pBit rate : 640 kb/s
; \' u3 Y0 s$ e# _, i' nChannel(s) : 6 channels  l: X3 F- u" H. }+ |
Channel layout : L R C LFE Ls Rs# O; a# H! j  I% K; Q& Y, V
Sampling rate : 48.0 kHz
2 r, K( k0 ]& i6 h- s; ]Frame rate : 31.250 FPS (1536 SPF)3 b. ~. P- T2 m9 H  G8 G; n
Compression mode : Lossy
3 ~) F0 W, j+ E$ w$ ?Stream size : 448 MiB (5%)
! d( O$ @" r, f% pLanguage : English# \5 I6 }3 M. B  ^8 w- i3 Y
Service kind : Complete Main
6 n% c% C8 a% R+ ~# Q+ a- ~1 V5 I+ A& m1 ADefault : No
2 `$ x7 w2 q9 E6 ], }Forced : No
) G# n, X2 R( q, D' g* [2 ^5 ]& Z/ ~" m+ K; t. K) K- n
, ?0 |/ u' e/ k. T, r' k
Text #1' b9 s, a, l" E2 p- P" o
ID : 3
) D, ^9 l/ X! k) }1 pFormat : UTF-8
0 j& f' M* I7 u4 s% n8 M& q7 C( TCodec ID : S_TEXT/UTF86 [1 |* [. ]8 q5 g2 U
Codec ID/Info : UTF-8 Plain Text0 g/ q. ^. O3 p: a2 y
Duration : 1 h 37 min
4 D) g% D( S( n4 U/ a0 QBit rate : 44 b/s' f  C* R% {) I) n/ p. W. s
Count of elements : 9585 n8 S. z# ]8 n7 q! f6 D0 O* W
Stream size : 32.0 KiB (0%). ]2 _7 U7 X" H; J2 b$ e
Title : English
' ]2 K+ b8 i3 C/ PLanguage : English2 j7 T6 k. r+ z2 V7 z  ]# y
Default : Yes
' G$ H1 L5 X) bForced : No
1 m2 Y) f4 }6 c# x  e7 w3 b7 J* G$ N0 F; U: E0 ^
# L' W6 u' a8 X! ^3 c/ {' r
Text #2
; \2 y  _9 O, Q! E9 u8 bID : 4( W& D( q8 w  o3 v3 i0 O& G2 C2 b
Format : UTF-8
( t% z. @, M2 UCodec ID : S_TEXT/UTF8
. d( w  `( k4 O& d- e+ qCodec ID/Info : UTF-8 Plain Text# O' d& z. X8 d, u9 a" W
Duration : 1 h 37 min
, y+ j1 {" h" P# k) z( @Bit rate : 44 b/s% r! M, {" }# Y1 \# H
Count of elements : 958& ~: e7 B% @: H- F$ w
Stream size : 32.0 KiB (0%)0 h6 F' e! n+ L6 X2 U2 m% @
Title : English2 k% @$ y7 O) F3 U
Language : English
* C7 d+ c2 {: O% oDefault : No5 J$ |/ u* h! o; e9 o/ G8 ]- a
Forced : No
$ F0 q5 M' |  e3 I6 r$ P5 {

. m. {% J2 C) `, v3 k; S' n. n- C; k0 n! ~$ v9 L& W

. d  }6 {! H1 K4 w2 C牛/奶牛4k.Cow.2021.2160p.WEB-DL.x265.10bit.SDR.DDP5.1纪录片电影下载: o! L7 s  s+ [" J5 i& X
+ S& i% T( r. B6 g0 U; [# p
奶牛4k.Cow.2021.2160p.WEB-DL.x265.10bit.SDR.DDP5.1【4k SDR  8.51 GB】
- N8 b. K3 i* k8 g4 ~- n1 \. p
: b8 q, H3 A! n7 G" X
- s1 T- S! @8 ^; T: J* Q) p& G" t2 @6 r奶牛中文字幕下载
7 ?, z' |' k: t" {5 w; S( B" r! ^3 M
: S+ q6 U$ T6 B7 K' P
3 m7 b0 u3 y# [, p
% c3 U6 S; ], [3 @% y' \

1 M1 A  x1 [7 \
登录 发布 快速回复 返回顶部 返回列表