开启辅助访问
 找回密码
 立即注册

牛/奶牛4k.Cow.2021.2160p.WEB-DL.x265.10bit.SDR.DDP5.1纪录片电影-8.51 GB

#4k记录视频#时间:2023-04-28 阅读:268 回复:0
112450qdlehvphh00rrvm7.png.jpg & Q1 E" {, e: T' P' M# k

. t' q/ |' y) Z  b$ E简       介
# \$ \9 u7 K8 Y+ L% k6 m/ k3 S. f

0 |" Q1 {% y  t- C9 L$ _" c  纪录片聚焦英国农场里的奶牛们。以低视角追踪英国农场中一头母牛的日常,观察它如何在人类的干预下吃草、交配、怀孕、生育以及产奶。当刚出生的小奶牛数次被带离母牛身边,它开始了抵抗……1 Z: F% Y3 f2 n2 Q
  这部电影是重新看待“牛”的一个尝试。影片并不是以浪漫化的方式,而是用现实的目光带领我们接近它们,去欣赏它们的美丽和生命的挑战。这是一部讲述一头奶牛的现实和它对人类的奉献的电影。
, J$ M# G$ f( u% S+ F' w- S: ~/ z

+ Z, d( {: L! @: k+ c0 z3 N$ H" Q
0 ?! i6 q. Q4 N
影片参数
; y0 `! R4 N4 x6 t9 c& n! P
牛/奶牛4k.Cow.2021.2160p.WEB-DL.x265.10bit.SDR.DDP5.1纪录片电影信息' t& d; o3 S. j% L, A+ `1 Q
Video* Z3 T" L0 [( A3 |) J: C
ID : 1
: t+ c  k/ Y. g) s6 o! c2 Q6 pFormat : HEVC6 ]6 ~9 h* P$ r3 c: ~& b
Format/Info : High Efficiency Video Coding
( O4 p- F) B4 V: A$ `Format profile : Main 10@L5@High
1 D: q4 J( u$ ^% q, C% n; ZCodec ID : V_MPEGH/ISO/HEVC
" }  Z! V4 R/ B, DDuration : 1 h 37 min
- F6 {$ `( R5 G( l, ^, LBit rate : 11.8 Mb/s5 I  b2 f4 r4 T9 A6 ~* P, h6 z
Width : 3 832 pixels
' @7 }6 F& v/ x9 A6 tHeight : 2 022 pixels6 I- }2 e7 t7 j6 G% I. ^6 l
Display aspect ratio : 1.895" P  D, ?- {/ S7 M1 @* y2 A2 ^
Frame rate mode : Constant. h9 l! u" B4 y6 c  C3 |
Frame rate : 23.976 FPS
- K+ b3 N' Q: q3 Z9 oColor space : YUV: t8 |4 q7 X% ?. @
Chroma subsampling : 4:2:0
( R0 R8 x1 }3 B9 t2 e& ~Bit depth : 10 bits
% x& p- j- O. t% j; K  EBits/(Pixel*Frame) : 0.064" G# r; v4 u! @1 r% t  S2 u9 Y
Stream size : 8.07 GiB (95%)
$ o+ _5 @: b1 H/ LLanguage : English$ g7 a: e7 J  U. U
Default : Yes
3 v* z6 [* M$ F4 Z" [Forced : No
' u- Z8 ]/ x) p0 i$ E2 F4 zColor range : Limited
3 k" x! ^. M1 e% b( Z: R# a$ ^, YColor primaries : BT.709- O7 b" \- Q% a) p
Transfer characteristics : BT.709$ d8 S0 ~: U+ o7 W9 P4 n8 ?
Matrix coefficients : BT.7094 D3 n) c& v6 S4 k) v9 ^  W: \

5 ~+ `% Y1 P9 c  Z5 Q
( ]5 J& W5 q4 m: l' p' l
Audio
% d) i1 R: p0 n9 OID : 2
6 ^6 z* G) j0 J4 N/ ^Format : E-AC-3
3 G. v2 ^! b! OFormat/Info : Enhanced AC-3. m  P! n& |7 w- U7 w! a4 T
Commercial name : Dolby Digital Plus
# f: g( s2 ?6 y! s- Q1 B3 f% NCodec ID : A_EAC3
1 a$ ^+ a/ E; t8 R2 _/ SDuration : 1 h 37 min# G$ x# z: A( o  E: T$ ]( o
Bit rate mode : Constant# d; R7 u- \' r/ x0 l, ?1 `  i
Bit rate : 640 kb/s5 t: _1 V2 q; A
Channel(s) : 6 channels2 h% @' s) r* e* A, Y& c. `
Channel layout : L R C LFE Ls Rs
5 o+ E8 ~' m, f$ n7 p+ ~  LSampling rate : 48.0 kHz0 ^" M3 l- ~/ i0 s7 k4 Y+ b! s
Frame rate : 31.250 FPS (1536 SPF), o: ]4 R2 O* O. D5 p
Compression mode : Lossy
3 V# G3 k  |+ J' TStream size : 448 MiB (5%)* M" F5 c# V; M: ^  \
Language : English
/ Z' c, `) ]5 a6 }2 ^+ f) dService kind : Complete Main
6 J. a) J  P# H" m1 @* ZDefault : No
+ N) v0 o: _" j0 cForced : No/ s, B, N0 \; u0 E! e; I8 v7 Z
- w8 K& t' w/ h4 c; i  |6 D
, I  u. U' V) _) e- r% W; S" h
Text #1
# H' L  S5 f9 W: o# h! b/ AID : 3
% g7 P) N8 C0 b8 {Format : UTF-8
! S3 W' _8 W1 h1 X+ m3 LCodec ID : S_TEXT/UTF85 b3 ]. k. j- L) L( G2 C/ D1 m. B
Codec ID/Info : UTF-8 Plain Text
# L0 i2 O6 c  S6 [0 c$ g: mDuration : 1 h 37 min. N" F+ C8 G/ n- u
Bit rate : 44 b/s5 ]$ q* q$ f6 b: Y% A
Count of elements : 958
7 t8 U/ n1 b# T+ V5 [! @5 mStream size : 32.0 KiB (0%)
& ~2 b3 G/ `% k- D; C8 iTitle : English% M: R6 O8 T# F6 A" k% E) }
Language : English( {( t) N+ g& k, m
Default : Yes
: v0 d9 D* M2 H# F3 V" QForced : No  P) `# [& Y4 M) p7 X' l

7 Y, y* H" l7 a$ f

5 l- J/ e0 r0 U# R$ X- j) c2 k% v/ V# @Text #2. Y  n- o% d8 d+ S5 `. q0 i
ID : 4
& S& M9 X& n+ K2 ?Format : UTF-8/ P1 B+ h' w9 A; ~2 z
Codec ID : S_TEXT/UTF8
7 D$ s$ Q; [+ D  k% |* Z) O  d, i; zCodec ID/Info : UTF-8 Plain Text2 R; k' U  _' k! ?" C+ p
Duration : 1 h 37 min
5 }) F( g0 r. l- E/ q. t8 cBit rate : 44 b/s2 L4 {: p' f# q+ n4 N! |8 G
Count of elements : 958' @$ q3 O/ r, E3 s% M8 Q3 V2 O9 y
Stream size : 32.0 KiB (0%)% t& r  Y) a4 \! c9 z* X# Z' Y! s
Title : English+ d! k! I" d3 {! y
Language : English& A' K1 c$ [" G5 i+ J2 j- c
Default : No
3 g$ E3 y$ m5 R7 [6 E5 NForced : No
" g# S5 a9 L* i
" \& `7 K$ k2 Q# {6 Q; C! X

: C$ u% H8 q; G3 p5 ^8 M. ~: Y- b- e9 i8 U/ @
牛/奶牛4k.Cow.2021.2160p.WEB-DL.x265.10bit.SDR.DDP5.1纪录片电影下载
+ ?7 \/ O9 T. K: A( X$ j4 b) ~+ A  u  x7 U* o
奶牛4k.Cow.2021.2160p.WEB-DL.x265.10bit.SDR.DDP5.1【4k SDR  8.51 GB】
' u( h! i7 @" t9 r2 c" r6 q6 p6 W! s( w0 [1 \1 _

. T+ K$ B7 {( j奶牛中文字幕下载
! `. Z5 U' P% X+ G7 w+ D  e  f4 M7 P; K4 @7 d; ?6 I6 M" L

. k2 v3 G, g; y( R) q1 a$ v# u
5 {: e# @+ }3 Y) @
$ E# v$ j( i4 ]$ }8 r# t( F; X  i" Z5 \1 V6 Q
登录 发布 快速回复 返回顶部 返回列表