开启辅助访问
 找回密码
 立即注册

都铎王朝的私生活 4k.The.Private.Lives.of.the.Tudors.S01.2160p.WEB-DL.AAC2.0.x264-4k美剧-24.49 GB

#4k记录视频#时间:2023-04-28 阅读:234 回复:0
112516y2l8faxaxrxn3zlz.png.jpg
  X' c$ a9 X/ e  O! V. k5 P" M- _9 |2 D, k7 w' W8 V
影片参数
; ~) q3 v$ v1 ~1 _3 X" q
都铎王朝的私生活4k.The.Private.Lives.of.the.Tudors.S01.2160p.WEB-DL.AAC2.0.x264-信息% c9 u; @1 Y/ l+ K
Video# Z) L2 W, V: c# |( `! k: c3 l
ID : 1
  H! u# h$ g* a0 E( ~% m2 M4 c3 H  p( r7 ]Format : AVC- C; O4 ]+ P0 E8 |7 q9 p
Format/Info : Advanced Video Codec
0 R  y4 p! d+ R9 I; t' oFormat profile : High@L5.16 d( W2 w, Q9 y, q
Format settings : CABAC / 5 Ref Frames
8 x/ O  D3 ?/ K" R+ t- c1 aFormat settings, CABAC : Yes
* ]9 g9 @& ~- N/ j) MFormat settings, Reference frames : 5 frames
0 ?7 l" S# w  D0 y5 O! e" fCodec ID : V_MPEG4/ISO/AVC  {: g' ~* @; v# S2 Y
Duration : 44 min 36 s
1 ^7 H9 L, g! U' ~Bit rate : 26.3 Mb/s
( Q7 _- C) H* X+ H# e# S2 L% y) CWidth : 3 840 pixels2 L2 u3 t4 {+ t& T
Height : 2 160 pixels2 x  f5 e7 S) E! [# X+ Q  H
Display aspect ratio : 16:92 P" @, k; @7 s
Frame rate mode : Constant! D8 v+ O% ?9 a1 ]; L! P& ]0 ?
Frame rate : 25.000 FPS
" g% U, R! ?! o; S! D9 jColor space : YUV
4 N" _* ^! [8 f6 H2 m7 M5 v& oChroma subsampling : 4:2:0
+ l5 T+ S: h: v4 [Bit depth : 8 bits4 Z: L! ~" W" p5 l$ i( h1 A/ Y
Scan type : Progressive
; l: r, l' z% u: ^$ ~; gBits/(Pixel*Frame) : 0.127( K! L) |9 K/ x. h+ @+ ~+ A
Stream size : 8.20 GiB (99%)9 }! O1 c" O! h
Default : Yes
8 z/ q9 [8 V% L; y7 jForced : No
' M& s& ?% r  x- _' k
/ q, C. a( V& n" R! V

/ ~. [$ j; d7 L/ v+ d: q9 dAudio
: t0 V/ J( B# ]) u: \: Q+ WID : 2& D$ n" D! C+ [5 [; d' K+ \
Format : AAC LC
3 }% a2 e; X) \- Y+ KFormat/Info : Advanced Audio Codec Low Complexity4 w/ {, D% p7 |# g
Codec ID : A_AAC-20 ?% l4 I% Z2 _) Y$ H2 ?( R
Duration : 44 min 36 s
8 w0 T5 g1 r. y' b# M( LBit rate : 253 kb/s
5 [: j5 j' W9 a% `Channel(s) : 2 channels
  E4 \9 y6 i$ n9 L4 p' ]) U/ ~Channel layout : L R8 l7 C! I* C0 Y$ M- q, o
Sampling rate : 48.0 kHz# Z$ b% ^8 P" M2 J. \" @+ \' j
Frame rate : 46.875 FPS (1024 SPF)
5 ?: I- E; [* y7 \: m+ RCompression mode : Lossy
- g' }! B$ I. eStream size : 80.8 MiB (1%)3 ~9 y6 z; \' J
Language : English1 v: `) a" c( L, ]
Default : Yes( R. j# d8 [( K8 i/ {/ ^& n
Forced : No
0 `3 ]' M# O  _
5 v! p4 {# j3 Y2 b

  N7 p6 w/ l/ `8 \9 j- zText #1
- S0 c$ ~+ N; s' w3 HID : 3
& ~3 L6 m6 u' x7 N0 R7 m% }Format : UTF-8
" T( _) h; o6 T& X" fCodec ID : S_TEXT/UTF8
/ s# x' |: Z' T# ~Codec ID/Info : UTF-8 Plain Text$ x# r, F1 [0 U$ m
Duration : 43 min 47 s
; ^7 h; `9 w4 a) y& [, iBit rate : 98 b/s# B/ @. \! x2 Q3 K1 o2 e0 |
Count of elements : 8002 e# n2 N! s) n: w
Stream size : 31.5 KiB (0%)
/ I3 j$ k) S+ `/ V+ HLanguage : English9 y; o# B' e9 V/ d  w
Default : No- ^* p2 ], H$ U  b
Forced : No# b& n. \1 \7 s

1 ]0 U& H% K: S/ r. _+ y( f' M

3 T1 U& p! p+ l7 |8 G% lText #2
9 O( p8 ]( y: }1 v" J/ [* a& l7 w  DID : 4# F7 b4 e8 d1 K
Format : UTF-8
9 O' _! G) n) v2 r# WCodec ID : S_TEXT/UTF8- T7 r& [+ \9 ]9 M9 q" b
Codec ID/Info : UTF-8 Plain Text
9 g/ r  w, ]7 H( _& R* L* d8 O0 zDuration : 43 min 54 s$ V' _9 \$ w% D, e& K+ H# i9 L
Bit rate : 102 b/s8 j5 x# d* X# N& |6 h; g4 b
Count of elements : 877
2 t* X8 S# ~- {. cStream size : 32.9 KiB (0%)# v' z6 T, ^: M/ v% y
Title : SDH
* ?9 x, p- l: H+ x6 L8 tLanguage : English" V! I" Q' Z5 t; U' j
Default : No" }6 h. B! Z+ q7 b
Forced : No
0 w- ~0 b9 J* s, Z& {3 p1 {- ^7 {6 f

) ^0 v2 m4 z' H7 a5 n' R" o7 b! V4 E
% _3 H1 f" G( ]$ p4 o: n! ~都铎王朝的私生活4k.The.Private.Lives.of.the.Tudors.S01.2160p.WEB-DL.AAC2.0.x264-4k电影下载, j  L1 R# L/ U) \6 p1 h3 \% q
" w6 d# v7 ?/ u# X3 j
都铎王朝的私生活4k.The.Private.Lives.of.the.Tudors.S01.2160p.WEB-DL.AAC2.0.x264【24.49 GB】. ~# D. B6 A( @) Z# R  X

' w! o9 f- s  F  F6 V
0 g) b3 Q1 g  H4 [
7 ^6 ~) s$ ]" w  N( i. x  ?7 S5 K6 B" |9 Y7 T& l
登录 发布 快速回复 返回顶部 返回列表