开启辅助访问
 找回密码
 立即注册

都铎王朝的私生活 4k.The.Private.Lives.of.the.Tudors.S01.2160p.WEB-DL.AAC2.0.x264-4k美剧-24.49 GB

#4k记录视频#时间:2023-04-28 阅读:149 回复:0
112516y2l8faxaxrxn3zlz.png.jpg 7 a0 w- C3 f2 D4 q/ v
1 p! K1 g0 w$ u6 P9 X1 M5 u8 t
影片参数

" @% y5 ^0 O' Y4 c4 C0 b
都铎王朝的私生活4k.The.Private.Lives.of.the.Tudors.S01.2160p.WEB-DL.AAC2.0.x264-信息7 I: h( |6 j% c, J. m
Video; `; O! i" ?& P( F7 c. {6 B% p
ID : 1
' W: t% w" H8 y* H% Y% gFormat : AVC; q' t* l1 X+ _# C3 o) l
Format/Info : Advanced Video Codec
1 I" m4 ^/ }$ f6 b, g0 @Format profile : High@L5.1
$ C; R( V: q0 q6 ^( }- H! n* dFormat settings : CABAC / 5 Ref Frames5 c+ i& f. [3 n' C) [
Format settings, CABAC : Yes
7 j  R6 W8 v2 M0 z0 \Format settings, Reference frames : 5 frames
# C" N2 k3 L" \9 _7 ?Codec ID : V_MPEG4/ISO/AVC+ Q1 [/ F, p. z) q. ^6 ]! Z
Duration : 44 min 36 s) n9 U9 b4 l1 _1 m: t$ j& Z5 C
Bit rate : 26.3 Mb/s6 [4 u  U' T* }  d# ]; e) F
Width : 3 840 pixels
& `( ]; r/ i& G7 ]# bHeight : 2 160 pixels
( t! F! y  R3 l" W. a# h2 ADisplay aspect ratio : 16:9
5 v, E) o) @- e* [Frame rate mode : Constant
. S" `* o$ m* j. M4 N/ A# kFrame rate : 25.000 FPS* L# ^, W! S1 B, c" M( k
Color space : YUV
1 _: Q! A1 Y) s+ BChroma subsampling : 4:2:0
4 d- c6 m5 u/ ~; D, n- y/ ~+ E5 C" PBit depth : 8 bits1 J+ P% c1 A# `- f5 T  v& m
Scan type : Progressive, e' A+ c4 V3 {8 x4 h; S# A' @
Bits/(Pixel*Frame) : 0.127
$ f9 y, j2 K4 E+ J' J/ TStream size : 8.20 GiB (99%)
( C( A, Q# |8 s% f7 q' T2 j; x1 MDefault : Yes
) ~$ e2 ~/ j6 N8 AForced : No2 U: ?. k. G! M5 L+ _1 }
$ R* c' I) G: w6 J9 ]: x

' i1 T# E1 Y/ E4 B# hAudio
  B1 _  j+ b- m7 HID : 2: _3 W, o+ v; U1 X) X5 P' u
Format : AAC LC# K  m  P6 |1 S* s- k- H3 \& P
Format/Info : Advanced Audio Codec Low Complexity
+ p6 s$ d; X& f0 KCodec ID : A_AAC-2
( i$ R* F$ g$ m5 DDuration : 44 min 36 s6 C, b' g5 M  B3 B% ^# c
Bit rate : 253 kb/s& T# Y- }* ^3 C: y
Channel(s) : 2 channels
- o6 i5 i! \8 A- F  ^9 r% EChannel layout : L R
+ W1 s3 |7 ^1 l: z* {* zSampling rate : 48.0 kHz
( O" b/ X3 r0 W7 ^4 FFrame rate : 46.875 FPS (1024 SPF)3 k/ Z' f/ ?. |9 B1 K1 [  f
Compression mode : Lossy
5 i9 {0 ~: |6 O8 eStream size : 80.8 MiB (1%)
) g# s, [) R5 }4 X" x& p' ~Language : English# ~' @  S) q* r# b8 X; a8 N9 P% O2 P( A
Default : Yes
3 y3 p8 y7 o6 g) DForced : No
& N# K+ k8 P1 Y2 Q$ s; b3 x8 \
; A* \: I% M; U/ I0 {& ]

  J9 ~1 F# a! v* mText #1
0 E) ~6 F4 m; ]: g0 Z/ s0 tID : 3
" y( r! A: f# R7 g# zFormat : UTF-8
/ t& V" E, [( R% V& U/ y0 u* \Codec ID : S_TEXT/UTF8
% D4 P% j7 A  l1 `; ^! ECodec ID/Info : UTF-8 Plain Text- y, F4 X; ]" U$ K2 l+ l  P
Duration : 43 min 47 s
6 ~0 B3 q0 i' x( l, N/ c# iBit rate : 98 b/s2 h  Z4 t- Y: ~3 @9 D9 i  f2 \
Count of elements : 800
- }, r  |3 ]( q/ Y1 \6 EStream size : 31.5 KiB (0%)3 U; E4 B+ M2 A1 L5 e6 J
Language : English
6 U  Q0 T! H1 Z& d3 E  _; eDefault : No4 x" m; q6 ?. l6 j2 d( }: m
Forced : No* h/ Q' r: u+ e) U& j, I

. z9 R+ F+ P/ p: k4 k

6 Z5 }" ]7 ~* B3 t, z& y- u8 ^Text #28 I: L5 n7 H5 L8 Y# ]- D6 r
ID : 4
7 [: W% F& S" `Format : UTF-88 ~" C; m$ g% J! l7 E% `) D
Codec ID : S_TEXT/UTF85 a( f; X. U! Q0 B9 W; G- O2 U
Codec ID/Info : UTF-8 Plain Text
& h$ a! U. V# X( wDuration : 43 min 54 s0 E6 }3 u: r* Q- a- `& u7 l
Bit rate : 102 b/s6 F; d, \+ t: s6 m8 y
Count of elements : 8777 y2 v# {: S. z2 F7 c! A, e
Stream size : 32.9 KiB (0%)
/ t0 t" Z4 G9 gTitle : SDH4 U) n9 _3 ~7 u, f0 z: V
Language : English
# f" Q' s3 r- _: b& V+ I1 Z, hDefault : No
% h2 v  x8 x, W( S6 c1 V5 N/ u0 YForced : No
0 g& P4 J9 Q9 H: f; q

8 l; O; K6 B0 V) W8 j5 K0 ^, W8 `6 L* I1 D
+ c3 |" z5 U* n, X都铎王朝的私生活4k.The.Private.Lives.of.the.Tudors.S01.2160p.WEB-DL.AAC2.0.x264-4k电影下载
- V6 K/ a6 v: x4 s$ e% D* r0 Z* `& o4 z: _3 l: q
都铎王朝的私生活4k.The.Private.Lives.of.the.Tudors.S01.2160p.WEB-DL.AAC2.0.x264【24.49 GB】# n+ R. \# {! ~7 c' T1 I
* Q8 r% P- l% x" }/ J3 }. ~* T6 C

! w2 l7 q% ?8 A( {, q9 h& a; r5 E4 j! D0 C( _5 R4 l& }
9 }: v5 A/ C- G0 ]% J0 l- S
登录 发布 快速回复 返回顶部 返回列表