开启辅助访问
 找回密码
 立即注册

Sheryl .2022.2160p.WEB-DL.x265.8bit.SDR.DD5.1-4k纪录片-9.82 GB

#4k记录视频#时间:2023-04-28 阅读:252 回复:0
112559oo8c48ztjfhnj0cx.png.jpg
( e+ Z; _5 i3 e# w% D4 R$ X& c. X
* Y7 k1 j' i+ J4 |5 b简       介
5 w, M: m" d6 Y$ H
1 z, ]/ l0 c4 Q) J7 E8 E& P
       一个关于歌曲和牺牲的亲密故事——具有音乐天赋的超级巨星雪莉·克劳(Sheryl Crow)在与性别歧视、年龄歧视、抑郁症、癌症和名望的代价作斗争的标志性而艰巨的音乐生涯中,在利用她的天赋的力量之前。' T% d! `3 r) M
影片参数
; I# M- N8 n- h4 t$ G5 }7 ?
Sheryl.2022.2160p.WEB-DL.x265.8bit.SDR.DD5.1-4k纪录片信息
1 v0 r$ F& g( X( K7 KVideo4 M' i- m9 R% W8 p" x( N# ]) j
ID : 1
/ d4 \. N; b7 V- n+ hFormat : HEVC
( ?9 n' K/ T% Z% cFormat/Info : High Efficiency Video Coding  w7 J4 ~' N, c& s
Format profile : Main@L5@Main
  [4 g# T& Q! a4 u6 x, ]Codec ID : V_MPEGH/ISO/HEVC  a  a  E" A" I6 z6 V8 O
Duration : 1 h 35 min2 Q6 ^) z. _. g
Bit rate : 14.1 Mb/s% g2 H) T# x7 K1 }, b% K
Width : 3 840 pixels& i' V' J  q+ I8 _
Height : 2 160 pixels
( {+ D5 F9 J: V# p1 m4 p; o6 LDisplay aspect ratio : 16:9, X  X% \+ a2 h; `! [1 U+ a0 i$ j! a. D. X
Frame rate mode : Constant0 T7 Y: K6 K! O2 V& Y/ f4 r) Q
Frame rate : 23.976 (24000/1001) FPS; I9 H( t3 U. @3 N) [+ g* F1 g; G
Color space : YUV
, s& a- d: w! k* }3 u: X* Z& x, BChroma subsampling : 4:2:0! l. d# X8 E* w1 t7 Y6 f$ s9 E5 v
Bit depth : 8 bits, N5 N5 I9 V- C$ u
Bits/(Pixel*Frame) : 0.071
" v( e3 b. z1 b+ t% I$ W+ lStream size : 9.37 GiB (95%)/ h: e) j4 m& R# q9 x" I- e/ w
Writing library : x265 3.5hy:[Linux][GCC 7.5.0][64 bit] 8bit
" ?0 f. ~$ [0 |9 Y6 r  {  S4 X) yEncoding settings : cpuid=1111039 / frame-threads=2 / wpp / no-pmode / no-pme / no-psnr / no-ssim / log-level=2 / input-csp=1 / input-res=3840x2160 / interlace=0 / total-frames=0 / level-idc=0 / high-tier=1 / uhd-bd=0 / ref=4 / no-allow-non-conformance / repeat-headers / annexb / aud / hrd / info / hash=0 / no-temporal-layers / no-open-gop / min-keyint=48 / keyint=48 / gop-lookahead=0 / bframes=4 / b-adapt=2 / b-pyramid / bframe-bias=0 / rc-lookahead=48 / lookahead-slices=4 / scenecut=0 / hist-scenecut=0 / radl=0 / no-splice / no-intra-refresh / ctu=64 / min-cu-size=8 / rect / no-amp / max-tu-size=32 / tu-inter-depth=1 / tu-intra-depth=1 / limit-tu=0 / rdoq-level=2 / dynamic-rd=0.00 / no-ssim-rd / signhide / no-tskip / nr-intra=100 / nr-inter=200 / no-constrained-intra / strong-intra-smoothing / max-merge=3 / limit-refs=3 / limit-modes / me=3 / subme=3 / merange=57 / temporal-mvp / no-frame-dup / no-hme / weightp / no-weightb / no-analyze-src-pics / deblock=0:0 / no-sao / no-sao-non-deblock / rd=4 / selective-sao=0 / no-early-skip / no-rskip / no-fast-intra / no-tskip-fast / no-cu-lossless / no-b-intra / no-splitrd-skip / rdpenalty=0 / psy-rd=0.00 / psy-rdoq=10.00 / no-rd-refine / no-lossless / cbqpoffs=0 / crqpoffs=0 / rc=abr / bitrate=15000 / qcomp=0.60 / qpstep=1 / stats-write=0 / stats-read=2 / cplxblur=20.0 / qblur=0.5 / vbv-maxrate=18000 / vbv-bufsize=12000 / vbv-init=0.6 / min-vbv-fullness=50.0 / max-vbv-fullness=80.0 / vbv-end=0.6 / vbv-end-fr-adj=0.0 / ipratio=1.10 / pbratio=1.00 / aq-mode=0 / aq-strength=0.00 / no-cutree / zone-count=0 / no-strict-cbr / qg-size=32 / rc-grain / qpmax=69 / qpmin=0 / const-vbv / sar=0 / overscan=0 / videoformat=5 / range=0 / colorprim=1 / transfer=1 / colormatrix=1 / chromaloc=0 / display-window=0 / cll=0,0 / min-luma=0 / max-luma=255 / log2-max-poc-lsb=8 / vui-timing-info / vui-hrd-info / no-concatenation / slices=1 / no-opt-qp-pps / no-opt-ref-list-length-pps / no-multi-pass-opt-rps / scenecut-bias=0.05 / hist-threshold=0.03 / no-opt-cu-delta-qp / no-aq-motion / no-hdr10 / no-hdr10-opt / no-dhdr10-opt / no-idr-recovery-sei / analysis-reuse-level=0 / analysis-save-reuse-level=0 / analysis-load-reuse-level=0 / scale-factor=0 / refine-intra=0 / refine-inter=0 / refine-mv=1 / refine-ctu-distortion=0 / no-limit-sao / ctu-info=0 / no-lowpass-dct / refine-analysis-type=0 / copy-pic=1 / max-ausize-factor=1.0 / no-dynamic-refine / no-single-sei / no-hevc-aq / no-svt / no-field / qp-adaptation-range=1.00 / scenecut-aware-qp=0conformance-window-offsets / right=0 / bottom=0 / decoder-max-rate=0 / no-vbv-live-multi-pass
2 |. n/ k% S$ a3 t$ nDefault : Yes
# D4 O5 }. g6 S% q  S( PForced : No6 h( R# A3 Q9 J2 t& w* I: d
Color range : Limited$ t, U1 u; {% F4 [
Color primaries : BT.7099 A/ z' J; W* E" V2 v  ?
Transfer characteristics : BT.709
7 S  A( ^1 d; ^3 v3 p% j; sMatrix coefficients : BT.7093 k( m  B- d' C8 q( ^7 m1 p

# B/ h% u' ]) ^9 T2 p) Z) q

$ c! w+ e3 |: w5 XAudio
$ z$ \) w9 c9 Z" q. C: qID : 2
8 M* G& _7 n1 ]; C: cFormat : AC-3" |; B! }) ^2 D- H
Format/Info : Audio Coding 3
1 }& T( l/ j1 QCommercial name : Dolby Digital$ |- [# O9 A# c; L  G
Codec ID : A_AC3
  e( q% E* M" V. m; B) d' ~, JDuration : 1 h 35 min
' h& T6 V, `. D! ~Bit rate mode : Constant
6 z% G# Y& o+ Q" ?) [6 jBit rate : 384 kb/s
# u4 j7 y! N3 y  L0 WChannel(s) : 6 channels
: z3 ^. O1 a  t* aChannel layout : L R C LFE Ls Rs" k5 }. S% ~3 I! y& r# D0 u4 T
Sampling rate : 48.0 kHz% i+ A  Y4 p. L1 h) s
Frame rate : 31.250 FPS (1536 SPF)6 y* G0 D: W3 q" u9 f
Compression mode : Lossy
8 [$ C/ S7 ?; t- [% gStream size : 261 MiB (3%)
% C, e4 ?# t3 ^( o$ D$ F  c# cLanguage : English
1 J/ R& {4 P0 V) P$ O4 w0 A) ~( eService kind : Complete Main" p7 `; A8 F0 ?( Y9 `8 s
Default : Yes. ~! ~. t/ E) q6 d% a
Forced : No
/ _+ c/ T# @4 E, H# O
: o9 @: o  Z' G  g4 e* t1 n* f3 ^

& ]% s0 C9 V% q" I, e, s/ JText1 L, `% e" w2 R
ID : 3
& k9 r5 f' [( ?: sFormat : UTF-8/ i8 Z1 P% p$ P( \. p4 r! W4 W& D
Codec ID : S_TEXT/UTF88 j3 [/ s5 F+ A4 [2 N! _* x
Codec ID/Info : UTF-8 Plain Text9 G7 j. T1 K( k% Z( `
Title : English2 |" T" X# o% c4 g
Language : English
5 ~$ J8 ?' A- m' S8 G' Q) rDefault : No" ~9 B. T% G2 g
Forced : No
/ P3 u* [+ q1 o3 [4 K1 m

4 \. T) G/ P. T: ?
9 Y) q6 {# }" a+ f/ j9 C" g. X1 F( s1 r6 |4 G
Sheryl.2022.2160p.WEB-DL.x265.8bit.SDR.DD5.1-4k纪录片下载
# f% a( Y$ J5 J
8 ~. Z8 X. q2 X. |* ZSheryl.2022.2160p.WEB-DL.x265.8bit.SDR.DD5.1【4k SDR 9.82 GB】
* h9 V4 _+ F, E5 A1 A8 R# g: ]8 N8 y2 {5 H+ G& I- E
9 A: K! m- e5 N0 K* |
' ~& {8 X/ h2 i8 D8 U

( i3 ]5 u: l( A( X% }$ ]9 C7 z  e5 q6 Z
登录 发布 快速回复 返回顶部 返回列表