开启辅助访问
 找回密码
 立即注册

Sheryl .2022.2160p.WEB-DL.x265.8bit.SDR.DD5.1-4k纪录片-9.82 GB

#4k记录视频#时间:2023-04-28 阅读:174 回复:0
112559oo8c48ztjfhnj0cx.png.jpg # Y" }1 u6 r- [) \/ S
. q1 u! J$ P1 Q
简       介
! U) k! j. o9 C( x8 I- X8 W. d, U

6 W( @6 ~& w+ L4 P       一个关于歌曲和牺牲的亲密故事——具有音乐天赋的超级巨星雪莉·克劳(Sheryl Crow)在与性别歧视、年龄歧视、抑郁症、癌症和名望的代价作斗争的标志性而艰巨的音乐生涯中,在利用她的天赋的力量之前。1 G; I4 u( R1 V) k* a& k
影片参数
9 W' t8 b7 w, E5 d
Sheryl.2022.2160p.WEB-DL.x265.8bit.SDR.DD5.1-4k纪录片信息
0 l  W; F& ~" Y/ W/ `+ ?Video+ L/ y, T# n3 S+ o* e8 h
ID : 1+ P/ J, Q& L0 `8 q* y+ e; _1 {
Format : HEVC
: g# c# Y7 J9 |( q1 xFormat/Info : High Efficiency Video Coding' G+ ?0 ?3 s& b& H
Format profile : Main@L5@Main
: f" X: r. x* J2 W8 }; P' aCodec ID : V_MPEGH/ISO/HEVC. [# M7 i4 H- F$ Z* o/ @2 a2 l6 r
Duration : 1 h 35 min% Q( {# J5 _/ ~" Q& x8 g
Bit rate : 14.1 Mb/s3 h( Q) |& D4 @9 e* J
Width : 3 840 pixels
* n8 g# p2 J' i8 dHeight : 2 160 pixels
9 G3 I2 d2 V. S! {2 |" j0 MDisplay aspect ratio : 16:9
' O2 q/ p( D8 ?2 X% y, w7 fFrame rate mode : Constant
- W' }9 o6 m/ I  RFrame rate : 23.976 (24000/1001) FPS
' ]% a, s8 M/ r$ S. g/ c% ^- r% iColor space : YUV
; n- H9 P9 Q" a% _5 FChroma subsampling : 4:2:0! l6 w( A2 W. \+ F* l
Bit depth : 8 bits+ Y5 O9 Q! _. A; {* w0 h* n
Bits/(Pixel*Frame) : 0.071
# Z. R% f1 @/ m' c, c$ yStream size : 9.37 GiB (95%)! O3 Q. t3 N) {
Writing library : x265 3.5hy:[Linux][GCC 7.5.0][64 bit] 8bit
9 R9 a, O) t' ], O* kEncoding settings : cpuid=1111039 / frame-threads=2 / wpp / no-pmode / no-pme / no-psnr / no-ssim / log-level=2 / input-csp=1 / input-res=3840x2160 / interlace=0 / total-frames=0 / level-idc=0 / high-tier=1 / uhd-bd=0 / ref=4 / no-allow-non-conformance / repeat-headers / annexb / aud / hrd / info / hash=0 / no-temporal-layers / no-open-gop / min-keyint=48 / keyint=48 / gop-lookahead=0 / bframes=4 / b-adapt=2 / b-pyramid / bframe-bias=0 / rc-lookahead=48 / lookahead-slices=4 / scenecut=0 / hist-scenecut=0 / radl=0 / no-splice / no-intra-refresh / ctu=64 / min-cu-size=8 / rect / no-amp / max-tu-size=32 / tu-inter-depth=1 / tu-intra-depth=1 / limit-tu=0 / rdoq-level=2 / dynamic-rd=0.00 / no-ssim-rd / signhide / no-tskip / nr-intra=100 / nr-inter=200 / no-constrained-intra / strong-intra-smoothing / max-merge=3 / limit-refs=3 / limit-modes / me=3 / subme=3 / merange=57 / temporal-mvp / no-frame-dup / no-hme / weightp / no-weightb / no-analyze-src-pics / deblock=0:0 / no-sao / no-sao-non-deblock / rd=4 / selective-sao=0 / no-early-skip / no-rskip / no-fast-intra / no-tskip-fast / no-cu-lossless / no-b-intra / no-splitrd-skip / rdpenalty=0 / psy-rd=0.00 / psy-rdoq=10.00 / no-rd-refine / no-lossless / cbqpoffs=0 / crqpoffs=0 / rc=abr / bitrate=15000 / qcomp=0.60 / qpstep=1 / stats-write=0 / stats-read=2 / cplxblur=20.0 / qblur=0.5 / vbv-maxrate=18000 / vbv-bufsize=12000 / vbv-init=0.6 / min-vbv-fullness=50.0 / max-vbv-fullness=80.0 / vbv-end=0.6 / vbv-end-fr-adj=0.0 / ipratio=1.10 / pbratio=1.00 / aq-mode=0 / aq-strength=0.00 / no-cutree / zone-count=0 / no-strict-cbr / qg-size=32 / rc-grain / qpmax=69 / qpmin=0 / const-vbv / sar=0 / overscan=0 / videoformat=5 / range=0 / colorprim=1 / transfer=1 / colormatrix=1 / chromaloc=0 / display-window=0 / cll=0,0 / min-luma=0 / max-luma=255 / log2-max-poc-lsb=8 / vui-timing-info / vui-hrd-info / no-concatenation / slices=1 / no-opt-qp-pps / no-opt-ref-list-length-pps / no-multi-pass-opt-rps / scenecut-bias=0.05 / hist-threshold=0.03 / no-opt-cu-delta-qp / no-aq-motion / no-hdr10 / no-hdr10-opt / no-dhdr10-opt / no-idr-recovery-sei / analysis-reuse-level=0 / analysis-save-reuse-level=0 / analysis-load-reuse-level=0 / scale-factor=0 / refine-intra=0 / refine-inter=0 / refine-mv=1 / refine-ctu-distortion=0 / no-limit-sao / ctu-info=0 / no-lowpass-dct / refine-analysis-type=0 / copy-pic=1 / max-ausize-factor=1.0 / no-dynamic-refine / no-single-sei / no-hevc-aq / no-svt / no-field / qp-adaptation-range=1.00 / scenecut-aware-qp=0conformance-window-offsets / right=0 / bottom=0 / decoder-max-rate=0 / no-vbv-live-multi-pass$ e0 i$ c) L$ |& \
Default : Yes0 t" t7 _# S5 Q2 Z
Forced : No
( [! s1 l6 Y* }( T4 U, z/ IColor range : Limited+ _% }# F$ {$ G5 b
Color primaries : BT.709
: `( n9 n3 y3 Z9 |& JTransfer characteristics : BT.709' V- R3 n, S5 e8 S4 `
Matrix coefficients : BT.709
2 p+ B8 S9 c8 u3 c5 t
5 r& Z! D1 S  h" h, Q  F% \
5 z" \9 ]7 X% m& e4 d3 |
Audio* A8 w2 x: p# P1 p4 \
ID : 2
; S* e, D( `5 U( A: @+ HFormat : AC-3
2 A3 M4 t& l/ dFormat/Info : Audio Coding 3/ B3 ~5 ]) y4 Y6 w+ [% q+ r
Commercial name : Dolby Digital
+ ]' h5 u) R" {# P" d0 c! {Codec ID : A_AC3# W6 u5 |" q+ f! @& _6 I
Duration : 1 h 35 min- F" _6 c5 t0 q+ A7 ]. Q- f
Bit rate mode : Constant
( M9 H0 Y. D: P( G  s0 c" C3 I8 m$ R$ fBit rate : 384 kb/s
2 e" T) q- J; i; n5 d8 m1 ?Channel(s) : 6 channels! D5 ^  k0 r' }) A6 J9 f
Channel layout : L R C LFE Ls Rs$ J& d7 o3 q9 e5 k0 H' j
Sampling rate : 48.0 kHz- n9 r1 b8 n# U& R, L5 k
Frame rate : 31.250 FPS (1536 SPF)
2 o3 Y: X# r, w& K3 I: `2 YCompression mode : Lossy6 `0 Z6 [2 F) U- o+ `" Q5 Z
Stream size : 261 MiB (3%)9 ?& X% g- T5 u; l
Language : English& f8 C. u- ~, z2 W8 ^$ @
Service kind : Complete Main3 k5 W0 q' R, n" a* f7 @! U- M
Default : Yes
# J* U% S; `/ s+ N- ?2 v& sForced : No
& z' T+ d' i7 x; D5 |4 z
- h# {2 W8 @# L8 f0 ^) C, F& {0 i% [7 x

2 q: v/ d) ^4 V; W! E8 uText- }( _  O1 Y0 L) Z
ID : 36 \( v, Z9 x& ?/ v! F% |
Format : UTF-8
1 ^' p8 ]& [6 ^& S1 [% ?Codec ID : S_TEXT/UTF8
& ~1 m4 w; t% [& H9 l. P$ i9 pCodec ID/Info : UTF-8 Plain Text
! ~, W1 l5 Q7 h' D4 H" mTitle : English$ W/ r6 @* m* a, g- _3 i" t; \
Language : English/ @' @, g6 k! F4 A
Default : No' k: X0 u) n* V9 k3 y: N) {, t
Forced : No
; {1 O+ b; A9 A- f/ g$ N
6 f  r4 r% z- @+ ]6 o

. M' s3 b3 x" }* d: O; f4 A4 f
7 u, S! g( p* U) q( w# b' N) lSheryl.2022.2160p.WEB-DL.x265.8bit.SDR.DD5.1-4k纪录片下载: z& [* P) A! J9 `
3 V& X+ z/ f8 {* @$ K) r: W5 L& t. K
Sheryl.2022.2160p.WEB-DL.x265.8bit.SDR.DD5.1【4k SDR 9.82 GB】$ c( b# l. M! q6 C' W' H5 Q5 S
4 L, p" R, i; Q# a+ i) `
7 x6 C# m8 [, i4 _- b
) C7 n* K$ N) z: E$ g0 F
4 m( m/ ~4 f$ T/ w' q; w

3 L. S" O9 ]; R2 S
登录 发布 快速回复 返回顶部 返回列表