开启辅助访问
 找回密码
 立即注册

伊丽莎白 Elizabeth.A.Portrait.in.Parts.2022.2160p.WEB-DL.x265.10bit.HDR.DD5.1-4k纪录片-9.12 GB

#4k记录视频#时间:2023-04-28 阅读:206 回复:0
113846ulkfhtrkykhvl5h2.jpg.jpg . c1 `, ~: j6 t8 e9 N# Q2 j

1 l6 M8 g7 x  N7 g& B* h& p5 ~简       介

4 u0 Z6 z1 n( K7 B, T5 ^" R
8 @. ~; N  \  b* @. L  2022 年,英国女王伊丽莎白二世庆祝她在位 70 周年;她的“白金禧年”。浪漫喜剧《诺丁山》的导演汇集了令人难以置信的档案,为此——就在他自己去世之前——创作了一部怀旧、俏皮、新鲜和现代的编年史,讲述了这位担任国家元首时间最长的女性。' w# |! ?! Q% l2 f0 W( j1 [
& @3 b. ~& V! x" U6 x

/ r/ O2 t% B/ W" `' {* e, d影片参数
' n: T$ ], b: g7 v0 s; G: P
Elizabeth.A.Portrait.in.Parts.2022.2160p.WEB-DL.x265.10bit.HDR.DD5.1-4k纪录片信息9 a' b" Q" W0 y
Video
" P1 _$ p3 D# ^  \( [' A: j# T5 J. K" HID : 1
! z* K" F/ M5 @( i7 t% H) rFormat : HEVC
: }4 c( i; `. Q2 p: t1 mFormat/Info : High Efficiency Video Coding
, A8 Q; s' ^8 L3 q# g7 r7 A' \Format profile : Main 10@L5@Main
  y. c, v, R2 y+ q! ZHDR format : SMPTE ST 2086, HDR10 compatible
7 c9 Q& u" a, C7 `2 ~+ eCodec ID : V_MPEGH/ISO/HEVC  M8 ]$ Q8 _1 f1 p; I
Duration : 1 h 29 min
5 c, q  m& }, n" x5 q* L# CBit rate : 13.9 Mb/s
' ]& V' v' C# D5 o7 DWidth : 3 840 pixels
% U6 f! L/ @% c* t2 O2 JHeight : 2 160 pixels
2 i3 k1 f0 |6 f5 a0 A* `: JDisplay aspect ratio : 16:9$ \$ a0 E" a- S
Frame rate mode : Constant
, R+ a% t$ ?  i1 m# wFrame rate : 23.976 (24000/1001) FPS
0 A' Y* o0 l* p/ j, L! v/ A' S" ZColor space : YUV* K6 p- A/ V3 M7 h( D; n$ W4 ^% B
Chroma subsampling : 4:2:0
- j0 W) q* t8 G4 n' l$ A$ [1 |( X: hBit depth : 10 bits
; y" q: k% H. E. ?1 iBits/(Pixel*Frame) : 0.070
3 Z% f! ^- D# IStream size : 8.69 GiB (95%), ^! p' U% Q- i: a! V# H* {
Writing library : x265 3.4hy:[Linux][GCC 7.5.0][64 bit] 10bit% _' U+ |% n  O* D: \9 ?- f3 f
Encoding settings : cpuid=1111039 / frame-threads=6 / no-wpp / no-pmode / no-pme / no-psnr / no-ssim / log-level=2 / input-csp=1 / input-res=3840x2160 / interlace=0 / total-frames=0 / level-idc=0 / high-tier=1 / uhd-bd=0 / ref=4 / no-allow-non-conformance / repeat-headers / annexb / aud / hrd / info / hash=0 / no-temporal-layers / no-open-gop / min-keyint=48 / keyint=48 / gop-lookahead=0 / bframes=4 / b-adapt=2 / b-pyramid / bframe-bias=0 / rc-lookahead=48 / lookahead-slices=4 / scenecut=0 / hist-scenecut=0 / radl=0 / no-splice / no-intra-refresh / ctu=64 / min-cu-size=8 / rect / no-amp / max-tu-size=32 / tu-inter-depth=1 / tu-intra-depth=1 / limit-tu=0 / rdoq-level=2 / dynamic-rd=0.00 / no-ssim-rd / signhide / no-tskip / nr-intra=100 / nr-inter=400 / no-constrained-intra / strong-intra-smoothing / max-merge=3 / limit-refs=3 / limit-modes / me=3 / subme=3 / merange=57 / temporal-mvp / no-frame-dup / no-hme / weightp / no-weightb / no-analyze-src-pics / deblock=0:0 / sao / no-sao-non-deblock / rd=4 / selective-sao=4 / no-early-skip / rskip / no-fast-intra / no-tskip-fast / no-cu-lossless / no-b-intra / no-splitrd-skip / rdpenalty=0 / psy-rd=0.00 / psy-rdoq=1.00 / no-rd-refine / no-lossless / cbqpoffs=0 / crqpoffs=3 / rc=abr / bitrate=15000 / qcomp=0.60 / qpstep=4 / stats-write=0 / stats-read=2 / cplxblur=20.0 / qblur=0.5 / vbv-maxrate=18000 / vbv-bufsize=12000 / vbv-init=0.6 / vbv-end=0.6 / vbv-end-fr-adj=0.0 / ipratio=1.40 / pbratio=1.30 / aq-mode=2 / aq-strength=1.00 / cutree / zone-count=0 / no-strict-cbr / qg-size=32 / no-rc-grain / qpmax=69 / qpmin=0 / no-const-vbv / sar=1 / overscan=0 / videoformat=5 / range=0 / colorprim=9 / transfer=16 / colormatrix=9 / chromaloc=0 / display-window=0 / master-display=G(13250,34500)B(7500,3000)R(34000,16000)WP(15635,16450)L(10000000,1) / cll=1026,97 / min-luma=0 / max-luma=1023 / log2-max-poc-lsb=8 / vui-timing-info / vui-hrd-info / no-concatenation / slices=1 / no-opt-qp-pps / no-opt-ref-list-length-pps / no-multi-pass-opt-rps / scenecut-bias=0.05 / hist-threshold=0.01 / no-opt-cu-delta-qp / no-aq-motion / hdr10 / no-hdr10-opt / no-dhdr10-opt / no-idr-recovery-sei / analysis-reuse-level=0 / analysis-save-reuse-level=0 / analysis-load-reuse-level=0 / scale-factor=0 / refine-intra=0 / refine-inter=0 / refine-mv=1 / refine-ctu-distortion=0 / no-limit-sao / ctu-info=0 / no-lowpass-dct / refine-analysis-type=0 / copy-pic=1 / max-ausize-factor=1.0 / no-dynamic-refine / no-single-sei / no-hevc-aq / no-svt / no-field / qp-adaptation-range=1.00 / no-scenecut-aware-qpconformance-window-offsets / right=0 / bottom=0 / decoder-max-rate=0
( E( R5 L& x9 ]2 J8 H6 Q) FDefault : Yes
+ \/ W- ^/ G, u' F+ l; a9 dForced : No
! L% g1 p' V/ ]  e6 xColor range : Limited! [* V( v) Q, R5 `% ^2 o
Color primaries : BT.2020
, w  i( _) a: K* g) CTransfer characteristics : PQ
. e. J( u2 K2 q0 L) V" sMatrix coefficients : BT.2020 non-constant  b, T9 |) H) Y# [/ g
Mastering display color primaries : Display P3" \! w& \0 a$ V! d) M8 ~
Mastering display luminance : min: 0.0001 cd/m2, max: 1000 cd/m2" F+ j: F, v% m2 S
Maximum Content Light Level : 1026 cd/m2! k6 A2 l6 q, F2 J1 D* Q$ J
Maximum Frame-Average Light Level : 97 cd/m2$ K' U/ M' F% ]5 i  D; j
* b$ v, a; [# L: q  D4 B/ _

! l) U# R8 p" E8 Q: jAudio
, d0 t7 s3 N3 }1 K7 tID : 2
; I1 E" V) h: c$ Y% n& [( kFormat : AC-3& I- T' J; \* g* \: C: j
Format/Info : Audio Coding 33 _" s* R; K7 w1 `/ S1 \* `' u
Commercial name : Dolby Digital
* P! [7 O, V% y' X( PCodec ID : A_AC3
) e/ h9 c! {8 a% Y  d- w* ^Duration : 1 h 29 min- k2 F- v; e3 n& C
Bit rate mode : Constant
+ J9 a! ?$ M4 `. w1 ]8 c- o6 YBit rate : 384 kb/s. I; Z3 W5 i, ~$ h/ ?
Channel(s) : 6 channels
" D- c) q& M- K) N" t# xChannel layout : L R C LFE Ls Rs
; l: E$ X. k" \* f$ q: q7 r4 ~Sampling rate : 48.0 kHz
3 b5 R  m1 b% p! J0 GFrame rate : 31.250 FPS (1536 SPF)
9 A4 j- h, ]) Q8 n& b1 @, H4 kCompression mode : Lossy+ c6 u/ m+ U3 D8 y
Stream size : 246 MiB (3%)
) }  T1 v" N$ `- SLanguage : English- z1 F: r* C5 T  d, U7 B  A0 L
Service kind : Complete Main
& J  ?9 z- Z6 s- @* [Default : Yes
9 T2 K, [8 L9 ?2 _Forced : No
9 H! ~& J/ \% g! \8 q5 b
1 t5 _: A$ A* Z6 ~) G, p" V0 q, D
; s. `3 M/ g  D& U( Q+ u
Text* y9 P- s. D$ ~! B$ g, R9 @) M
ID : 37 K" k0 |6 @6 Q. w# D
Format : UTF-8
3 h+ ^9 Z" a$ e- r# c4 {Codec ID : S_TEXT/UTF85 Q3 ~2 l+ h8 X4 g) M4 n# l
Codec ID/Info : UTF-8 Plain Text1 W* U+ S0 c5 t% u# b) }7 O! g
Title : English/ y, E, _( E' j
Language : English
* ?) V' ?4 z* N1 gDefault : No- i8 X6 T0 Y. c7 @$ O4 s
Forced : No
( M% B7 B# \  T& V) |" Z/ i

  M3 Y( Q9 T7 W! W" B& [
8 r' O- T* O; s  V2 ~# P& h/ d5 U! Z. i+ E: M0 e* s
. O/ L+ H( `8 O1 T6 q0 I- Q8 N

1 u; B% r% S9 S) n& R) {) XElizabeth.A.Portrait.in.Parts.2022.2160p.WEB-DL.x265.10bit.HDR.DD5.1-4k纪录片下载
4 Y. e6 @  P/ r3 T( E2 i0 `  q3 s8 a# d* G8 d
Elizabeth.A.Portrait.in.Parts.2022.2160p.WEB-DL.x265.10bit.HDR.DD5.1【4k HDR 9.12 GB】% G0 r6 r( ~5 A. z+ T0 D
; L7 t  S  ]- o4 R
: X- _: _6 S, |& p# ~
Elizabeth.A.Portrait.in.Parts.2022.2160p.WEB-DL.x265.8bit.SDR.DD5.1【4k SDR 9.11GB】! ]; C: d1 H2 p+ F) i

5 b* x( o1 Q& I8 n) a6 w+ r1 y, I$ [# X
Elizabeth.A.Portrait.in.Parts.2022.2160p.WEB-DL.DD5.1.DV.MP4.x265【4k 杜比视界 9.23 GB】
; C1 _6 `; n3 O% h. C( ^0 }  N6 r3 f6 b7 F# E2 `/ h
" N& K; K1 q3 n2 }6 h1 m
Elizabeth.A.Portrait.in.Parts.2022.2160p.WEB-DL.DD5.1.DV.MKV.x265【4k 杜比视界 9.23 GB】
7 J& k0 a8 J! z0 n0 U# T
( [+ R$ A3 R  `2 r5 i2 ~
1 w  x1 R  s0 x
$ T6 J) n- B0 y8 t* F6 z# a# L
9 m- O* s1 }6 C% C
  S; L" r" u+ ?* I# j. T

1 y( U: w) l+ C* U6 M/ @5 s
登录 发布 快速回复 返回顶部 返回列表