开启辅助访问
 找回密码
 立即注册

深海阴谋(港) / 海洋阴谋(台)/渔业阴谋4k.Seaspiracy.2021.2160p.NF.WEB-DL.x265.10bit.SDR.DDP5.1-4k电影-7.76 GB

#4k记录视频#时间:2023-04-28 阅读:232 回复:0
111056vs1ud15kld522c3z.jpg.jpg $ n+ O( N0 V; g- K9 E$ c# `

8 p! S! y6 D& O; w简       介
+ c8 w4 b8 o, I, p

2 O5 S2 ?+ z7 a. Y  开创性纪录片《奶牛阴谋》的联合创剧人带来《海洋阴谋》,这部后续纪录片揭示了令人担忧的事实:人类行为已对海洋环境造成广泛的破坏,但这点却鲜为人知。电影制作人阿里·塔瑞兹原本只打算拍摄他心爱的海洋,但后来却发现自己在审视人类对脆弱的海洋所造成的伤害。从污染水域的塑料和渔具,到底拖作业和副渔获造成的不可挽回的破坏,再到非法捕鱼和毁灭性的狩猎行为,人类正在对海洋生物造成重创,进而威胁到整个地球。塔瑞兹的最终发现不仅挑战了可持续捕鱼的理念,任何人如果关注海洋生命、地球的未来以及人类和地球的关系,都将从中得到警示。4 o7 K0 \# e0 H6 @  r8 |+ @$ Z3 V
1 G: A5 ~5 s) X2 v! A8 ~
影片参数
) z0 N0 q! ?/ H9 s% K
深海阴谋(港) / 海洋阴谋(台)/渔业阴谋4k.Seaspiracy.2021.2160p.NF.WEB-DL.x265.10bit.SDR.DDP5.1-信息
4 }. z& B2 @* X# FVideo
5 R& @4 l, y  G  P$ X  GID : 17 L9 k$ \. `# B, h
Format : HEVC* R9 z2 k1 t* {/ s. c
Format/Info : High Efficiency Video Coding1 w4 Z, h+ c$ o- P8 _
Format profile : Main 10@L5@Main
* I* f. q/ L  W- zCodec ID : V_MPEGH/ISO/HEVC
9 Y8 I& q5 i. x8 Z0 e  x2 aDuration : 1 h 30 min6 j/ L/ O# s, j& X% v2 g+ j
Bit rate : 11.7 Mb/s
; h% C! p. y5 }6 g% IWidth : 3 840 pixels
9 ]. a- [7 @& d4 B1 ~8 s  v! d6 z8 eHeight : 2 160 pixels+ i1 ?% z4 a; f$ w- R
Display aspect ratio : 16:9
+ ]: E$ c* l& o" f. z4 C# QFrame rate mode : Constant
: @) S0 v& `3 u9 ?Frame rate : 23.976 (24000/1001) FPS
7 ]0 v& a2 T3 B' y. H; GColor space : YUV$ Q) P/ ?( _9 O. [: q6 H/ Q; X/ e
Chroma subsampling : 4:2:0
! \! T+ B. ]/ O# d; `Bit depth : 10 bits( I+ Z: l! P* q+ \5 D
Bits/(Pixel*Frame) : 0.059
* \% b+ @* q9 V# T: Q( T- IStream size : 7.36 GiB (95%)% e3 q, U+ r  X; S1 c/ z
Default : Yes
9 v4 U, b1 E; k5 v1 v( y5 ]Forced : No) T9 n( U  ^' V. i
Color range : Limited/ M# t+ H8 l6 F4 a0 H
Color primaries : BT.709
: k3 _1 P6 y9 D5 xTransfer characteristics : BT.709$ H" A5 w  T" d
Matrix coefficients : BT.7092 Q0 c7 T, c4 ?" U
# s- Z; M3 l2 U! N: g; ?: F& z% b
Audio
* G/ T" m' q# xID : 2
9 k( a$ C7 V) L: ?Format : E-AC-3& W# U7 M: t" L/ f6 ]  C
Format/Info : Enhanced AC-3
1 L/ `  T: Q  W  G6 e3 kCommercial name : Dolby Digital Plus  w" w! ]0 s% q5 ^( H2 {
Codec ID : A_EAC3
! I% l, n; F" O3 H, Y! GDuration : 1 h 30 min& p! C8 a" O" z+ I4 I2 C
Bit rate mode : Constant7 M" T/ |5 `/ d7 J6 [8 L
Bit rate : 640 kb/s
3 t, w9 p2 E6 W$ x. @- Y4 ~Channel(s) : 6 channels
1 t. u  g. _0 m/ AChannel layout : L R C LFE Ls Rs
  @) b. W. l3 s! ?. ]. z2 ?. vSampling rate : 48.0 kHz6 o; D3 M+ c" z% e6 n. ^& O
Frame rate : 31.250 FPS (1536 SPF)% |3 W4 e+ T6 B; O$ {
Compression mode : Lossy0 D) T3 O0 z. g% f# }
Stream size : 413 MiB (5%)( G/ k8 i! d# x/ ?6 c1 i# e# {
Title : English) r; }) \  M/ q8 O
Language : English7 k! F" Q1 J" K- F- E8 a
Service kind : Complete Main2 {) d1 m- \7 T. u6 N
Default : Yes. {( W7 d7 Z1 _' U0 l# E
Forced : No. p1 k3 H: d, d! y
2 g9 u2 E4 _: X: B1 P
Text #12 e( u2 H8 V5 `* G& k' X
ID : 3! O9 i; i6 ^* {0 B) V; M
Format : UTF-8
$ H3 O, b: K. M* x: Z; p) l; y& cCodec ID : S_TEXT/UTF8
% q2 d+ V! y9 N: p5 R8 H8 tCodec ID/Info : UTF-8 Plain Text
0 Z+ P5 G2 V- K' }6 ~Duration : 1 h 28 min
5 g8 J2 v0 B  W0 N4 e0 ^Bit rate : 150 b/s
& m8 n9 s- A, V$ z5 y; _6 |Count of elements : 1699
8 j( m: d. w0 y8 H, AStream size : 97.3 KiB (0%)+ c2 M. a0 [2 ]  r+ u- _
Title : English# ~! e% C" _$ M5 m9 [" T3 }" q
Language : English' s' Z) H1 \. @1 l, k; N" ?8 M: V- |$ ]0 c
Default : Yes- h, W. P/ G9 t. F# t9 z" o3 R2 b
Forced : No2 A1 {; o+ C0 G; h" H) d0 V8 {
0 s8 p/ E8 H, N7 x
Text #2
# |% w7 {9 q( B- K# a; TID : 4, m. `' D9 T1 k* |+ U
Format : UTF-8# Z, v' Z9 ^( S% ]
Codec ID : S_TEXT/UTF8
/ J% d7 i8 l  z$ I8 j1 vCodec ID/Info : UTF-8 Plain Text# l5 F7 i- L% [( g9 X! ]
Duration : 1 h 11 min, w8 O) X7 }$ X/ z
Bit rate : 4 b/s' j# ?9 s8 E- T- w" X$ g
Count of elements : 58
0 F6 G$ z# c1 e2 TStream size : 2.24 KiB (0%)% z6 R6 M1 O+ v. \* t
Title : Forced
! R( p7 F, \/ o: v6 _# PLanguage : English
4 G- @$ o9 O8 h$ A( r* D( c( XDefault : No6 h4 h% q1 R; [5 w5 |5 y) y
Forced : Yes* O, R; l  R% T. d' i! B; @
- A$ ]% g1 \! ^" Q# X4 P
Text #3+ G  D, j- N6 j  c+ Z
ID : 5
* J4 A. k4 o- P6 Z* x6 o7 {% e. vFormat : UTF-8
( Y  h/ T9 g* f) A, p$ ZCodec ID : S_TEXT/UTF8- B5 t7 f4 Y5 u; a- D* `
Codec ID/Info : UTF-8 Plain Text! n* c2 {& P4 K+ f8 u; l
Duration : 1 h 28 min
' W2 A' D0 a" LBit rate : 187 b/s  ~0 p) a% w! ?! U
Count of elements : 1682* ^; J5 M  {# S) f
Stream size : 122 KiB (0%)3 f5 p- h1 s6 E. p- Y# _+ t: l
Title : Arabic
. Y3 G6 _! m! Y( L/ d7 p( ]Language : Arabic
: F2 |6 c. l. ?) A$ \: U2 Y1 ^' ADefault : No
2 j' f' D) z9 j8 Q4 x3 s, IForced : No
! D! t4 a$ d0 Y4 U$ J

0 `5 r) c0 t$ p( ]/ r  x  {Text #4# X+ Q  S8 e' O! v/ k! e
ID : 6* d* ~  F( E: o" V
Format : UTF-8
; Y$ o. u) d4 u4 \3 ~/ U- m$ A0 YCodec ID : S_TEXT/UTF8
' ?- }1 N; v! s( E* ICodec ID/Info : UTF-8 Plain Text* X" N2 k2 ?! ~9 I. ~8 P
Duration : 1 h 28 min
: m1 W- ^. A: K/ zBit rate : 104 b/s
$ w) X7 W5 I2 o6 I' r; B: L$ i, NCount of elements : 1614% x; K1 i0 R) [+ P
Stream size : 67.9 KiB (0%)0 j4 w# i% [" c; G: W. s4 @3 \: ^+ d
Title : Chinese Simplified7 q0 G! ?* }% o7 B
Language : Chinese
8 ^, P" d1 b  H. LDefault : No
3 f- n7 T' S! ]( a0 q! _  SForced : No, e. z, b: ], f! H" c

) _2 f1 L; {2 q: ]Text #5- D7 ^9 A8 ^, J& ^
ID : 7
+ W! \; z3 \& S5 L/ zFormat : UTF-8
; |  Z# P$ |( f) k+ g9 ACodec ID : S_TEXT/UTF8; A$ l0 t2 e3 i
Codec ID/Info : UTF-8 Plain Text6 q) }5 G! r5 e5 M1 G1 W  a
Duration : 1 h 28 min
" M3 R, z, Q# d# ~# W6 LBit rate : 93 b/s
* _+ ~+ ]4 W# W. H6 r- z, o+ UCount of elements : 1698
, C. n, n  ?8 b1 c9 B# Y2 NStream size : 60.9 KiB (0%)
1 O% D4 C; \7 F# o7 T7 Y3 \Title : Chinese Traditional
. F* \( q3 P/ W$ s% B8 y* RLanguage : Chinese
) z3 x& {8 D' ^  {Default : No
/ [2 R0 j$ T4 Q% Y  f$ gForced : No
9 g( A) q  d; B) e
6 ]- S, _" b% K, _+ `3 f

# f6 b) T, l# @% x8 `深海阴谋(港) / 海洋阴谋(台)/渔业阴谋4k.Seaspiracy.2021.2160p.NF.WEB-DL.x265.10bit.SDR.DDP5.1-4k电影下载
1 }8 G9 D! j) d, e9 r
) U" I5 b( R! ~$ J渔业阴谋4k.Seaspiracy.2021.2160p.NF.WEB-DL.x265.10bit.SDR.DDP5.1简繁中字【4k SDR 7.76 GB】5 k7 [/ }0 M6 Z& ~2 H

7 @1 k; r) I' t8 h* L

9 S! B1 U0 o9 x$ e8 ~0 t, s4 D8 q3 c' `' o

- G. w& C( C9 d7 \: Q
( g+ X% ?5 h: H: k* `, I8 m
$ f1 f1 R5 y1 S8 f& K6 p* j: m
登录 发布 快速回复 返回顶部 返回列表