开启辅助访问
 找回密码
 立即注册

内心深处:德克萨斯野生动物的故事 Deep.in.the.Heart.A.Texas.Wildlife.Story.2022.2160p.WEB-DL.x265.10bit.HDR.DDP5.1.Atmos-纪录片-17.95 GB

#4k记录视频#时间:2023-04-28 阅读:149 回复:0
133036v0977ucujv0dwcs2.jpg.jpg
" e. P: V+ A9 y1 @/ h" @6 u+ x6 l! b
简       介

1 U0 L; \$ ]( A
2 \3 O2 P+ p1 K9 n  Deep in the Heart 是一场视觉上令人惊叹的庆祝活动,旨在庆祝德克萨斯州的独特之处 - 其多样化的景观和非凡的野生动物行为,这是世界其他任何地方都找不到的。通过从神秘的盲鲶鱼到难以捉摸的美洲狮等野生动物物种的视角,这个故事讲述了我们与自然世界不断变化的关系,展示了我们破坏、保护和恢复野生动物以及我们共同依赖的栖息地的能力. 这部适合家庭的电影由马修·麦康纳(Matthew McConaughey)旁白,采用最先进的摄影技术,从德克萨斯州西部的最高峰出发,穿越我们的含水层、河流和海湾,深入墨西哥湾。Deep in the Heart 旨在保护我们剩余的荒野,展示水和野生动物的连通性,+ F( i; @: n3 E- X

1 D  l0 r3 X2 w! u, u

; C3 A( u( l) T) S, x6 n影片参数
: e+ t! ?2 w! u! a; T1 y) _
Deep.in.the.Heart.A.Texas.Wildlife.Story.2022.2160p.WEB-DL.x265.10bit.HDR.DDP5.1.Atmos-纪录片信息
# n2 A1 }5 Q" g; I1 G. x* `Video/ a; y, D; U% t
ID : 1, b* d& K% ]  @9 b# ^
Format : HEVC, G  u- ^. V* q- _" U+ v
Format/Info : High Efficiency Video Coding
6 P) b6 |( _# [' D, J; v$ AFormat profile : Main 10@L5@High7 \: c7 x! }2 ^3 a* ?) C
HDR format : SMPTE ST 2086, HDR10 compatible
  ~; O  f# e! j# c! d# {/ lCodec ID : V_MPEGH/ISO/HEVC  T' d% k9 g+ K' s
Duration : 1 h 42 min
9 C% P5 E/ I8 kBit rate : 24.2 Mb/s
# a( z/ a6 V9 }% R5 }+ UWidth : 3 840 pixels* m4 V4 d  s( D; i& @/ v
Height : 2 160 pixels
- S0 u+ \/ `( MDisplay aspect ratio : 16:9& z5 N# u4 t8 _7 P2 l. O
Frame rate mode : Constant- R/ r# ?  r' G- I& M
Frame rate : 23.976 FPS
- A/ W5 M/ |  b, iColor space : YUV4 f2 a8 ?# Z6 b7 C5 Q- `& q; [, F2 |
Chroma subsampling : 4:2:0 (Type 2)
1 G. |9 u2 G9 B6 D2 p' GBit depth : 10 bits* w( s" \. y3 V1 L1 H/ E/ W# Y) Z+ r/ ^
Bits/(Pixel*Frame) : 0.122
7 o0 h) [( p. B. B; }Stream size : 17.4 GiB (97%)
; g% J+ q. N  ]( o1 uDefault : No# V9 v! Y+ y. o. w% b
Forced : No
( N' Y# |, r$ Z: l8 DColor range : Limited0 y( Y8 O! w) {$ C( _
Color primaries : BT.2020# k( k# Y/ \  D  q: I& O- \9 m
Transfer characteristics : PQ9 v$ m( i  s- p1 ~/ I
Matrix coefficients : BT.2020 non-constant# [3 W6 B7 q! ~4 A4 f" d5 O/ P) \
Mastering display color primaries : BT.2020
2 r" m$ d. ]2 O8 m' L% [+ lMastering display luminance : min: 0.0050 cd/m2, max: 1000 cd/m2! Q1 F2 ~+ Z: \
Maximum Content Light Level : 2758 cd/m2
3 d* @. x0 T, q( a  A8 SMaximum Frame-Average Light Level : 384 cd/m2: L2 X5 R& O( z

( g, z# S4 x2 ]- w# `5 h
' q4 @# n6 F3 u4 u9 K, x& L
Audio
6 Y8 J. C# F& RID : 2
* e( E2 i: L& qFormat : E-AC-3 JOC0 j+ q; ~/ G% M
Format/Info : Enhanced AC-3 with Joint Object Coding
6 u2 r: V1 o! w+ `4 W8 T; cCommercial name : Dolby Digital Plus with Dolby Atmos
& u, U4 D0 |) C. `3 H& h5 eCodec ID : A_EAC3
' p. L! C$ E% W; N3 C5 G6 {6 wDuration : 1 h 42 min" K0 @: L" M8 Q6 s7 S  X8 n& X/ Y( Y
Bit rate mode : Constant: [0 e. t3 x4 f! \' B7 S0 B" ?
Bit rate : 768 kb/s
, h, a4 A& U& n5 w8 E* l2 d4 dChannel(s) : 6 channels
2 G; ]; x7 g# p" b+ gChannel layout : L R C LFE Ls Rs5 P% D# I) W/ m6 @# ~2 q, P* A3 U
Sampling rate : 48.0 kHz- k2 l# K% n! p
Frame rate : 31.250 FPS (1536 SPF)
5 @( B6 z7 u4 ~% TCompression mode : Lossy& F. s) E& m# l( b0 ~
Stream size : 565 MiB (3%)
. M! I: n. N4 l; O) SLanguage : English) S6 X" k2 J* n5 s! a
Service kind : Complete Main
$ C# d  H% j6 SDefault : No
8 W/ G) m% t6 Q  B0 w3 z8 zForced : No
* n: S) }! U3 OComplexity index : 16
' j: Q8 x' p3 Z+ }Number of dynamic objects : 15; j) |3 V, i1 M8 V- K  i- X) d1 Q! M
Bed channel count : 1 channel
3 Q! {+ n, f$ j" U* p/ ]1 cBed channel configuration : LFE
! r* F9 r9 X* {+ v. C) ]; I" h% F2 N8 Q: ?. ^
% b- K8 o0 z: D( ^3 B' p" `
Text #1
5 p: j0 y' S7 q! q6 k! RID : 3
, r( v9 e& S& Y7 G" e5 j9 iFormat : UTF-88 z4 J! q; [/ q8 @) J1 E# J& I9 ]( u0 f# c
Codec ID : S_TEXT/UTF8
: T( P; ?! O6 \9 C2 KCodec ID/Info : UTF-8 Plain Text" e- ~; M  f. A  ^* V
Duration : 1 h 39 min
6 W2 _$ g  ]' v5 X2 w" {, y0 DBit rate : 44 b/s
# l. W2 x3 E" c. G$ k  }% Z5 }  bFrame rate : 0.103 FPS. A1 w0 j' u7 H8 k- `; n" W' [
Count of elements : 613
/ f; A5 V5 y7 SStream size : 32.0 KiB (0%)
$ @) c2 A1 g  V3 j: S, h( RLanguage : English
" z$ S( g' f) I  ]Default : No4 d" [/ W7 g2 M! |6 Q
Forced : No
$ E: l" j$ M0 M. g2 x3 v1 s
3 A) d* j, }* g7 R0 p9 n, y

- }- K( c* W/ O1 j  i, F* L- E( YText #22 H3 A# O2 {" w- _1 E) U
ID : 4
8 n+ k- U# V4 |5 `Format : UTF-8
# l3 O3 ]! p/ U: o: m  z  Y( e; K8 GCodec ID : S_TEXT/UTF8
; A: I" Y& X4 b+ lCodec ID/Info : UTF-8 Plain Text
4 t" \+ J# E2 l0 i% v' a* ZDuration : 1 h 39 min+ d! z# Y1 H0 {6 P- e1 y1 L
Bit rate : 47 b/s
! ?3 R6 Y+ ~  }* X$ IFrame rate : 0.127 FPS
- e6 m8 A$ Z, _( R: xCount of elements : 762& A. l: i4 g8 ~* b3 _0 [  S
Stream size : 34.6 KiB (0%)# V) O% C8 W3 c
Title : SDH# a4 ^' S' a: f$ a3 e
Language : English
% t3 L$ g9 u, p4 K- D, R* D/ mDefault : No
% j; j. a" c! cForced : No
( I$ t2 m: O) i! [7 o! _6 O/ a& h+ w6 i1 b) h% ]+ b) S

( a  M+ L  m8 t7 HText #3# J  a( P6 `# H" J5 s
ID : 5
2 V3 m9 c, f% I9 K  NFormat : UTF-8
& K* p( Q- x8 ^% gCodec ID : S_TEXT/UTF8
* G/ O: O4 P1 D) t7 TCodec ID/Info : UTF-8 Plain Text
  R' ?7 ]  ?6 r$ y6 _: J; xDuration : 1 h 39 min
- k4 Y0 ^! f. DBit rate : 34 b/s
1 X- X4 ~9 Z4 [* f, _$ wFrame rate : 0.096 FPS
8 |- `. S5 M3 a3 X/ V4 y+ sCount of elements : 570  P3 r: a; H4 W. v3 e
Stream size : 25.0 KiB (0%)
# U- I/ ~( ]. k: bTitle : Latin American
8 A! H2 ?+ N3 JLanguage : Spanish# @& Z& w, M2 w6 h0 r0 Y1 \8 ^' J4 l2 s
Default : No$ q6 N! S% B! P* a5 c: I
Forced : No3 z" L6 H1 K$ _' _) }

2 x0 f" I  M9 A# S
; V6 N7 q- _  q4 [: c
Menu8 c$ O. {0 T. F8 |
00:00:00.000 : en:Chapter 19 P5 n4 j% O& m" [2 S2 C; c3 a
00:12:15.000 : en:Chapter 24 K  r& b4 J* w+ c- T0 f
00:20:06.000 : en:Chapter 34 l9 g) [( ?) y7 O4 ^7 f. f
00:30:33.000 : en:Chapter 44 r: |  T- F' ^% V
00:41:50.000 : en:Chapter 5
1 r( b& D$ y. C% M* ?- i00:53:34.000 : en:Chapter 6
) R; t1 R8 m; f2 X- J+ j+ r01:05:00.000 : en:Chapter 7
; r4 i. p+ D: [& i) ^4 C, W01:16:39.000 : en:Chapter 8
! P  q( J) `8 b( B6 u01:25:36.000 : en:Chapter 90 `, W1 o$ \  ^, M" z6 a8 T
01:36:42.000 : en:Chapter 10# l8 ]! S3 g( |0 k* \
01:40:09.000 : en:Chapter 11

7 ?- G3 |# S+ y3 ~+ E( y6 K+ s  t: U

8 \* }2 J* @3 b- F; J! C
/ o! c; |) u* P' P5 WDeep.in.the.Heart.A.Texas.Wildlife.Story.2022.2160p.WEB-DL.x265.10bit.HDR.DDP5.1.Atmos-纪录片下载
$ a, h  U, r- d( F2 J6 e3 G; J; V, [8 \+ v
Deep.in.the.Heart.A.Texas.Wildlife.Story.2022.2160p.WEB-DL.x265.10bit.HDR.DDP5.1.Atmos【4k HDR 17.95 GB】
$ u) h" g1 g3 R- o0 s+ T4 A: [2 G

: c2 H8 u1 ?# Q

  ~4 S4 C% R9 V4 L6 P
, V) g6 \, [7 F& z
- Q4 U5 k5 s- ]' D
* e7 W; w/ b8 ?2 `) V, B
登录 发布 快速回复 返回顶部 返回列表