开启辅助访问
 找回密码
 立即注册

飞行/风险 Flight.Risk.4K.2022.2160p.AMZN.WEB-DL.x265.10bit.HDR10Plus.DDP5.1-4K电影

#4k记录视频#时间:2023-04-28 阅读:208 回复:0
095920ygv4lr0obzu9ug50.jpg.jpg
  H* X1 I7 n, s# @9 c' P* F2 o; M
简       介

$ C2 y- V7 x5 W. v& Z- g5 }. |
1 D0 m) D8 U2 b6 R6 _, C- j  讲述了在 2018 年和 2019 年两架波音 737 Max 飞机仅相隔五个月坠毁时发现自己身处全球悲剧之中的普通人。这部强有力的纪录片通过受影响的家庭成员、他们的法律团队、举报人的角度讲述和普利策奖得主《西雅图时报》记者多米尼克·盖茨。5 j' e& P0 p8 t" T
% ]. T+ p( E! J- p* ^

) R1 P6 J5 x( G6 \' B  m影片参数* e. b0 L, f8 |+ l$ y
Flight.Risk.4K.2022.2160p.AMZN.WEB-DL.x265.10bit.HDR10Plus.DDP5.1-信息( o( n/ U2 q% l% T/ T
Video
8 d4 Q2 q8 w5 O8 q" G# RID : 1
  w7 t" F3 f3 {( ZFormat : HEVC) N, ~, V6 U  t1 N0 O5 z
Format/Info : High Efficiency Video Coding2 }5 k5 a& j6 w
Format profile : Main 10@L5@Main
3 U4 ~- w( W8 Q; T8 ]& HHDR format : SMPTE ST 2094 App 4, Version 1, HDR10+ Profile B compatible
$ o: y* Q  O9 ]& n2 o+ t# `4 jCodec ID : V_MPEGH/ISO/HEVC7 T* _% M: A9 c9 ^! I% `% n
Duration : 1 h 38 min
6 m/ ?7 j. E: |* N0 Z% F: x+ \$ iBit rate : 14.2 Mb/s  _% s% v  G7 n0 \: }; Q5 t
Width : 3 840 pixels5 l9 F% ^8 J( v% e( a' b! p
Height : 1 600 pixels  y9 j3 S- t# {  W# d; i0 {
Display aspect ratio : 2.40:13 C3 ^# ?: n2 G" `' l
Frame rate mode : Constant
. a& D; j) Z+ |' T0 f% B4 _& J4 [- fFrame rate : 23.976 (24000/1001) FPS
) R" `7 |" U7 a  \Color space : YUV
: @  {+ I4 O5 |8 H3 K) ~' s* N; }Chroma subsampling : 4:2:02 o  }) H+ j6 e8 y
Bit depth : 10 bits
# r9 R8 h: |9 @# M$ G/ zBits/(Pixel*Frame) : 0.096
) Z5 p, m, h2 O! l2 ]0 D  Z1 {Stream size : 9.76 GiB (94%)- |) S8 v# @7 h
Default : Yes
& C0 `! L+ `' p8 q# h: M- c+ B" ]1 eForced : No: s! w" e. Q2 t7 D
Color range : Limited
' D* C* A  O  Z2 c0 U! o' ]0 wColor primaries : BT.2020$ r  y; ~3 r8 |" J2 r7 I9 M, i" E5 t
Transfer characteristics : PQ' N1 ^+ |5 o0 L2 y4 f8 U0 Q
Matrix coefficients : BT.2020 non-constant5 u( s2 _5 T9 b8 t- k
Mastering display color primaries : Display P3
5 U# ?: U* S2 S; W9 S& u0 SMastering display luminance : min: 0.0001 cd/m2, max: 1000 cd/m2! y6 m1 Z& Z. l% B: V2 p
Maximum Content Light Level : 455 cd/m2: `' E- U( N# n0 y( O" ~  R
Maximum Frame-Average Light Level : 436 cd/m2
8 T  k$ F# ]3 A/ s5 U# ^( v, h. U% Y# i# A
0 j* r$ X- n$ p3 S! _
Audio+ y4 Y4 H" C0 ]# R
ID : 2: p" M9 T: ?: {" V& e
Format : E-AC-33 S3 C; H, g' J5 C; _
Format/Info : Enhanced AC-3+ X; R5 N4 {1 V4 k* [
Commercial name : Dolby Digital Plus
$ Y7 J) w7 @- G0 CCodec ID : A_EAC3
+ w: V8 q! C, a4 L7 @Duration : 1 h 38 min
) g8 m* {% G0 j* r* a, X2 _Bit rate mode : Constant
& j/ L1 \: k, n) X3 x1 [Bit rate : 640 kb/s
! Q! F4 Z: n5 b" N7 f7 ]& ~. zChannel(s) : 6 channels
4 _$ e0 g7 M* }4 m% \Channel layout : L R C LFE Ls Rs
; m# L% m" r; a& {" ISampling rate : 48.0 kHz; {( k! V6 f  j3 k
Frame rate : 31.250 FPS (1536 SPF)
' {' `; P0 `% H: b! VCompression mode : Lossy0 F2 o- L! D: _6 F) E6 ~
Stream size : 451 MiB (4%), E+ t/ s; F  q* [) V" o, x
Language : English* Y- U* l, h5 {# j) P
Service kind : Complete Main2 @0 Z6 o5 F9 r7 P. M, w6 @
Default : Yes
* u) W; \5 ^! C0 {Forced : No* W2 g/ A6 k0 [6 [- d4 G: x! i5 E9 t

7 S' t7 S% D" {0 k1 t7 ^& i/ E
7 }, b1 @: [3 z& @. y
Text #1
' s1 p9 T4 t" n. ]. qID : 3
0 p; r3 S$ f  a( k: T: T- v$ ?Format : UTF-8) E0 U5 o3 [3 ?# U" T! t$ q: A
Codec ID : S_TEXT/UTF8
4 V1 t- ~8 C6 Y6 _( \' ^Codec ID/Info : UTF-8 Plain Text
) j' @; ]; S% F+ K5 YTitle : English [Forced]
4 u4 ?( G+ A3 m, y* FLanguage : English4 R; p; Q/ {% `$ w2 k% H* z
Default : Yes
7 a  R9 h0 K' sForced : Yes
+ K; d4 T) o$ ^$ |5 b5 m% Y5 ]+ M! f! ^+ u7 u0 ]
% F' Q. v* u, o1 }, x; l
Text #2" m% G6 X6 V# A$ R! H5 e& T" E
ID : 4
3 k7 N/ V3 O: \6 ^8 [" g5 q5 `Format : UTF-8' {9 w. R+ S$ B# x
Codec ID : S_TEXT/UTF8
& J/ G+ C0 \, ~* [, m% [5 g! J. wCodec ID/Info : UTF-8 Plain Text
, k, w+ b4 b2 V" k/ sTitle : English [SDH]
! F  b1 l: _8 c% `Language : English, m! e% Z( X9 {3 a
Default : No
$ O; O% _, N. E" _: k* f6 d+ VForced : No
+ g, j3 H- \8 T/ s0 G% Z0 [+ S% ], u" G# f
# u  U6 W/ h; V+ P2 s
Text #3  ~- `! V, n7 _+ H" E* v& d. A1 n
ID : 5
. P6 T8 V1 |. ZFormat : UTF-8  P# x3 j$ |4 q) d
Codec ID : S_TEXT/UTF8
9 B6 |/ `: S1 L: F+ @7 C7 wCodec ID/Info : UTF-8 Plain Text
; Y- I# _5 ]2 @' a3 q' e5 Z4 OTitle : Arabic* Z/ G; i/ T% |. p1 h+ a' X5 Z7 K
Language : Arabic
1 ^6 B# b% k, lDefault : No: H8 V& b# H# {& _+ {! {4 w
Forced : No
5 J, o* \' y: a: m3 |% [
! K$ l' J' ~# x
: x" _: n2 F3 O. D
Text #4
, n4 `9 n  d" g9 _ID : 6% B6 V  I: a1 l% U, A8 t6 v, v
Format : UTF-89 x( C7 o& n" A6 W5 V/ }" E' s
Codec ID : S_TEXT/UTF8
. p+ Z: }6 f$ }5 U( y" q- N: CCodec ID/Info : UTF-8 Plain Text
  B3 S9 G6 C* ~4 L. E6 N) {Title : Chinese Simplified4 \. ?; Q  j$ }/ f- H- J
Language : Chinese
+ I" k  ?3 q& Y' o8 ]; Z4 LDefault : No4 `: b3 g; B: a
Forced : No) R. G2 I- S. e8 ?
/ M. z! x. ]: z

0 F* Y# a* t6 a6 y, }4 z& ]Text #5
5 z) q/ r1 d( e- h, d) g8 Z4 Z6 |ID : 7
$ |" y* V9 X( @! z1 D7 \' BFormat : UTF-8" n% z2 P  _. R
Codec ID : S_TEXT/UTF8
. s3 v& n' R0 I" L6 K8 y8 aCodec ID/Info : UTF-8 Plain Text0 u3 |+ B+ C- B% W4 {1 B6 I
Title : Chinese Traditional
7 d. h( W- F( [8 Z% NLanguage : Chinese4 R: M. E+ X+ ~& L. U$ k
Default : No
' _3 c' J/ `! D, B7 DForced : No& c" G8 ^' M5 P" {

% ]' a! w- t* w, K! J& t
" G+ r$ B. ~, Q1 M9 I3 x
Text #6
- T9 D8 _- o6 u  ~ID : 8
, q6 {# r+ X0 L6 dFormat : UTF-8* L. h: T% {2 o# F$ y  E/ k8 B' t
Codec ID : S_TEXT/UTF8
& o/ W: Z- f1 ?8 vCodec ID/Info : UTF-8 Plain Text
6 K9 j% ?1 Y% B# C7 G0 [Title : Czech (Czechia)8 Q; t- J0 U( I0 a
Language : Czech
/ R+ b4 b2 k6 A3 i! I$ @Default : No
8 f6 t# m- [8 KForced : No- O3 h, n  H5 m, K7 Z

! F- J( x* D. R* B4 X) l* H" b" R
5 a" P% \. V% g' M: v6 g- p6 @
Text #7% E8 q3 |5 \0 L% \' a) w, U, c
ID : 9
6 |) W: S! y5 Z6 o8 E' t* NFormat : UTF-8
8 T! j4 i/ ~; q; \Codec ID : S_TEXT/UTF8! v% c1 N) [" r7 [. h  O
Codec ID/Info : UTF-8 Plain Text
" p* M4 a0 u9 q( x$ S  l! g' tTitle : Danish
8 J, V: R# @" @: I9 ?2 PLanguage : Danish
% Z! u# o6 }# d2 s6 v' SDefault : No
5 `. a: M# S3 i( z) y8 `& dForced : No
0 Z: v- q/ L. [/ n8 e! @' O% K
% o4 t+ I) T6 L1 m# f  E2 M; C1 l% c
  Z. \0 D& k! r6 @) S
Text #8" ^* R% O' {! t, B% W4 K3 ]6 C! _
ID : 10
8 J' F1 f% o+ K0 j: dFormat : UTF-8
% A) ]  S- Y9 q! ]0 \3 |0 aCodec ID : S_TEXT/UTF8
- u9 j' s8 Z$ n# M  C+ \Codec ID/Info : UTF-8 Plain Text: Z  ]& p/ W* M' s2 p8 E6 b5 B. y
Title : Dutch; V/ c7 X7 b7 ~3 \3 @& B
Language : Dutch$ j. s6 L: P% r2 g( Y5 \5 b
Default : No7 B% t; `' r3 d  D  R' ^4 [9 @
Forced : No
( ]4 W, N7 K( y8 W
- b9 H, z9 U$ f# {
5 C7 s1 F+ E0 q
Text #9/ Q, q6 p( Q3 d$ U9 @
ID : 11: P' Y( Y6 X6 p$ x
Format : UTF-8
3 `- j1 V0 u# m6 aCodec ID : S_TEXT/UTF8
4 y% O. r; ^1 k3 {9 T' ?, {Codec ID/Info : UTF-8 Plain Text+ T2 s0 }$ K+ k  Q3 G6 X
Title : European Spanish% E7 V+ P' t# q+ i( ~  e3 E6 s
Language : Spanish/ T6 q5 @( ]" F( q
Default : No
+ F( a$ K* R3 T+ nForced : No

$ N( A3 x7 Q; d( {# ^
' Q9 C/ s# t% q2 s& Q: p
- P; I! V. H) k  D; E7 }" T% }Flight.Risk.4K.2022.2160p.AMZN.WEB-DL.x265.10bit.HDR10Plus.DDP5.1-4K电影下载
6 O$ f# U) _- Q$ g' e/ r% h) W  r) I% \$ A
Flight.Risk.4K.2022.2160p.AMZN.WEB-DL.x265.10bit.HDR10Plus.DDP5.1-简繁中字【HDR】【10.41 GB】! K. Q, [9 Y: Z: M* k/ h
, z* g# ^3 G5 l% L  N

; `; S% p  B4 g# G- [0 x4 O# G) H$ I$ |4 H/ f* m

) L# ^2 F! W9 R
登录 发布 快速回复 返回顶部 返回列表