开启辅助访问
 找回密码
 立即注册

飞行/风险 Flight.Risk.4K.2022.2160p.AMZN.WEB-DL.x265.10bit.HDR10Plus.DDP5.1-4K电影

#4k记录视频#时间:2023-04-28 阅读:141 回复:0
095920ygv4lr0obzu9ug50.jpg.jpg
  Y9 V+ [, t  Z! p. |; {3 X7 K% |7 r" y2 p+ ^+ U
简       介
3 l  q" d, |- Y! _

4 a& h6 }7 J" H9 V  讲述了在 2018 年和 2019 年两架波音 737 Max 飞机仅相隔五个月坠毁时发现自己身处全球悲剧之中的普通人。这部强有力的纪录片通过受影响的家庭成员、他们的法律团队、举报人的角度讲述和普利策奖得主《西雅图时报》记者多米尼克·盖茨。
3 s% J( v5 O/ Q
9 [9 |! \4 [4 t# K. [
/ F  d: [5 R  F* @
影片参数( N( k- ~) `7 D2 q. f. D
Flight.Risk.4K.2022.2160p.AMZN.WEB-DL.x265.10bit.HDR10Plus.DDP5.1-信息& P/ |# M: Y8 g* Y
Video
$ t. F, O! X" j2 A$ PID : 1
+ r9 y% ^. I; [0 |" l& @) A# S& qFormat : HEVC
3 g; _: k* ]; J6 hFormat/Info : High Efficiency Video Coding; U' [( w* b. b  h+ ]# v
Format profile : Main 10@L5@Main
5 ~8 R/ b* u. m4 R9 F! pHDR format : SMPTE ST 2094 App 4, Version 1, HDR10+ Profile B compatible' r; W* M. N$ o, s7 j; Q
Codec ID : V_MPEGH/ISO/HEVC$ T- L. T& h: W0 z4 L. d" `
Duration : 1 h 38 min! \8 L& G7 X2 K- S" r% \$ H3 C3 `
Bit rate : 14.2 Mb/s
6 |1 F- ~6 f% _6 J3 j; F, Z+ bWidth : 3 840 pixels! L7 b1 P* ?5 L7 G" x* _4 w, C% e
Height : 1 600 pixels
( ]) ]; H4 r3 H) j$ [+ `8 |Display aspect ratio : 2.40:1% o# z. Q) U2 o9 X
Frame rate mode : Constant
) F+ g/ O/ R/ g0 Z/ q  j. [Frame rate : 23.976 (24000/1001) FPS8 z/ r! n( x8 G  W, F% N: t% P
Color space : YUV
* ~1 t* N5 v8 v8 A6 M" tChroma subsampling : 4:2:0$ ^- O& Q& n) N- g/ N4 n
Bit depth : 10 bits
1 b, x& T8 g; f- v9 m( YBits/(Pixel*Frame) : 0.096" ]6 g" {7 l  @1 w1 @+ ?5 o) |9 R: Y
Stream size : 9.76 GiB (94%)
+ X: [/ _0 t! E4 |3 v& IDefault : Yes  Z0 h" o$ s; E# x: q8 ]6 X
Forced : No
2 Y; g0 y+ _9 c! p; ], p- MColor range : Limited
6 x* g3 y4 c( o" V' n6 oColor primaries : BT.20200 y( p, Z  b- Q2 e
Transfer characteristics : PQ
7 q; O5 Y6 w# E. j8 fMatrix coefficients : BT.2020 non-constant7 m2 a! x6 P4 H1 q4 ?) o1 g
Mastering display color primaries : Display P3
# @6 Z0 w- a6 }Mastering display luminance : min: 0.0001 cd/m2, max: 1000 cd/m2- u' U2 \9 C8 i* }7 O, g
Maximum Content Light Level : 455 cd/m2
# Y+ N- V; I- k. _Maximum Frame-Average Light Level : 436 cd/m2) Q5 [/ j! l5 s3 O8 r& I9 X

& y' {$ X) A2 O' s

- c' m& X2 w1 b' oAudio
6 I/ I& o7 p2 e) H# C4 n1 sID : 2
) z& M' R/ L5 Y2 P, C/ lFormat : E-AC-3
% L0 ^( R$ }* _3 AFormat/Info : Enhanced AC-37 A) x3 B: f* g4 M
Commercial name : Dolby Digital Plus4 }8 y  {+ ]7 e
Codec ID : A_EAC3
( g6 T4 z7 R- R) hDuration : 1 h 38 min' O2 P1 O( G$ P- B4 H7 r3 z6 P/ P
Bit rate mode : Constant
3 ]1 R# x; j( S: ^/ x5 ^Bit rate : 640 kb/s
+ ^' F/ T, m( f9 {Channel(s) : 6 channels
2 y) U# h% E6 c5 f; f. A) NChannel layout : L R C LFE Ls Rs  p* i4 }. ]7 t% h
Sampling rate : 48.0 kHz
" H4 v9 Q" T4 YFrame rate : 31.250 FPS (1536 SPF)& \! ~4 t3 C5 Y9 Q
Compression mode : Lossy
* ]( O& ]9 Y4 ]! [Stream size : 451 MiB (4%); u5 h2 K0 @. S
Language : English2 w! ?) o. ]# }) d# }/ b4 F
Service kind : Complete Main
. d) a1 Y) ]' dDefault : Yes7 N6 Q2 j0 Q4 y( P0 k
Forced : No
2 g5 d5 t4 L0 R+ s7 v# k: g% H0 x8 m
: P: E" ~: y0 W) W
Text #1
$ n) z# T6 q1 g& L/ w6 _- KID : 3+ ]& e. X1 B, `9 i5 a5 ~7 o
Format : UTF-8! ?7 ], {( |/ d( q3 {
Codec ID : S_TEXT/UTF8
) p. {* T+ k' x# p: C4 a6 h2 lCodec ID/Info : UTF-8 Plain Text
; d, E. l( A" y3 D+ YTitle : English [Forced]: X5 O# V5 Z4 K1 z$ M  @2 d
Language : English( f1 o# y  N3 P/ {  V
Default : Yes6 p; x: \5 R  v4 A/ _
Forced : Yes# G/ Y% v9 a! C! j" W1 f! F. q# X
' [+ Q& u- U8 b- X! j+ w9 N
" k- U1 [! l+ U0 O0 L! Y
Text #2: N2 v( p7 X" [( }& [
ID : 4! L8 A8 y# @/ n8 T$ @
Format : UTF-8
1 \$ R" b. A$ GCodec ID : S_TEXT/UTF8
. e" \5 k. A: U- z5 eCodec ID/Info : UTF-8 Plain Text6 _0 \7 T+ @9 e2 t& {9 d
Title : English [SDH]" T$ @: Z  S" A' w/ X
Language : English% F3 r" ^9 s+ C5 ?& Z7 y% x
Default : No- B3 b/ R- H4 g
Forced : No2 z7 z( x9 W0 o. n
5 _" H! ]& g/ ^4 B

5 q! C: c: k; b8 K9 u- `Text #3
4 [8 l4 X5 \1 q6 v% yID : 5
8 P  D; z1 w# I, N6 K. BFormat : UTF-8
1 f& o; n3 y0 M* u) z! m. f$ UCodec ID : S_TEXT/UTF8# F+ p& d% M' y% V- t# w
Codec ID/Info : UTF-8 Plain Text
& W' a6 y9 R3 \/ pTitle : Arabic
1 ?7 ], Z2 Q- O$ k' |8 t) G: sLanguage : Arabic
8 d7 l% J5 c5 U- d) q9 BDefault : No- y% ~( ]# o, r! \. y
Forced : No
. `! j& y; {) t, x7 v- z7 M: G
3 z7 ^( c1 T' _

0 Q( V7 a; i+ V, u: M9 C' dText #4
+ I' N/ Z$ t( o' U5 RID : 6; H# k0 X3 K3 ]- ?2 ?. ?
Format : UTF-8
$ F2 b& i9 [. Z# V2 [* ]6 T; F0 mCodec ID : S_TEXT/UTF8
5 O/ p, N: a8 gCodec ID/Info : UTF-8 Plain Text( @! c# q1 q$ q$ |
Title : Chinese Simplified- V3 R! e/ u, M# G# Y
Language : Chinese
! H3 x3 H$ t% `0 s" {3 J; oDefault : No
7 S" S( x  h/ I, Q+ s, B- W0 Q; FForced : No9 A7 X; \' t5 d
8 C1 u- Z% A) A" t1 ?8 v- Z
  B' Z: P5 y1 I" s( ?
Text #5
. b/ q  @6 f% S& ?# X+ nID : 7, m* K: T' R' C7 o4 y, @
Format : UTF-81 S7 w- Z( M1 D4 r$ ]
Codec ID : S_TEXT/UTF8
/ _1 W  Y- i& M* {8 ~/ b* DCodec ID/Info : UTF-8 Plain Text
- S" c# {  P  v4 I6 wTitle : Chinese Traditional8 X1 b' K, d% B
Language : Chinese1 y0 ^1 M7 b7 F, ?. f
Default : No
. I6 `8 n" l/ t' w4 vForced : No% O& Z* F  _2 u' u- ?( I$ Q) B* r

# D" U. D6 U# Z( j8 b' t
3 |" c3 O0 ~) p- {  L3 ?& J" j- L
Text #60 E. ?5 \& ]! Q
ID : 8
) x& f9 W+ L$ n! j3 o5 OFormat : UTF-88 t' A' I- ]7 O  G
Codec ID : S_TEXT/UTF8
$ a# k; z# q  o: m: v% F- @Codec ID/Info : UTF-8 Plain Text
6 i+ T- J1 N0 O# J  eTitle : Czech (Czechia)
( Z# z% E5 X* ?, R$ M1 C( uLanguage : Czech( C9 A, f! Z9 R4 P+ d* S: X
Default : No
6 L5 U$ z$ J& IForced : No
3 z0 x0 L+ t" @2 O) ]; k1 o  F- r: @$ L
/ Z* u& {7 H# K
Text #7
) e( `/ L/ d  k& _9 KID : 9% N, d  p- L+ O7 u# {% T# R
Format : UTF-83 {( L! y; Q- c  [/ Q
Codec ID : S_TEXT/UTF87 _0 q) I/ z% @, @0 ?4 j
Codec ID/Info : UTF-8 Plain Text
2 L  [, \1 {. Z" {( b1 k4 VTitle : Danish
# s  k* R  Z, o8 Z% _; [/ WLanguage : Danish
. u- M# Q7 k; O% F3 k: C% P- y4 }Default : No  J5 m6 q& \. Q+ I, F
Forced : No
' c2 S" f: o4 `& @! ?
2 w. g/ S* D2 B3 I) I" `
3 L/ f( c# r; o4 M0 E* B# [+ w
Text #8
3 d0 {, B# k) V$ j* C. dID : 10% F  ]* ?8 w' e5 e9 L9 I
Format : UTF-8
% c# e# R" y/ m) o1 pCodec ID : S_TEXT/UTF8
, {! g, z# T, d# |" R( OCodec ID/Info : UTF-8 Plain Text3 e9 g3 ?' _7 l# B* L, T3 ~! `0 L
Title : Dutch
) A& I! R: i) K; T' J% mLanguage : Dutch, P& M4 z  R  C# S( g; V
Default : No) r% L/ x: Z" ^3 j% _- p
Forced : No& ^8 L4 t& v- \  g
1 Z8 Q  V0 y& a5 i% V
  `+ [8 z* v& }
Text #9% v  n, }; B$ y0 [9 |, M, `
ID : 11: {; O: {" s. v7 t4 X
Format : UTF-85 |( A, @% z4 Q4 f4 T
Codec ID : S_TEXT/UTF8
; v" u1 D  C0 }9 ACodec ID/Info : UTF-8 Plain Text* C3 P; P& a3 G! e2 f9 ^4 V
Title : European Spanish  i# \. |) H8 {' e' G
Language : Spanish
2 _: c& q+ U* |* {) |9 DDefault : No$ m8 ]: ^3 F8 I+ |
Forced : No

9 ]7 l* Y: o" ?4 w6 W1 y5 W8 y4 Y* t' l9 Q! I: O

' V4 Q3 y& P" H( O7 {% E' fFlight.Risk.4K.2022.2160p.AMZN.WEB-DL.x265.10bit.HDR10Plus.DDP5.1-4K电影下载
8 r6 J, Q( A3 N  {0 }/ R8 `# G
' d" f  ~$ y  V0 iFlight.Risk.4K.2022.2160p.AMZN.WEB-DL.x265.10bit.HDR10Plus.DDP5.1-简繁中字【HDR】【10.41 GB】
6 O: j( y8 `. L) Z: ^
3 _, N$ H0 F% q1 {. J* \6 ~

7 g+ p! j' j/ o
1 F" S  g8 Q, O8 }& [7 W4 i! g9 W7 s5 x. k
登录 发布 快速回复 返回顶部 返回列表