开启辅助访问
 找回密码
 立即注册

冰冻星球II 4k.Frozen.Planet.II.S01.2160p.iP.WEB-DL.x265.10bit.HDR.HLG.AAC2.0-4k纪录片

#4k记录视频#时间:2023-04-28 阅读:278 回复:0
( L+ t$ ^& O* o% a7 q! j

5 V/ i9 B* D! a! K# u  c; }. ?; s' o; d7 L& ~: b4 `$ y
101859wrwi97ur4wg6w7wz.jpg.jpg
$ H" X+ f4 d# [  T) d6 K1 q8 V8 p5 J

2 x. v( i- o, r+ d影片参数
7 [0 f4 i& z+ u5 j1 V$ Z: [
冰冻星球II 4k.Frozen.Planet.II.S01E01.2160p.iP.WEB-DL.x265.10bit.HDR.HLG.AAC2.0-4k纪录片信息1 b) @( T* P, R, g& C6 q2 P
Video0 g( Z; K& i# d6 |% K% e
ID : 1
, F1 O4 w3 F$ o( |1 @) }Format : HEVC
+ w2 ?0 ^7 o( |* j: X3 xFormat/Info : High Efficiency Video Coding" i, g* s: ?/ H$ [
Format profile : Main 10@L5.1@Main
% G$ \3 v3 g3 t6 I, A  `" N. qCodec ID : V_MPEGH/ISO/HEVC
! Q# J0 h& p4 P  T( `% R& E' qDuration : 57 min 49 s5 Z2 `& J0 g& q5 d( ~* M2 w/ V$ E
Bit rate : 18.7 Mb/s
$ j" D6 v6 M& z7 j+ CWidth : 3 840 pixels
+ Z% N( j' S) e0 G# B: gHeight : 2 160 pixels
7 @" m4 C1 x6 B( TDisplay aspect ratio : 16:90 |' W6 h3 g: L' [. g
Frame rate mode : Constant
( D( E  Q  o' U9 J0 r+ OFrame rate : 25.000 FPS
) m' d! s. g* tStandard : Component
/ D% x# H' x# a9 dColor space : YUV; b1 |; k, a8 ^4 l, v$ H
Chroma subsampling : 4:2:07 t# q9 K7 ]6 A2 P4 ^+ Y
Bit depth : 10 bits
" j. y2 j- T, a  c3 K$ zBits/(Pixel*Frame) : 0.0901 J, R1 T6 K/ g
Stream size : 7.53 GiB (99%)
1 t1 k; y8 y5 [  \' K! P% f% {Default : Yes
5 `1 S* O* {8 M; g9 Y5 aForced : No  N& o9 b7 ?# c9 _/ w+ g
Color range : Limited
# |% V1 ]+ k, f( ~$ p, q) gColor primaries : BT.2020
5 a- {& Q+ j1 I( hTransfer characteristics : HLG0 z- i# g+ d. L" |+ q
transfer_characteristics_Original : HLG / BT.2020 (10-bit)
) G( [( q5 b, R$ j. A; p( p/ FMatrix coefficients : BT.2020 non-constant  c; {: ]& w6 L

8 m$ J7 F+ W8 _' t+ b8 f' z4 R0 m
  k- ~* s/ s, I4 A9 W
Audio/ E3 d% m- P4 X) b% u
ID : 26 w# w  v7 I# v
Format : AAC LC
. E9 [# r4 L+ I" G) XFormat/Info : Advanced Audio Codec Low Complexity
% o. z/ L( U9 l6 K$ r$ q# BCodec ID : A_AAC-2  H7 ?5 ]; h/ ]9 s8 P0 A
Duration : 57 min 49 s
: U/ L$ C3 ~7 x; ~, K+ |! tBit rate : 192 kb/s1 d3 B- V1 w* I2 _
Channel(s) : 2 channels& ?$ s- w* u9 ~6 Z
Channel layout : L R4 D! _; d% D3 G
Sampling rate : 48.0 kHz
: D# A4 y. \: ]- A9 iFrame rate : 46.875 FPS (1024 SPF)% }3 K+ d8 F% [2 `, ^$ I
Compression mode : Lossy$ Z- j) p( n2 G- x& q. R
Stream size : 78.3 MiB (1%)
3 ~$ n) p' g- y: N" h& V* _Language : English% W. H7 H7 Z8 C7 C; X
Default : Yes
, K/ Y% o2 P4 UForced : No
& K0 p' V$ a% m0 @. U+ M4 L4 ?" ?/ ?; D) G3 Z  G$ u
6 A& d+ T6 [! G% T8 B. Z, I
Text #16 \# J. I, d; A5 E
ID : 3
, j  W1 U; N, C( v  h1 TFormat : UTF-8: H' z, s: B/ H  V  a2 ?; u
Codec ID : S_TEXT/UTF8
+ N, S7 t5 @( e' j& S1 OCodec ID/Info : UTF-8 Plain Text' \& z' ^, x; k( b# t
Duration : 56 min 58 s0 o, u7 I% G  }% Z9 r) o5 H) U
Bit rate : 43 b/s. a4 i: k+ |' A7 Y; D4 ]
Frame rate : 0.130 FPS$ N2 c; `$ ]* h* u1 E* v
Count of elements : 446) X7 d" G1 q& x3 c  B* k% `
Stream size : 18.2 KiB (0%)
3 l! D) n: F' t* N$ DLanguage : English
( z8 ?8 W! H  P- g* sDefault : No
4 N) r! F7 X9 Z" h) j) ?Forced : No1 b; b" d$ \1 p8 P; J
' L- \6 S; l5 c3 M# n
2 T* O" a  g3 z. c
Text #2
/ }! u0 o# v+ }+ w7 p5 QID : 41 a2 u! b3 e! X' f1 z
Format : UTF-8
  u2 u" t5 R; `4 e! K; A3 hCodec ID : S_TEXT/UTF80 \/ l6 F3 n% J$ u2 _
Codec ID/Info : UTF-8 Plain Text
: r, I# s% l6 W1 y1 F- ^$ _# n8 qDuration : 56 min 58 s3 B2 J$ m6 R, v, e; j
Bit rate : 45 b/s- F8 s; u9 B3 G) ~
Frame rate : 0.144 FPS
) L+ M4 W  ]# F( J- uCount of elements : 491
( d: Q; P* A* s5 {. QStream size : 18.8 KiB (0%)3 p; K" I3 g* o. o
Title : SDH* G! }& `1 G  l* k' R! S, O/ A! M6 p0 H
Language : English
$ ~. A5 P6 H5 I9 ?+ W( j9 p2 l0 {Default : No, w' K, I# O% p4 G2 d
Forced : No

& M9 P, n  |6 A/ J# v5 D$ \, r冰冻星球II 4k.Frozen.Planet.II.S01E01.2160p.iP.WEB-DL.x265.10bit.HDR.HLG.AAC2.0-4k纪录片下载
! E) f/ v& ^) w0 `( v" p% b, V( j! f5 w3 q, Z
冰冻星球II 4k.Frozen.Planet.II.S01E01.2160p.iP.WEB-DL.x265.10bit.HDR.HLG.AAC2.0【7.61 GB】" C: v/ x0 Y; S/ D! M! G& x  d/ T
6 ?* k! Y8 R* O1 u  A, T% R
: u  S0 ]0 Y8 ?3 [2 x2 G
冰冻星球II 4k.Frozen.Planet.II.S01E02.2160p.iP.WEB-DL.x265.10bit.HDR.HLG.AAC2.0【7.68 GB】2 ]6 ^0 Z% m) Q3 O+ G- P

& @0 _/ H4 s# q8 I. V( [8 D  L; n
登录 发布 快速回复 返回顶部 返回列表