开启辅助访问
 找回密码
 立即注册

冰冻星球II 4k.Frozen.Planet.II.S01.2160p.iP.WEB-DL.x265.10bit.HDR.HLG.AAC2.0-4k纪录片

#4k记录视频#时间:2023-04-28 阅读:145 回复:0

' S) `) P8 g2 Y: F
* Z$ ]2 W" _- i# Y# W$ Z: m0 C( @% t( L4 T
101859wrwi97ur4wg6w7wz.jpg.jpg ; D6 B- w" P# _# `+ O! F! c
$ g' S) |% {. w7 A* b3 W

, }. x. ?0 y3 `( A# e: `影片参数
; ^2 f: I" \; V, M9 E
冰冻星球II 4k.Frozen.Planet.II.S01E01.2160p.iP.WEB-DL.x265.10bit.HDR.HLG.AAC2.0-4k纪录片信息2 W8 h8 O0 e- X$ j
Video' I) ^8 A; r# _0 U2 V: g' M
ID : 1
* Y1 Q% M7 W' W& ~( u2 F% j+ FFormat : HEVC0 [: L" w; k  C
Format/Info : High Efficiency Video Coding
8 [7 S0 {$ j) |% {Format profile : Main 10@L5.1@Main
. M5 b; I9 ~+ j/ S0 A/ MCodec ID : V_MPEGH/ISO/HEVC
) u* a% P2 l7 {' Y% wDuration : 57 min 49 s
3 ~; q% D" H0 ]Bit rate : 18.7 Mb/s
3 p; e" v  q$ |, b; p% `) B0 UWidth : 3 840 pixels
1 R$ ]7 @( h* nHeight : 2 160 pixels2 r2 {8 J2 R( ~& [
Display aspect ratio : 16:9
3 n& \6 k2 |. x/ a) a& tFrame rate mode : Constant9 r/ U/ D  G' T  j; ^. u& A) O
Frame rate : 25.000 FPS. A+ A2 d0 A* C) u* m' ?
Standard : Component  r6 j- T6 k8 ]- W6 v% [& }
Color space : YUV
# T" g2 `5 t! ~  {Chroma subsampling : 4:2:0+ J3 H: g) |; q
Bit depth : 10 bits
# j7 f4 c) I: Q, Z" t, zBits/(Pixel*Frame) : 0.090" E; d; I% e, T' W7 k/ A
Stream size : 7.53 GiB (99%): I4 ]7 O6 q1 ~2 s
Default : Yes
8 A& B& x! _$ V+ VForced : No0 b) x! ]3 `! {7 x
Color range : Limited* f0 D, n9 @" L; k4 q# W0 B
Color primaries : BT.2020
$ A0 a- G* e5 Y* L: c+ rTransfer characteristics : HLG9 \5 i5 |, n8 G+ d  r" ~% E: k
transfer_characteristics_Original : HLG / BT.2020 (10-bit)9 G3 M$ y2 h+ [  C, Q; X$ e
Matrix coefficients : BT.2020 non-constant
; A7 x2 v! h9 s. m2 Z6 X/ N" G7 X% Z3 m) T0 c5 R  W: C

/ t1 M+ o' _2 x; R/ q4 YAudio
7 J* Y0 r; y' }% Z9 g4 |ID : 20 A" n$ u& T+ V  Y! I
Format : AAC LC6 r% Q% K! @+ T; H
Format/Info : Advanced Audio Codec Low Complexity1 p5 D( a4 c9 D; v' U
Codec ID : A_AAC-2: R: i# ?; i5 J' n& d  ?; |. B
Duration : 57 min 49 s
( l6 W) M2 p- ]$ RBit rate : 192 kb/s
( n4 t% ?. W' F+ c, cChannel(s) : 2 channels
: A- i: e/ b7 X5 [; O- HChannel layout : L R! Y, v: ^& k! W; _
Sampling rate : 48.0 kHz6 G6 _+ ~8 L9 F) i
Frame rate : 46.875 FPS (1024 SPF)
4 `+ ?( V$ t! q6 A, b; _Compression mode : Lossy( `! m% c3 ^: c; X
Stream size : 78.3 MiB (1%)% [# r; D; E7 d: z
Language : English
$ }- B) G, s& p4 N2 f. f6 ODefault : Yes
, r5 V- J6 F: B, LForced : No. a0 }: c0 x/ }

1 I1 A* L2 z( t9 w# [# h

& Y0 L" N# q0 ~  WText #14 S( Z5 {9 Z; Z' N
ID : 3
8 i* e4 F' }- KFormat : UTF-8/ @" W- U# \/ K1 X! j* v
Codec ID : S_TEXT/UTF8
! U. G$ H  L9 E  ~8 |, ?$ |' P' F' {Codec ID/Info : UTF-8 Plain Text
  K! ~" a" Y0 lDuration : 56 min 58 s; I  V5 Z& L0 z1 A
Bit rate : 43 b/s
9 P7 p  g6 T$ l8 X3 L: uFrame rate : 0.130 FPS1 T: K! ]9 n" ^2 ~' t/ G9 ~# G
Count of elements : 446( K, V8 `0 `9 ~# r) Q! b
Stream size : 18.2 KiB (0%)
. y/ v: n. `- h! j; n, fLanguage : English0 o; [( j+ L. ~6 a6 F" B
Default : No
" f& [2 b, S! i( A) q! YForced : No
6 q$ D8 Y# o+ V7 y2 i5 A9 @0 J; g5 S4 _

( p4 }  {: }7 BText #2
6 d8 B' S) U& C( D" YID : 4- T# y  R" _! Q9 @- L
Format : UTF-8
  u( q! |# Z' BCodec ID : S_TEXT/UTF85 t: v( h- A; |1 P$ C* I9 `' \3 Q
Codec ID/Info : UTF-8 Plain Text* L+ z! k5 {1 R7 N6 ^/ _  g+ _2 _
Duration : 56 min 58 s" c- a' y/ D% v8 r+ e( `0 I
Bit rate : 45 b/s
) p& Q9 ?& k6 Z, t5 OFrame rate : 0.144 FPS# n; z: ]5 i' c1 [% z+ p( q
Count of elements : 491
3 x) t8 x- W2 |2 ]Stream size : 18.8 KiB (0%)
7 a3 q8 q+ x/ w* l1 t5 f0 Q2 mTitle : SDH$ K9 R3 E3 l4 d
Language : English& _. X7 S5 p1 H, I5 n% W
Default : No4 J9 `# y, B7 Q$ \! v# t' s" @
Forced : No

* V' Z8 k1 Z: a; o+ ?: K& R冰冻星球II 4k.Frozen.Planet.II.S01E01.2160p.iP.WEB-DL.x265.10bit.HDR.HLG.AAC2.0-4k纪录片下载
2 D: H. b$ {. v8 K8 S& W6 q0 B$ {( ?5 T, x0 [& C5 w2 H
冰冻星球II 4k.Frozen.Planet.II.S01E01.2160p.iP.WEB-DL.x265.10bit.HDR.HLG.AAC2.0【7.61 GB】/ `' t. a$ D) Z; g: |& b
0 G/ @( ]. l  T

# h. G3 v; ]: L# a3 o" q! Q冰冻星球II 4k.Frozen.Planet.II.S01E02.2160p.iP.WEB-DL.x265.10bit.HDR.HLG.AAC2.0【7.68 GB】
; v  L8 N/ m" c& J( ~8 z1 I- d$ l" i) V' \4 y
7 ^, u+ Q! Z2 ?6 j, f
登录 发布 快速回复 返回顶部 返回列表