开启辅助访问
 找回密码
 立即注册

超级/自然/超/自然4k.Super.Natural.S01.2160p.DSNP.WEB-DL.x265.10bit.HDR.DDP5.1-4k纪录片

#4k记录视频#时间:2023-04-28 阅读:208 回复:0
0 {; K4 j: K4 B5 S* w
152956a8p3f7kek7d7qthd.jpg.jpg
# g5 q1 j8 O% \2 A
' A5 q0 H1 X& _影片参数1 E, ?5 _( z- m/ u
超级/自然/超/自然4k.Super.Natural.S01.2160p.DSNP.WEB-DL.x265.10bit.HDR.DDP5.1-4k纪录片信息
* \/ Y/ V. J* J& F, |6 g' z# SVideo! l! x" V% \! F/ j- C3 C
ID : 14 z1 Y$ N+ d, ]: i# \
Format : HEVC( N) u& b2 b4 k8 U; [9 Z; n
Format/Info : High Efficiency Video Coding
" ~9 t3 V& P- l6 ^) MFormat profile : Main 10@L5@High& U& P% M- Z& h: _) O. a3 e4 _. g
HDR format : SMPTE ST 2086, HDR10 compatible' [# @0 l* }2 P
Codec ID : V_MPEGH/ISO/HEVC% N! U0 Q: x* P4 ~0 ~. N
Duration : 46 min 49 s: ]1 m* @  s; h- o4 Q  K6 x1 g' w
Bit rate : 14.3 Mb/s
$ W6 c+ [# F& x0 p8 H9 QWidth : 3 840 pixels
8 N9 u, L0 W9 o4 ~. {7 _Height : 2 160 pixels9 v. U/ ?$ s1 y! y2 m0 j
Display aspect ratio : 16:9
. L% ~* f) ^! r# b6 WFrame rate mode : Constant7 b4 C5 S* T4 |# r2 z7 a/ f5 C8 S
Frame rate : 23.976 (24000/1001) FPS, D) Q6 f% ]- H! H& `% q
Color space : YUV* p5 M1 J: W4 i& M  D# V5 b
Chroma subsampling : 4:2:01 p+ ~6 h! C  a  }
Bit depth : 10 bits4 F: I+ L5 v* X' [: I) R( |0 U8 e
Bits/(Pixel*Frame) : 0.072
7 g' B! n! s6 `0 z+ y! [3 H( k. OStream size : 4.66 GiB (98%)
2 @, ?  \1 i" F! }) kLanguage : English( y/ Q8 p. k# ?$ M) y
Default : Yes
7 \" }" @* ^/ v& G3 p2 x' ^Forced : No5 ?, ?( x, d+ \8 e
Color range : Limited
3 T( [7 V9 Y; W9 {2 ~% }+ a+ PColor primaries : BT.2020# P' w( a+ q- p$ [. ~% c2 [
Transfer characteristics : PQ
- I0 B9 k3 h: B# w7 G5 aMatrix coefficients : BT.2020 non-constant, Q3 h8 @& }+ o) U8 t7 ?
Mastering display color primaries : Display P3
( x0 L- h+ P1 T8 U0 m1 h9 aMastering display luminance : min: 0.0010 cd/m2, max: 1000 cd/m26 }3 z5 m  N- V4 k' k

6 W( }& R5 y+ Z9 n! V& ]; p0 @
( `/ C0 W; H+ d  R
Audio
1 W: u% L" T5 T  T# ^ID : 2
+ d( i% h  t. ]7 `: `Format : E-AC-3
/ k( e7 P* j6 _6 F/ GFormat/Info : Enhanced AC-3  X  v' }8 f. B2 Z
Commercial name : Dolby Digital Plus9 K% W5 D: _6 u, ]
Codec ID : A_EAC3' V- S  r' Y( n6 \
Duration : 46 min 49 s& i5 T& k' f8 E/ Y; l8 }
Bit rate mode : Constant, C: [/ u1 h  F3 m6 F
Bit rate : 256 kb/s8 J6 ^* c1 v% n# T7 T6 O/ I
Channel(s) : 6 channels
6 @: e) P  g' Y) g7 K. w4 ]Channel layout : L R C LFE Ls Rs4 D$ l0 Y& L" o' \; E& W6 i7 I
Sampling rate : 48.0 kHz
  Q: P  @. x" U6 {: Q* C+ DFrame rate : 31.250 FPS (1536 SPF)8 \  _9 V; c& g" b" q, \9 _+ o
Compression mode : Lossy
& ~( p2 T9 g2 M+ a7 CStream size : 85.7 MiB (2%)
; z, ?( A1 B6 L6 OLanguage : English
) B; }, D3 B$ ~( t: R+ [Service kind : Complete Main
! L8 C8 Z7 n* b$ tDefault : Yes
/ G( V8 S) C! k9 l4 v' r2 H. iForced : No
! J: U- Q" }3 c' ?0 t) E7 q; c; u- f; f+ J6 Z8 n
* N% Y6 w/ U+ I8 [3 u2 n+ f
Text #1
+ q! J  d  o% ?. T. D+ `ID : 34 V' \3 Y0 S: t) B" I% |: G; `
Format : UTF-8
0 V8 k; V$ Z* f4 P& oCodec ID : S_TEXT/UTF8+ a2 a9 n/ p; I$ A1 r9 e* |" ^
Codec ID/Info : UTF-8 Plain Text
  f# v# Y! E) [# a* }Duration : 46 min 39 s( e4 F. A! ?& Q+ \& X5 O2 S
Bit rate : 68 b/s* u: x, u: j( m0 P9 F
Frame rate : 0.201 FPS2 j0 P/ Z: a0 f1 F( j6 }* ]
Count of elements : 564# |# n" t: C  B5 B& U5 s! N
Stream size : 23.4 KiB (0%)
  d0 a) `) t+ uTitle : English (SDH)- o, v8 r( c# G- M
Language : English
* T' g! h$ j# N9 ~  [+ HDefault : No" s$ R5 B, @* P+ i! a! B
Forced : No
; U+ _8 v8 u( v, J/ F( B3 s* Y; [; a$ {3 {4 }/ I3 v' Z

6 H5 X3 E6 n6 JText #2* \6 m: J/ Y( F8 `# M
ID : 4
" s" z6 z) E/ H' E3 u3 XFormat : UTF-80 P$ D# H0 h% m$ u
Codec ID : S_TEXT/UTF8
: @" |" m2 T$ B6 ]Codec ID/Info : UTF-8 Plain Text+ u$ N/ M" a' y& Q# T, _3 M6 K6 v
Duration : 46 min 35 s" W% a* t: ~9 W1 l
Bit rate : 59 b/s
$ F# p4 I9 J: B0 T1 D% u  }$ _3 ]Frame rate : 0.137 FPS
& v8 U/ [0 S3 m% G9 YCount of elements : 3833 G2 z$ g& s; }/ D( [* G! A, q& }
Stream size : 20.3 KiB (0%)7 E9 N: ^: e% O1 G
Title : Čeština- f& [4 Y& w$ n/ ]- q. b2 A! W
Language : Czech
9 F2 h* F$ S# y( n. F2 C8 Q4 yDefault : No3 I2 V6 C2 P, s7 b
Forced : No
3 G7 K+ K, f' _
2 d. I( {( N" |

+ X2 V! ^1 l. h) ?# w( E4 fText #3! i$ O+ [4 n& v4 T0 X
ID : 5
% l. X- L: L9 w/ JFormat : UTF-8& N; |1 ~1 G! k5 U7 Q0 u
Codec ID : S_TEXT/UTF8  O( o  i# y+ @& U# U& O6 T1 A
Codec ID/Info : UTF-8 Plain Text
7 c% |$ @4 j6 t0 v6 ZDuration : 46 min 35 s
; K4 T! d) r, W6 }! q9 fBit rate : 57 b/s. d9 |* {9 V! b- C+ ~% i" S
Frame rate : 0.138 FPS
9 z" n9 Z  B" f& S' m! jCount of elements : 385/ G9 k7 E- ]* c$ q+ ~
Stream size : 19.6 KiB (0%)
# a; _0 I8 v0 p+ s! dTitle : Dansk, |/ L" z: l0 H+ ?
Language : Danish+ p; i" s+ ], k2 S4 g3 j0 I
Default : No
2 o$ m5 ^" F9 O  N8 UForced : No, ^/ B8 j: Q* G; w5 ]
1 N0 r& w) F% E" [, C4 ]
+ z# l7 t7 p* [0 @1 r- T( J9 i
Text #4) ~! X  Z' T: a4 I6 H' F2 k
ID : 6
) U7 C4 n# W3 }7 u' SFormat : UTF-8
0 G- z. J  |2 X& t2 M/ ]- ACodec ID : S_TEXT/UTF8
: u, J1 x' w. m2 z- G* x. X! mCodec ID/Info : UTF-8 Plain Text
5 S# k& a- a# r! p3 VDuration : 46 min 35 s% I) |! U( ^1 M  l  k  l" u
Bit rate : 72 b/s+ a2 A! R7 x* i( f1 X% W
Frame rate : 0.153 FPS4 T; i) B5 r" o: F% p3 h% T
Count of elements : 4279 Q9 `0 ^1 O( l- }
Stream size : 24.8 KiB (0%)
8 ?$ U# W( R7 h' W9 b1 F4 r1 MTitle : Deutsch
5 Q1 L. R, b4 `# W9 j- }% BLanguage : German
6 O0 f% @! p+ ?, K9 a4 G6 t1 zDefault : No# G; S2 s9 x% j; ~
Forced : No8 i- M9 V1 Q4 U, H

6 B$ i) w5 W4 t5 [
' x3 A" Q. j/ ^2 A! r0 z2 P
Text #5+ [. g( v/ b' T
ID : 7
. p7 a8 l/ T8 ^5 B7 A, _Format : UTF-8
& g2 ^8 I; n1 M7 cCodec ID : S_TEXT/UTF8
- {) l( h! h# \5 G0 jCodec ID/Info : UTF-8 Plain Text
" ?7 Q* B: e3 n9 M4 M0 `Duration : 46 min 35 s
" t  W% b( n& w: ?7 IBit rate : 102 b/s: W7 n/ `0 T2 Q* Z* E
Frame rate : 0.138 FPS
& G% f1 h) J1 V: XCount of elements : 386
* m6 s, g/ A3 X' T3 _$ QStream size : 35.0 KiB (0%)
* A" y, C# h! p/ N9 CTitle : Greek; m+ T+ k) \# r' K
Language : Greek3 \4 G( n+ T* }' D
Default : No" I7 |" v9 K7 P: p# Y  i! i
Forced : No
  S  x6 e+ D% J7 M1 K, O- M& D6 S8 k! T+ t5 |9 O$ c

( I4 U, c7 o' `! e( bText #6) E6 j5 p) A* r0 ^" ^. u3 n6 y
ID : 8, W; _" R, A5 T& T7 r3 k$ X% O
Format : UTF-8
; @6 S) I' l: `2 fCodec ID : S_TEXT/UTF8# P/ F" z6 h4 c" X1 G6 Z6 ?: {
Codec ID/Info : UTF-8 Plain Text
0 {& s/ n, ^9 v- n* u1 g: ODuration : 46 min 35 s
6 e+ }8 Z( R5 ~4 bBit rate : 62 b/s4 f5 |9 I8 B: p7 L* ?7 R) p* `6 @/ j: y1 Y
Frame rate : 0.145 FPS0 C% b7 O1 S* a% ]+ N. @) n
Count of elements : 405, k6 D) T$ a) _. ~) M+ ~( V
Stream size : 21.4 KiB (0%)" a& d2 [( R6 S5 U7 n# j
Title : Español (Latinoamericano)7 H/ M6 w6 P+ [1 h+ m7 p. N
Language : Spanish& o( Z: m3 s! K$ I! y+ {0 s
Default : No
1 z" O5 w. Q  Y# W) jForced : No
7 T+ x3 x1 C+ z6 g6 {* p
: N/ \5 A. o1 ^5 g3 o0 U

- K) t2 b, i& F4 e9 MText #7
& R8 y+ s0 f0 U3 ^ID : 9& v& D# v: Z' U( u& _
Format : UTF-8
! R7 p, M6 n  F, j; z3 {+ nCodec ID : S_TEXT/UTF86 t  S5 ]0 n7 S4 O/ F
Codec ID/Info : UTF-8 Plain Text
4 f9 h/ p2 X0 ^/ f6 l  Z# _" ZDuration : 46 min 35 s
/ @/ l( _3 K# I! @Bit rate : 62 b/s
4 P( L7 a* U* _+ P0 a' sFrame rate : 0.138 FPS
8 T* O9 b9 n! \  M0 ]" ICount of elements : 385
; x( d. ?- p& \. Q4 gStream size : 21.3 KiB (0%)
5 P* r. D, f" u6 i8 pTitle : Español# J! _6 T9 V! ~/ p. C( P
Language : Spanish; s- c( {6 D; C# x7 D
Default : No. ~. l6 o9 w4 j% r
Forced : No' `0 Z9 p0 f  H& l1 U; T* T; r2 ]) [+ s

; h! i7 B' F0 T6 ?+ l! C
4 U/ J( ^6 \, U* S# j2 g
Text #8, E0 B: b1 q" s8 |3 ^( [
ID : 10
0 S  [. @. u7 c* ~Format : UTF-8% X/ u- S+ A3 Z/ o4 K
Codec ID : S_TEXT/UTF82 |/ m5 R% U6 b, ], K1 r
Codec ID/Info : UTF-8 Plain Text- T! L. o# g3 b6 v
Duration : 46 min 35 s5 l1 s. t0 [% k5 k4 P( J" M" k2 E
Bit rate : 60 b/s( k* U/ s- p  L$ ]: P5 d
Frame rate : 0.137 FPS
! C, K" t* O( P0 b9 S: [3 S" cCount of elements : 384
" y+ g/ l9 w: l% K( O8 aStream size : 20.6 KiB (0%)$ J( M$ G: q3 X  l# J
Title : Suomi, \) r* E8 Z3 b% Q: [/ P- @; d* s
Language : Finnish
  s2 a. O, m4 ?" [8 V9 hDefault : No
7 r5 ~' d9 ?" z* d) k: W) I) Z( X* KForced : No3 A# |& L. g" `' x

* K0 D# E: u$ ?' A7 ]7 O4 G) I

' K, g4 R8 _, m' l4 `. X5 TText #9
! X5 s  W9 L- J; A% i. i+ K0 YID : 11, E* ]" h, C5 t$ x. ]
Format : UTF-8, A! `1 V: J5 v9 {
Codec ID : S_TEXT/UTF8( A2 Q( T( ]& j- ]8 E  T8 R
Codec ID/Info : UTF-8 Plain Text
9 N) b, c# b( _4 |9 F. t/ [Duration : 46 min 35 s
; O7 w+ G  A: Z# H- z/ V% u6 iBit rate : 66 b/s
+ j5 z4 b/ }9 [% a% sFrame rate : 0.147 FPS+ J' e/ b2 O9 H; K4 W
Count of elements : 411+ j0 H7 \% y6 y; i
Stream size : 22.7 KiB (0%)2 W+ X8 u; T( I, R+ r0 U9 Z
Title : Français1 M  t% e2 j* q7 ?' `+ I4 S1 n
Language : French
* a" I% K. v& R4 j( g5 c$ eDefault : No
# T& [) g! s, _5 {) ?Forced : No7 r& f. l" O0 v
, R1 `  U4 F& Q) O( }, p$ W9 j2 U

7 \7 g* F$ b8 s* x$ q% E) SText #10
! P3 |+ ~9 v& ^9 Z3 x7 SID : 12
( u: a+ y; I1 y9 q7 p9 CFormat : UTF-8, ^- x' Q  r  f
Codec ID : S_TEXT/UTF81 _) y1 i  [% ~: d2 P( z( Q
Codec ID/Info : UTF-8 Plain Text2 T* n3 ^( j  e7 M
Duration : 46 min 35 s
3 e7 x3 D5 _* J8 Y2 @Bit rate : 63 b/s; q+ d* ^  ]8 z# h0 c
Frame rate : 0.132 FPS. [+ b+ S: {% d9 i
Count of elements : 369
* C1 R$ R$ }' OStream size : 21.7 KiB (0%)' S4 i: i* P; x) n4 j
Title : Magyar: ?+ J. K7 G+ k/ D
Language : Hungarian/ J4 T/ b, W1 X& m. A
Default : No$ I1 P2 G6 k) B7 e* P
Forced : No
3 {8 v  J$ A" @: l
9 @$ K( M2 a' j; H  H
( _# A3 P0 y2 A2 C
Text #11+ D0 G, Z5 ]0 P: W- B+ s) ]
ID : 13
5 a$ Y+ O! n* Z6 K) R- }7 KFormat : UTF-8
* \# X0 R. |* n/ r+ ^Codec ID : S_TEXT/UTF8
& ?" _1 N& h. f: j- LCodec ID/Info : UTF-8 Plain Text; c; \7 I9 m7 U
Duration : 46 min 35 s+ }5 L5 l) \: T; @+ {" V
Bit rate : 61 b/s% F& L+ e$ e: h& d! r
Frame rate : 0.138 FPS
8 H6 g' W. e8 t; S( PCount of elements : 385
0 W4 Z; u2 }! d2 @Stream size : 20.9 KiB (0%)6 |0 P8 x" b$ b/ x
Title : Italiano: o3 e& N7 U- w" y8 Z* j! L
Language : Italian! y& j  G! X% w0 i3 v4 T; a& X3 x
Default : No' Q, \4 y8 a3 \+ ]
Forced : No" |0 I9 i, q1 t9 w- d

+ P9 ]8 i. z7 X; Y

/ j$ ]8 J9 W8 D$ s  ^) `Text #12/ C0 E; W' V2 F. v
ID : 148 i4 z  `/ f- [
Format : UTF-8# g4 e5 s% ~' ~
Codec ID : S_TEXT/UTF8
# H0 j5 c* c1 _: O1 Z5 \Codec ID/Info : UTF-8 Plain Text
( I, u# I' W1 Z1 s9 g0 K' p4 UDuration : 46 min 35 s
3 ?' f! H, G  m9 @Bit rate : 54 b/s  w7 _. J+ }* |9 P9 m4 Z0 `5 Q
Frame rate : 0.143 FPS# f- I2 I6 W* o
Count of elements : 400! @8 q. s% B3 B+ |* y4 \! i5 {
Stream size : 18.6 KiB (0%)$ X9 ~1 `8 d9 f
Title : Japanese
" M( W* Z& y+ [9 }2 {+ u( _Language : Japanese
; C. @8 @  k! H; K, U5 j: f6 i5 iDefault : No2 M; l3 P6 T0 z" T$ Z! U, b
Forced : No
+ u" j8 A  V3 a; P- b  r  Y/ w$ Q* }: K6 T& q$ v# `
; Z$ m& b6 t8 J# _$ K2 G
Text #13
3 z6 y3 E5 Q! UID : 155 b% O4 H" i. J! f
Format : UTF-8
3 k: t  v9 k$ f$ h; z4 cCodec ID : S_TEXT/UTF8
) s- @! d2 F) G) O' g2 a- {) NCodec ID/Info : UTF-8 Plain Text
) E9 A  g- D  O8 EDuration : 46 min 35 s
5 B: C7 h9 F  ^0 l6 J; aBit rate : 58 b/s
. }. H0 k) j7 N( J; n% R6 _Frame rate : 0.152 FPS
5 U& n. L) B5 h4 w6 ?% ~/ a/ g% S, ?$ O2 ICount of elements : 424
, N9 y5 X" Y! O, u" {6 L0 GStream size : 19.9 KiB (0%)! y) Q7 N1 [1 P) l/ o
Title : Korean- M) H4 l5 C& i  W: k- o7 M2 S8 @( o
Language : Korean
$ l+ U) T- `6 I9 ]7 KDefault : No" K$ M4 I1 W+ _/ `) r. D$ l
Forced : No% k7 Q$ u' [- _) C' @3 g! _
9 N2 h. R7 Y6 h2 d9 W" v

8 N9 S7 a2 k1 g2 S, yText #14
! H  W9 m+ u! L' L8 pID : 162 q% ?6 n! Y$ b9 l" q. u, W! v
Format : UTF-8
# q; Y6 Q# R4 N5 QCodec ID : S_TEXT/UTF84 A# j# _' n; {7 E8 a4 |9 H
Codec ID/Info : UTF-8 Plain Text
( X+ O, |: ^0 Z1 f! z7 H2 X2 rDuration : 46 min 35 s6 Z( b/ g/ W' `0 m8 [
Bit rate : 49 b/s$ N2 D" u3 G  R' h* F; [
Frame rate : 0.133 FPS5 E; J: ^8 O% {+ y. r  H  I
Count of elements : 373
* D% ^- {0 M% s3 b! dStream size : 16.8 KiB (0%)
- k1 R/ `  v. B  ?Title : Nederlands
$ {' O3 h) N. \8 SLanguage : Dutch
4 z0 T/ Y0 a" Z1 b2 |2 ~3 JDefault : No
3 K- y0 x" {% IForced : No4 ^/ Q) e: q1 `& W2 G; n

2 P6 P* S. w5 Q( q% _# N
5 I5 E4 r5 E) W+ A# M
Text #15! b  g1 h7 L. S! U. A
ID : 17
4 i: H5 K  |& T5 L6 @; NFormat : UTF-8) c9 j% D/ f) ?; L6 k8 a
Codec ID : S_TEXT/UTF8  L- Q' x5 R/ H& @
Codec ID/Info : UTF-8 Plain Text( x. U% t! b. f
Duration : 46 min 35 s
- E+ Q( a+ |# p) q( l$ {/ p0 X, HBit rate : 56 b/s3 m$ k) y' l4 G3 A) [* F
Frame rate : 0.138 FPS8 D5 R2 D- G* i! A7 e
Count of elements : 385
6 T4 D8 M/ x0 _  A' B3 NStream size : 19.2 KiB (0%)4 K. H8 y. n) G6 w* D
Title : Norsk
9 ^. @' o4 g- F) o4 d& h  K' O+ qLanguage : Norwegian
5 e. ~% M6 h. N' N$ O1 I2 T# wDefault : No6 M8 b( P) y# R" e4 i& s1 m
Forced : No1 h/ e2 n6 t& A# W( y$ v$ E

6 Y  G% F! s# \: |
+ L) ]" N) d8 e% A& V7 J0 i' U' N
Text #16
3 @1 n9 e  J0 |: R) lID : 186 K1 C. v5 J+ o
Format : UTF-8
, [% A0 `4 I: ]/ P2 J' GCodec ID : S_TEXT/UTF8
, j2 d+ s: `! U8 x8 Y; N: w. L) W5 OCodec ID/Info : UTF-8 Plain Text
6 P6 H; A2 Q: mDuration : 46 min 35 s6 f1 i' [! u' C/ N5 s7 Y0 Q
Bit rate : 56 b/s
# W  o! @. ]7 m" V# F. G. BFrame rate : 0.138 FPS
3 d+ R5 p6 a- @: _Count of elements : 386
& Y6 w) o0 O$ A$ f5 ]7 VStream size : 19.2 KiB (0%)
2 N" }- @9 Q2 U) T0 N2 @) wTitle : Polski
" C; C1 o' B# jLanguage : Polish' c( n) A! u# B6 D5 t1 w3 E7 m
Default : No# s" u' f. x3 [: t; `
Forced : No
2 T1 D/ \8 {4 q& z  a4 T6 O1 a  z; K( ~
$ O6 U8 T  j  u2 w( _4 j8 h8 M
Text #17/ u, k+ E3 q' p* t, _4 A; @
ID : 19' y4 Q. |9 _* t' ?0 j; R2 \  `
Format : UTF-8
# I! h, q: Z' K7 r3 E- ZCodec ID : S_TEXT/UTF8
" ~( J7 N( V5 n& w* GCodec ID/Info : UTF-8 Plain Text
2 ~4 x# _9 ?0 n2 R$ ~: ]! \# l& gDuration : 46 min 35 s: E- R1 }; A: K
Bit rate : 60 b/s; Q. x4 c+ U# ]: E2 `
Frame rate : 0.141 FPS% r3 Y5 ?- a" J7 g* r; S# ?
Count of elements : 393
& o" `# R9 q8 {' L3 CStream size : 20.8 KiB (0%)" ~$ S6 n- D9 c( Y; B& Z) E$ Z
Title : Português
* K2 a5 K# t/ w# T, S& f0 rLanguage : Portuguese
' k" N  [9 [6 F& hDefault : No
# B% V/ W+ w  i& KForced : No
9 M6 w0 y6 H3 a2 f( c6 u3 ?9 \* Z
2 w5 B: L2 _" F4 j0 P+ K

; I& b0 W3 f: T. }1 zText #18
5 \4 ]8 [5 X& b# D# uID : 20
$ a! q- Z' n+ I8 g3 t# e2 lFormat : UTF-8  q- {5 e& b* b# c
Codec ID : S_TEXT/UTF8
4 r3 l! N3 w. ]2 [% q1 P! \Codec ID/Info : UTF-8 Plain Text+ w0 S: c; r  U, d" g
Duration : 46 min 35 s! X# A6 j. |' |0 D$ y' C
Bit rate : 60 b/s
% b  a8 V! ]: s- hFrame rate : 0.140 FPS1 z9 y: S* f* P- o
Count of elements : 390: N/ i+ U& _0 f3 L0 v* o
Stream size : 20.7 KiB (0%)
( L3 W" g) a( j- F# y# X# PTitle : Português (Brasil)
- d* P' \) C) d# X' ~+ sLanguage : Portuguese% ?1 q6 P7 }$ E, T+ t
Default : No
9 v$ {- z# ]( o2 r' k% z( K7 zForced : No
8 K) U- l& `, Z, `  j) ~+ J- ~
# w( R$ A& D7 N' c0 g* c+ T8 L
Text #19
6 t0 M( F4 ]8 r, O! O2 M2 e% x: s2 Q  vID : 211 l/ ?8 Z9 c" ~) w% l% c
Format : UTF-8
5 N: o- @: ^3 O9 _. a/ X1 T$ S( bCodec ID : S_TEXT/UTF8' B0 G1 J) Y7 _& s3 i+ a
Codec ID/Info : UTF-8 Plain Text
/ x6 [( q/ s2 H: nDuration : 46 min 35 s% q$ h, y) |; F$ w  N2 s3 b( x
Bit rate : 64 b/s; Q0 b. P: x* m1 t0 J) W- E
Frame rate : 0.137 FPS+ M$ M  |8 T8 d! W
Count of elements : 383% }, L) r* W+ A
Stream size : 21.8 KiB (0%)( s' o7 m1 v* ^$ w# b
Title : Romană" H. z& a% i! K9 d
Language : Romanian  I  Q$ }7 D: b, |0 J
Default : No
9 \' ?% d  p9 j3 n2 g+ k2 i4 |# jForced : No
5 A2 `: E& J6 {
9 X7 l6 C+ O$ e2 z; V' h

& p$ W* }) B" C0 D2 ]% C+ YText #203 _; t7 j, b. A! r8 a
ID : 22
3 B8 T1 j$ }8 I4 j4 `" DFormat : UTF-8( Z; w3 T$ n: g* Y8 z& l$ L
Codec ID : S_TEXT/UTF8
2 L  D2 ~0 l: j( L) p. UCodec ID/Info : UTF-8 Plain Text. t2 ^  u- s- O' Y6 c4 n
Duration : 46 min 35 s
% m$ f, o. d- w8 h( D% aBit rate : 60 b/s4 s  o, K* i; }/ f/ T' t
Frame rate : 0.138 FPS
0 G4 H1 M6 r& K4 l- @: F* KCount of elements : 386
! t5 b& c$ \* R( M6 k% j3 i+ \/ FStream size : 20.6 KiB (0%)
1 _* n# m# F: k' j$ R* ETitle : Slovenčina7 j: T# L5 C3 ^! C
Language : Slovak9 t/ F4 D- P& c$ L$ ~
Default : No  E* O5 y; n( T7 R# e% v
Forced : No2 S2 _- s; b8 U& p) {
7 Z9 g: b5 |# f3 W" q# O/ h: N7 r

7 A- ]. `/ p! ]Text #21' Q8 v. y0 [( Y/ G* v
ID : 23, |! F% C& o. {3 H  \) o
Format : UTF-8* T& V, G8 n4 o' k# [' l7 g
Codec ID : S_TEXT/UTF8; V4 Q% X+ u; \
Codec ID/Info : UTF-8 Plain Text5 ?! I3 t' }9 \( m
Duration : 46 min 35 s$ A; z$ n; u/ ]: h- e  V
Bit rate : 60 b/s% H+ v* L2 ~5 Q1 T. L
Frame rate : 0.138 FPS# Q" f7 W: c. y
Count of elements : 385
. O5 ]9 j& l- E( KStream size : 20.8 KiB (0%)
$ p, E0 }& A) m. X1 z0 YTitle : Svenska2 N) N* {. s7 R" ~) S
Language : Swedish. b' _& h* _8 B5 J2 U2 J
Default : No) S% f. n" c  k& x
Forced : No4 S( [( _' r0 e# q4 }7 o
$ P# m+ {1 P6 V8 t. |* L4 {

5 p- |1 j- Z) w% ?4 ?Text #22
- G; Y1 u. L- F9 x" u" EID : 24, h+ A" n; G! Q/ h
Format : UTF-8
4 Z' w. k" f1 F: X$ aCodec ID : S_TEXT/UTF8* T) C7 @* G" M6 R3 t
Codec ID/Info : UTF-8 Plain Text
! ~4 x. m  ?# s! JDuration : 46 min 35 s$ a$ p* H; b  F% J  v" ^
Bit rate : 58 b/s
7 J8 ~$ j5 k) k; V. p/ aFrame rate : 0.138 FPS
! c( D4 |* s4 r/ f# A3 cCount of elements : 386& ^! X+ D$ {4 c0 T
Stream size : 20.1 KiB (0%)  x) b- a% s0 c' X
Title : Türkçe
# M2 p- q; c5 fLanguage : Turkish
- G" I. k% g7 B- m" B  M: KDefault : No6 [. V0 f! p# A+ ~6 e
Forced : No
) [! a2 ^1 R0 k) O! {( G5 ~
3 L7 [! u$ T! d7 L( c9 S& k

- R6 t0 i) {: D8 I$ B0 M3 s5 T! aText #23
! Q9 t6 S: z' ?& kID : 25
* x* y; G  \1 w& v% c. `: [Format : UTF-8
+ K9 j- Y0 A7 l$ LCodec ID : S_TEXT/UTF8* I( L+ S* Z+ u6 m8 y
Codec ID/Info : UTF-8 Plain Text. S6 ^- |8 b1 u% B0 `; R
Duration : 46 min 35 s
& J7 h0 t/ g5 eBit rate : 41 b/s) b4 X- b( k! c% Y4 q
Frame rate : 0.138 FPS
; o; A/ G& F# q4 q2 i8 ^Count of elements : 386
* N7 Y7 s* ^  ~Stream size : 14.2 KiB (0%)
& ~( j$ K) n7 E' G+ b( oTitle : Chinese (Hong Kong)
, t+ I0 f/ |7 s4 jLanguage : Chinese
9 T9 p* [: H* O8 \Default : No0 V# O/ l' r: P! T) V
Forced : No
; j0 L& k0 _" O. N1 i# V
7 Z' G: [( B; {. Z, T
; ^$ o( O) e7 h) _
Text #24! H/ `$ v5 Q' H5 i% A1 r' w
ID : 26( O& d$ l( U3 R, i
Format : UTF-83 \5 d& C& F' v3 x! R, e) A! g
Codec ID : S_TEXT/UTF8
. d; N& u. E# g. t) B* BCodec ID/Info : UTF-8 Plain Text
+ _0 m/ h7 Z3 K! [; G+ }+ y; |Duration : 46 min 35 s2 h5 v. I% I( _, @2 j- `# |
Bit rate : 41 b/s! ^$ b9 J, v' h- I! h' c2 ?
Frame rate : 0.138 FPS
3 Z: D' \! Y3 G. ZCount of elements : 386
4 Y; F" K4 a) |, j3 ~0 C- hStream size : 14.0 KiB (0%)
. U1 o5 G# Z; \' C5 x2 DTitle : Chinese (Traditional)9 o% i* O2 j3 O; }& n
Language : Chinese: ^3 R2 b9 d; O% R# o: v% S
Default : No5 c) x- \# v! ]
Forced : No! Q7 l  P$ D; ?2 J# A, k
4 r4 m) o7 a3 u
& l4 n( i4 }+ M7 `
Text #25
6 `! h/ x! W+ |7 N( z  AID : 27
6 d7 p- j9 Q& T6 ?Format : UTF-80 s8 F7 H9 y- K3 u1 G6 g
Codec ID : S_TEXT/UTF8& \) I, h. G! w
Codec ID/Info : UTF-8 Plain Text
2 [# m; ^0 O0 {, X% V3 F+ YDuration : 46 min 35 s" i$ m- _/ R9 J; b8 N9 s& o. z; G- |
Bit rate : 41 b/s5 r, ?; i1 ?+ L) h; N5 z
Frame rate : 0.138 FPS
7 d2 x; f; C0 ~Count of elements : 386  M9 Z$ Y' Z/ U1 D; B  ?7 I
Stream size : 14.3 KiB (0%)0 y& i# v. P5 E3 }' Z+ Z' S5 [
Title : Chinese (Simplified)
1 D0 K% X) I- e2 A3 rLanguage : Chinese
- t$ I2 k6 f0 q6 g* aDefault : No
* b- u8 r2 l2 D9 |4 J8 S" {Forced : No
0 o$ M& k3 V; J  n" q3 X" g( G

' R# z" L  Y% g, y) U; W
% d$ }! j, k# i2 h8 j超级/自然/超/自然4k.Super.Natural.S01.2160p.DSNP.WEB-DL.x265.10bit.HDR.DDP5.1-4k纪录片下载) X( A3 t4 T$ q* E' t0 W% P5 x7 e

  i, ^1 e9 R- r! c自然4k.Super.Natural.S01.2160p.DSNP.WEB-DL.x265.10bit.HDR.DDP5.1-简繁中字【26.44 GB】7 T1 ?& n1 Q7 R

6 ^8 j# ^) T; \8 n7 z5 ^' z1 U0 f
自然4k.Super.Natural.S01.2160p.DSNP.WEB-DL.DDP5.1.DV.MP4.x265-简繁中字【杜比视界】【30.39 GB】8 B1 I- ]$ q( F. U2 C
- C0 C1 U# T) ~% l

/ l" U5 l1 j9 h' u. R. V( L( X自然4k.Super.Natural.S01.2160p.DSNP.WEB-DL.DDP5.1.DV.MKV.x265-简繁中字【30.39 GB】$ q+ p: l0 j5 H2 j' o1 Y4 ~/ N

4 e5 j# U: b  h, ~. J- d! h0 S# g4 v3 Q9 n
- U% T+ J6 m. S) }) E7 \$ k

: b8 S# M. |& d: M( Q# V- I+ K  i' Y- v$ i( d; R# z+ `
登录 发布 快速回复 返回顶部 返回列表