开启辅助访问
 找回密码
 立即注册

The Colorful Ballad of Louis Armstrong/路易斯·阿姆斯特朗的黑人形象与蓝调音乐4k.Louis.Armstrongs.Black.and.Blues.2022.2160p.ATVP.WEB-DL.x265.10bit.SDR.DDP5.1.Atmos-4k纪录片

#4k记录视频#时间:2023-04-28 阅读:260 回复:0

: E% o; {" ~) V/ T. U( `" U 105838hh6ttb45jljjn5po.jpg.jpg / `- P4 X: Y) O1 N+ f, T
" C, ~! Z& q" C" {: T$ i5 J
' V: M3 {7 B0 D1 U5 W
简       介
) f6 z# f( A& j8 L8 f

. M3 j( w( k' m       《路易斯·阿姆斯特朗的黑色与蓝调》通过档案镜头和从未听过的家庭录音和个人对话,展现了这位改变世界的音乐家的亲密而深刻的一面。这部权威纪录片由萨查·詹金斯执导,纪念阿姆斯特朗作为爵士乐开国元勋、第一批国际知名和受人喜爱的明星之一以及美国文化大使所留下的遗产。这部电影展示了阿姆斯特朗自己的一生如何跨越了从内战到民权运动的转变,以及他如何在那个动荡的时代成为一个避雷针人物。
1 ]5 ~0 m) U5 Q. E
% S5 c3 z0 K% e/ I! |. [2 [影片参数
- a; c- g. ?. r0 F3 j
* R8 Y6 {- w8 n) F9 ^9 u  ^( H$ C# [
Black & Blues: The Colorful Ballad of Louis Armstrong/路易斯·阿姆斯特朗的黑人形象与蓝调音乐4k.Louis.Armstrongs.Black.and.Blues.2022.2160p.ATVP.WEB-DL.x265.10bit.SDR.DDP5.1.Atmos-4k纪录片信息1 U+ L+ V/ c8 ~
Video; O+ X0 L( p; B% {3 G
ID : 1
( H% a5 |! w" r' f# [Format : HEVC
+ f# i. x  e" j9 `0 cFormat/Info : High Efficiency Video Coding2 ^3 k0 R/ V. Y/ w2 A0 _
Format profile : Main 10@L5@High
+ i9 A, T  u2 ?3 ICodec ID : V_MPEGH/ISO/HEVC
) f6 t9 \6 `" q/ _Duration : 1 h 46 min1 g: I* ~  U( i/ U- s( E8 z: E
Bit rate : 20.2 Mb/s3 m* y/ O9 Y/ {! u
Width : 3 840 pixels. O2 E0 b+ d4 i3 Y' y' q
Height : 2 160 pixels
# M8 b" z4 k" g1 K: J! e" jDisplay aspect ratio : 16:95 Y; D/ ^8 C3 _; z0 u+ T0 Z
Frame rate mode : Constant
% _: c% ~9 ?6 \& e5 s  vFrame rate : 23.976 FPS9 U) q+ q, d+ J, P
Color space : YUV
" a. |. h1 K& f3 C/ MChroma subsampling : 4:2:02 G  R" f) O* O! f( o& U# B
Bit depth : 10 bits
$ `& Y& L$ F! t- v( {Bits/(Pixel*Frame) : 0.101- T5 L7 L% V* g2 Y
Stream size : 15.0 GiB (96%). z$ _8 J4 g* E% @: t' p9 H* V! Q
Language : English
- r& j; v/ ~; SDefault : Yes
/ u# o2 ^7 s. V* k  AForced : No
1 q: X* f0 ^6 k  wColor range : Limited
5 `: c. I# c, h- t2 gColor primaries : BT.709
0 s, d; B4 B3 e/ S. n9 \7 p$ `( f7 O6 fTransfer characteristics : BT.709
3 O' p5 Y. i1 V* CMatrix coefficients : BT.7095 J/ S# \0 k  G; ?6 X% {7 p) B
1 z8 _% |( K/ s5 J) J) s

( e, @+ B( ]4 `) ^Text #36* Y( s  Z6 F9 b$ s+ u2 m
ID : 38
8 Y7 `, d9 y  B/ \7 GFormat : UTF-8( z" R# ~. D- Q) U3 ]4 G" i, M. c
Codec ID : S_TEXT/UTF8; p' o/ e% T6 R; s, X7 }
Codec ID/Info : UTF-8 Plain Text
) _! D& h5 Q5 L" K2 ADuration : 1 h 45 min
! J7 L& i& \- K1 Y; gBit rate : 312 b/s; S2 k$ ^* ~7 U: I
Frame rate : 0.298 FPS
/ f- D/ U8 }6 n  W+ m2 BCount of elements : 1891
7 `+ O3 N" [# P6 U8 @Stream size : 242 KiB (0%)
8 T  W5 r7 W0 G& D. eTitle : தமிழ்* N1 G- A1 b  i2 `; G5 m
Language : Tamil
! G1 `4 y. H# A0 uDefault : No
7 @9 x1 [& X; a+ V. D' Z5 ~Forced : No# B# @9 U4 X/ o, ^$ o; C

$ M4 W& {! x$ E& S" m- F

" ^! g, D% |6 r& {$ d8 X# D9 s  W- NText #37
) k  J, p! y7 c7 v  j) `4 dID : 39- t& w& b4 r6 D
Format : UTF-8+ h" o1 k" |% S2 W
Codec ID : S_TEXT/UTF8
' ~; v! B' [; p$ k5 O7 y) |Codec ID/Info : UTF-8 Plain Text- z1 e& Q4 u2 j0 ?* y7 `9 d5 d
Duration : 1 h 45 min
* D$ a9 @! {+ p/ g# pBit rate : 241 b/s- ~( i" ]  j* U- j. D. T
Frame rate : 0.298 FPS+ w6 E0 o: }/ k) U" `
Count of elements : 1892  r- O" Y0 K& j: I
Stream size : 187 KiB (0%)
' V! b- b5 {# ~- v& RTitle : తెలుగు
  Y2 |& I( c. R2 U4 FLanguage : Telugu( G) C' a# b, r
Default : No) T; C- X8 f+ j! W  y! H/ o  y, \5 i
Forced : No
) }/ u7 ?0 j, u0 ^7 {- q8 r+ w- _; \' e- L4 E- T. Y; _# n3 E0 {
7 r( r& p- E1 v5 H( z5 U4 o- P7 w
Text #38% h- m* J7 ?2 v5 s6 E8 P
ID : 40
# |+ P, m& |2 P, f9 i) D" I% KFormat : UTF-8. `# n) U0 |7 N; B
Codec ID : S_TEXT/UTF8
5 X3 y; C  j9 o' Y$ T/ d8 s% zCodec ID/Info : UTF-8 Plain Text+ ~/ b0 G) c! N+ `* `
Duration : 1 h 45 min
+ Y2 k( _# @1 q, `+ @* yBit rate : 216 b/s$ k+ s. B7 M- C& X7 w
Frame rate : 0.298 FPS. l6 l9 q! j+ _: z1 x6 b6 @
Count of elements : 1893
7 ?& P  k1 }" i2 VStream size : 167 KiB (0%)
/ ?  j$ h0 f$ B6 XTitle : ไทย
; ~7 P# ]# d  V7 i' RLanguage : Thai% R5 ?# j! t% {. r7 L/ O
Default : No
) b- P; o, b1 s) @# [Forced : No
( @  R& M  W7 I4 c$ ^" K8 [5 I5 A, T0 O- Y+ R* U4 g& p2 ?

$ z; V" W: x* a& N$ ^  h; T3 H/ z2 xText #39
9 }& U' v* H0 h3 C' {$ rID : 41# S6 D) F) X0 Q- O: S  f
Format : UTF-8) c! {! C8 D% k; O
Codec ID : S_TEXT/UTF8
2 s1 [7 A0 V, n, YCodec ID/Info : UTF-8 Plain Text
6 q6 j* r9 S  b7 T# yDuration : 1 h 45 min. G* ~* ]; {+ }: f
Bit rate : 94 b/s
1 ^+ D/ p2 k+ i& f) X" B5 H, LFrame rate : 0.277 FPS. H. n% J. J) X" D# q
Count of elements : 1760
% k! X9 ~, Y# u& v9 r' [( I. hStream size : 73.2 KiB (0%)
0 P; x1 B2 K! f0 W; V1 x, c' JTitle : Türkçe2 L- R/ h5 m1 F! \% |+ V) d$ }
Language : Turkish3 D# u1 |# c, J
Default : No$ L3 Z7 k/ d8 d( w
Forced : No2 G, I* m8 ^3 o2 F' m$ O& o

3 f1 u# @! n- ]. J9 I8 I

1 b! a4 Y& m5 {4 U4 v0 I( A" E/ eText #40) B& ]: T9 i6 {. l9 H" U8 _
ID : 424 H+ v) w) X( u5 m& }: Q
Format : UTF-8- B5 Q( z; Z; L4 }2 ]. M
Codec ID : S_TEXT/UTF8  S" w  K* Y) }% v
Codec ID/Info : UTF-8 Plain Text
* B" Y- n' U9 ]- BDuration : 1 h 45 min
, |" V2 m' m1 eBit rate : 152 b/s3 M  U& g  C7 d/ d" x
Frame rate : 0.297 FPS% h* w) e5 a2 a5 w6 t
Count of elements : 1888
( y- J  H5 T% @9 P: j) AStream size : 118 KiB (0%)
8 ~, t5 j. M( _" UTitle : українська
7 [. z9 @4 E0 Z' N  H9 {3 l" XLanguage : Ukrainian
* a. \/ F$ u2 sDefault : No
1 p( P" f3 R! Z& Y  \& wForced : No" D: ~; a7 \! \( P( C3 x: q/ }
4 N4 Y$ J, ]. @; u; t

/ l8 a3 X# t" i3 Y. s* |% eText #415 K! p, O0 ]1 D1 c8 g5 t/ {0 k! ?
ID : 432 \7 z& @1 O) U, p2 ]5 Z
Format : UTF-8
! E% L8 O0 X( a( f7 TCodec ID : S_TEXT/UTF8
. a8 m, T7 `1 r+ j9 x+ Y- \0 S/ X$ VCodec ID/Info : UTF-8 Plain Text+ @2 e( Q& ~2 v4 z  c  ^  S7 x: m$ ~
Duration : 1 h 45 min
- l8 q+ {9 k8 d, w9 b# L9 XBit rate : 111 b/s
" x1 f$ k9 d1 C. uFrame rate : 0.289 FPS& m5 L" E0 k# I( ~9 N
Count of elements : 1833
3 R, t8 W9 d7 l* C* ~Stream size : 86.2 KiB (0%)# E" x6 ]& Z, U9 B7 x
Title : Tiếng Việt
# m; D) [$ M: _6 N0 TLanguage : Vietnamese2 I' o7 N, _# y( B
Default : No9 ?/ i+ F6 x! }3 g9 F( R; O
Forced : No; `5 w/ K& t- s; }( f' K$ f0 ~  W

$ a& e9 }5 s4 \* Q& a6 C5 l

( [  G7 E4 p  b; v* i8 bText #42/ z: S- M) f. C- k9 `8 e. W7 }
ID : 442 P% p8 g6 \7 e: k
Format : UTF-85 C6 s9 L5 [% G5 j' K# A7 a+ |3 B
Codec ID : S_TEXT/UTF8( {5 S, n: u' u
Codec ID/Info : UTF-8 Plain Text
, }5 h  A0 i2 g8 }: [$ DDuration : 1 h 45 min6 X/ z% M8 S$ Y: H9 r$ l
Bit rate : 86 b/s$ n! A( g" @! P. `' t6 o1 j
Frame rate : 0.298 FPS
+ W" q! U5 w1 V. Q9 |( E5 A6 sCount of elements : 1894
" I& m0 d, x2 E$ H+ d' Q! S5 bStream size : 66.8 KiB (0%)/ q+ L/ n! a8 i; }
Title : 廣東話
+ h6 ?4 d) n/ T- A+ X6 G2 O0 \Language : Chinese6 j' w+ O* T, q2 x
Default : No  \- U" C. h. X3 G3 v
Forced : No' N$ k& t, z" W% u
' a) p2 m" p5 A7 ^- r; K

/ M+ F4 B; Z' H1 t5 I1 F9 k, ?0 _1 xText #43  N  H( Z6 g8 c. j& Y
ID : 45
0 J/ v- L8 p4 B  M$ s6 G- \. MFormat : UTF-8# }# w6 R; E9 ^" X" S$ b
Codec ID : S_TEXT/UTF8
- g9 v6 o, k' UCodec ID/Info : UTF-8 Plain Text
4 J: i3 K1 h0 L% {3 \1 X) `2 `Duration : 1 h 45 min$ c) n4 F5 u  N
Bit rate : 90 b/s, V9 S; H% q% B
Frame rate : 0.298 FPS
$ Q, b& f6 H/ @( g5 Q& S' jCount of elements : 1893
5 ~+ A2 p# T+ {6 k2 i  C7 PStream size : 70.4 KiB (0%)
0 a1 i' T, c6 q4 c- U1 S, V, CTitle : 中文(简体)
/ y7 P0 I; J/ HLanguage : Chinese
! f4 p" H& }# ]7 ?/ O% a; lDefault : No
% e; o4 y+ m/ M% W: h8 h" vForced : No
( F5 P/ ~: h. O6 N3 ]( Z1 C+ P8 e) D8 t% Q6 W1 Z( Z) [/ Z

8 X( T) z: Y# |Text #44
1 ]" y* X% \, p& U$ S2 z3 p$ O6 ?ID : 461 _; ?4 }7 m( \
Format : UTF-8
" |; Z; Q) s- h5 ]8 FCodec ID : S_TEXT/UTF8
+ i: {  E2 ^( x- R9 {) ICodec ID/Info : UTF-8 Plain Text
( G: H8 B( f' \$ wDuration : 1 h 45 min
5 @: j( x9 b) G) ?7 s- Z/ HBit rate : 93 b/s2 ?% a, m( {6 j/ {2 Y
Frame rate : 0.298 FPS# E# Q8 Z+ Y( l$ M
Count of elements : 1894
% u2 o5 x/ m% \# sStream size : 72.1 KiB (0%)
1 C) W2 B( H3 P2 m( iTitle : 中文(繁體)8 i3 j6 |' X7 |
Language : Chinese
* u: v+ J1 n. [& a. zDefault : No
4 [: `0 F# w+ l7 GForced : No
; {* W& N5 H" [" r. S# p' ~8 w
4 z( j/ _0 |0 {9 c) \4 \3 b
Black & Blues: The Colorful Ballad of Louis Armstrong/路易斯·阿姆斯特朗的黑人形象与蓝调音乐4k.Louis.Armstrongs.Black.and.Blues.2022.2160p.ATVP.WEB-DL.x265.10bit.SDR.DDP5.1.Atmos-4k纪录片下载9 E& k3 r- Y& ^& s1 ^) Z

% `; e( w2 L7 i' y9 n8 t% }( R路易斯·阿姆斯特朗的黑人形象与蓝调音乐4k.Louis.Armstrongs.Black.and.Blues.2022.2160p.ATVP.WEB-DL.x265.10bit.SDR.DDP5.1.Atmos【15.57 GB】
+ k5 a8 b2 b9 s1 c9 e9 `( B& ~, z
+ C( }/ ~& a- S* a+ _
+ a( R* e( H5 s: I) T: q路易斯·阿姆斯特朗的黑人形象与蓝调音乐4k.Louis.Armstrongs.Black.and.Blues.2022.2160p.ATVP.WEB-DL.x265.10bit.HDR.DDP5.1.Atmos【18.36 GB】
. R1 m5 h$ Q% T4 B# l0 H
$ K4 K( C  v* ?; j$ s$ m+ i4 W+ i! ?5 o9 P% `  e% w
路易斯·阿姆斯特朗的黑人形象与蓝调音乐4k.Louis.Armstrongs.Black.and.Blues.2022.2160p.ATVP.WEB-DL.DDP5.1.Atmos.DV.MP4.x265-简繁中字【杜比视界 18.39 GB】
, ]4 O$ |! N' o" X  E4 C4 i
& h6 w, i4 G% K( K) c
+ \; E# q+ F! `7 b路易斯·阿姆斯特朗的黑人形象与蓝调音乐4k.Louis.Armstrongs.Black.and.Blues.2022.2160p.ATVP.WEB-DL.DDP5.1.Atmos.DV.MKV.x265-简繁中字【杜比视界 18.39 GB】
9 u8 \& }& a; \6 g* L. I+ j4 o- `" P) l9 _3 u" c

; A+ Z$ o) `' z0 L$ q2 q* n( f4 q& s% h% `
/ S) U0 ^* [( D. W2 r3 S9 b7 U. g
登录 发布 快速回复 返回顶部 返回列表