开启辅助访问
 找回密码
 立即注册

赛琳娜·戈麦斯:我的思想和我4k.Selena.Gomez.My.Mind.and.Me.2022.2160p.ATVP.WEB-DL.x265.10bit.HDR10Plus.DDP5.1.Atmos-音乐纪录片

#4k记录视频#时间:2023-04-28 阅读:197 回复:0

8 {& K3 \6 a, H, J! A/ c/ M 135309s0ud8j7uogxf5bu8.jpg.jpg 2 p. d/ w$ b! h% \( B5 y& v
' ]6 t3 h% \& [6 l, ?
& M/ d$ M" o; a- @9 \7 j; p3 ]
简       介

: O( L8 H+ b$ k' e" ^  R0 m8 U* l0 s* E. ], T
       在多年的风头之后,赛琳娜·戈麦斯成为了难以想象的明星。但就在她达到一个新的巅峰时,一个意外的转折将她拉入黑暗。这部独特的原始而亲密的纪录片跨越了她六年的旅程,展现了一种新的面貌。
& f9 `# g5 _; r1 F4 t& V1 l/ T5 d% @; n
影片参数
8 h% B& L  n& T
赛琳娜·戈麦斯:我的思想和我4k.Selena.Gomez.My.Mind.and.Me.2022.2160p.ATVP.WEB-DL.x265.10bit.HDR10Plus.DDP5.1.Atmos-音乐纪录片信息, l; T3 D6 _( l0 [- m8 V
Video/ `+ H8 z+ ?  m2 j7 R2 G$ a
ID : 1
6 Q) u+ e# ^9 x2 P  IFormat : HEVC  M! o+ \; r0 q) i
Format/Info : High Efficiency Video Coding
* v! l- C( j' M; Z+ R2 Z! u7 h; WFormat profile : Main 10@L5@High  b0 Z0 T+ D+ `) e/ C
HDR format : SMPTE ST 2094 App 4, Version 1, HDR10+ Profile B compatible
) z9 I9 ^/ H+ Z7 sCodec ID : V_MPEGH/ISO/HEVC- k# b) S9 c' a0 r* |* h
Duration : 1 h 35 min$ ]( ^3 }% F! y6 F# p
Bit rate : 23.4 Mb/s7 S7 o( N7 }" H
Width : 3 840 pixels* `( K; X8 Q+ l( s; O2 @
Height : 2 160 pixels
" F& m; e  @, x  w6 f) kDisplay aspect ratio : 16:9
: H: q$ [" @$ d! j* I& D0 k$ k9 zFrame rate mode : Constant( E( b  I9 I8 ]4 o  B) O. p1 |3 A4 T2 {
Frame rate : 23.976 (24000/1001) FPS
+ v3 @8 }& V2 Q* `5 iColor space : YUV6 |) d# S6 ?3 M- M' _
Chroma subsampling : 4:2:0 (Type 2)' ]6 R2 B$ ~  h8 v0 T$ y) t0 T6 g
Bit depth : 10 bits8 u  W& l% ?1 {( V) y
Bits/(Pixel*Frame) : 0.1180 H3 l; a" ]' P7 w# S
Stream size : 15.5 GiB (95%)2 _- L3 y7 c* T, X, l
Language : English/ b# D6 t4 T8 P2 k, h: Q) }! D0 t
Default : Yes' W7 F$ d$ J. F" y
Forced : No( @* H0 [. x- V$ |) c
Color range : Limited
2 P  `$ T* O. m' NColor primaries : BT.2020. [4 x/ p1 V3 W2 T4 t1 r
Transfer characteristics : PQ
1 w$ k' x7 D* s! Q' I  UMatrix coefficients : BT.2020 non-constant) F5 Y9 A* ?& p( K2 _
Mastering display color primaries : Display P31 [* y& |- Y) l4 W! C. H
Mastering display luminance : min: 0.0050 cd/m2, max: 1000 cd/m26 s; i5 V1 [( v) b
Maximum Content Light Level : 1764 cd/m22 k7 x, @- P3 y/ A# U6 F
Maximum Frame-Average Light Level : 954 cd/m2# N  t% s  G1 T( h1 ]% Z: A
" f6 s; k. ^5 d

; f+ _9 q$ ]& s! ~8 [! V. tAudio+ ?1 e# b" ?0 F; q$ k" `
ID : 20 O: b: c( q! O" f5 a% N
Format : E-AC-3 JOC
0 K) \/ N& }) R1 L# b  W5 mFormat/Info : Enhanced AC-3 with Joint Object Coding# u. j6 S( Z* w- }, B
Commercial name : Dolby Digital Plus with Dolby Atmos
5 }6 j, b# D: ~% `$ WCodec ID : A_EAC3* R) D1 v9 |4 Q4 Q. E
Duration : 1 h 35 min
) i( G- k) O+ HBit rate mode : Constant
, a, q3 H7 w* I( t) I; J' F; ]9 ]Bit rate : 768 kb/s, Y. a+ K  Y$ C7 E
Channel(s) : 6 channels! n0 n" y4 x; C) Y
Channel layout : L R C LFE Ls Rs
5 L- a9 O, p0 a6 eSampling rate : 48.0 kHz1 X* O% Z) c! f4 H& x* W
Frame rate : 31.250 FPS (1536 SPF)
" M9 _9 F, y! z4 v1 y5 F! k) UCompression mode : Lossy0 [( F8 ]! T* g+ M" w5 B$ i# X
Stream size : 522 MiB (3%)
1 d3 k8 D/ z& r0 A4 mLanguage : English: f5 o. q* C: s! _2 P9 G1 R" ?5 R
Service kind : Complete Main$ I2 x1 j! N$ E' `* }% i4 j
Default : Yes9 i) K0 U, X3 v& }% U0 c1 B& [
Forced : No
" z, J" C' [$ g1 N% r  v) kComplexity index : 16$ f) Y0 p4 @& H! _7 R
Number of dynamic objects : 15
$ y; e! Y6 q) {. x: L: k# dBed channel count : 1 channel
9 U- P$ @/ W/ yBed channel configuration : LFE- K5 k, P( @4 D" h; R, R
5 P; |) I3 G. g4 F* e0 ?
, N& D& W" B1 \5 e, w% B/ e7 X1 u
Text #1; C& {' c# {; ^7 r2 h5 ?
ID : 3" ~) b) k! s. T+ V
Format : UTF-8
' v3 y  `* F+ p4 nCodec ID : S_TEXT/UTF8
5 s7 I/ K4 h! P7 B/ OCodec ID/Info : UTF-8 Plain Text
: K4 U' i6 m# d5 ~6 H. E9 bTitle : English [Forced]% Z9 T- O; ~7 R" z2 T2 [8 Z
Language : English' B2 Y/ i; i9 r" e; E0 S
Default : Yes( ^) J4 j# F5 |: _* [0 q4 o
Forced : Yes* `7 ?( z/ p* d% b, O. q8 X- _

" u! |, z5 n1 X- J  _) i- n
% z8 b/ L8 X. v+ D+ }
Text #2
% T2 p' }6 z& rID : 47 F/ Q1 @  `" c* c! J2 G
Format : UTF-8
" j0 y" f1 {& W9 O$ w2 S! i9 g. \8 gCodec ID : S_TEXT/UTF8# P: k# }: ^, Z2 y& ]
Codec ID/Info : UTF-8 Plain Text, S; M  E) H- v; y- l
Title : English; z1 c* a( s  V* Y2 ^6 _2 N. t
Language : English/ t; D7 X$ i2 G7 Z4 N% B
Default : No8 S/ _& ]. M$ P- o9 i) l9 F
Forced : No# c2 l5 n9 d, }$ \# E- m

7 [) Q+ Z" i, i( C$ Z% Z

8 T7 D! j: B: S: A* a6 Z2 lText #3( M- k5 t' W+ j% c4 K# w3 J) D
ID : 5
+ b/ S# ^6 w+ b7 B" ?$ i5 ^$ R' RFormat : UTF-83 U! j3 b; G. O: n* T
Codec ID : S_TEXT/UTF8# u. R: B) R$ j+ T: F$ ~
Codec ID/Info : UTF-8 Plain Text
7 }% |& G5 ?) x# ]( L- s( a, ITitle : English [SDH]
: s" T& ~, `. s# d  z0 z: yLanguage : English
* f3 R/ O& F8 i9 m. b) HDefault : No" V  P  l; V% I/ G$ |  V
Forced : No
) U. ?; I7 ~6 ?0 t! M
4 `3 T4 W7 x1 \# ?1 I# r: C& p$ W3 ~

8 |# z, r  V6 E' m* G8 _7 _# MText #4
9 }5 F6 W6 M% s  B( AID : 6
1 j7 p0 B) n3 C6 `Format : UTF-8$ |  _  A. K# `/ J8 P% X
Codec ID : S_TEXT/UTF8' ~! e% T" Q; D7 A( G1 t6 d" f
Codec ID/Info : UTF-8 Plain Text
/ s- }, P1 n" u. KTitle : Arabic
5 X. y) Z' L5 x* [Language : Arabic& H+ T: ]! n5 F. a
Default : No
8 R4 q- I1 U% J; m* H# z4 @3 VForced : No
; I2 }5 w  x5 U8 {7 J: z8 l" P8 [- `0 R

/ |, ^( C% H% v, gText #52 q+ N! u  B9 {4 {
ID : 7
& E) \2 }9 m  m( n  LFormat : UTF-8
$ t1 h5 R! R4 ?$ e; tCodec ID : S_TEXT/UTF8
& S- A( C" S" q6 M, OCodec ID/Info : UTF-8 Plain Text
9 V# z% f4 G0 @; a% @9 J  }! F' hTitle : Bulgarian
+ f: z' m( |5 c' x+ d( pLanguage : Bulgarian
5 x6 g# Y+ ^( M0 a% W6 yDefault : No
& H4 B, z; ~4 WForced : No% b# s- _+ S3 O

. w8 B! K+ q0 \1 _2 F2 y/ k

+ e6 ?1 A* o* I+ dText #6
' i, J* v/ }. U; N. BID : 83 C5 Y4 [% |* h9 H
Format : UTF-8
2 D* R4 P" p9 hCodec ID : S_TEXT/UTF8
! ^' X: W4 I" T) @# qCodec ID/Info : UTF-8 Plain Text
$ ~- n) Y+ y9 g  k/ L. `" w6 mTitle : Chinese Simplified
9 n1 ?5 O! q6 p+ A( V+ ]Language : Chinese- M! Q5 ~! s+ q  y
Default : No; H5 e1 i& \0 R1 _! ^; f# C5 H! N
Forced : No/ W0 R2 _, X+ s: x7 |% c
; A# R  p9 x! D4 j
. _8 u9 Q$ t% @+ M
Text #7
* }9 t9 Z* P! O. NID : 9
# v' z' e. _0 s- h8 }Format : UTF-8
5 C9 ?+ e$ J1 b) s5 @+ H3 U( K; B4 Y6 xCodec ID : S_TEXT/UTF80 c1 h) W6 t3 y# C- M& m: ]: E' k
Codec ID/Info : UTF-8 Plain Text  c! f# d. U+ s6 M; g* J- H9 K
Title : Chinese Traditional
1 q6 ]: s0 L& O7 ALanguage : Chinese( ^  I7 _) R: c
Default : No
' D; m5 S7 e1 pForced : No

4 T  |" L; e/ Q+ E4 ^/ T# F& ?4 [. W

1 I- y1 z5 [; s: n$ m5 |5 T赛琳娜·戈麦斯:我的思想和我4k.Selena.Gomez.My.Mind.and.Me.2022.2160p.ATVP.WEB-DL.x265.10bit.HDR10Plus.DDP5.1.Atmos-音乐纪录片下载
. s9 R( _* l" K" E$ @" o! H% D  L& ?, a2 E+ _
赛琳娜·戈麦斯:我的思想和我4k.Selena.Gomez.My.Mind.and.Me.2022.2160p.ATVP.WEB-DL.x265.10bit.HDR10Plus.DDP5.1.Atmos【简繁中字】【16.36 GB】
7 y3 s- L& @  ~; n; l( t: X: ~' w  j: q# m
; g5 T' P; k2 a: K( [" ^, w9 x
赛琳娜·戈麦斯:我的思想和我4k.Selena.Gomez.My.Mind.and.Me.2022.2160p.ATVP.WEB-DL.x265.10bit.SDR.DDP5.1.Atmos【简繁中字】【13.82 GB】. y, d$ t" }7 k0 X* W: S: r( z

3 A2 n  ^" Z) T1 t% l% ]. ?6 c) f  a/ w0 S. D9 z. t
赛琳娜·戈麦斯:我的思想和我4k.Selena.Gomez.My.Mind.and.Me.2022.2160p.ATVP.WEB-DL.DDP5.1.Atmos.DV.MP4.x265【简繁中字】【16.35 GB】1 c! }' j; H1 X4 j" V6 E2 C" p4 l
$ X! l& D# Z8 X0 J$ U5 q
# t. A" E' G% M3 U+ U' i
赛琳娜·戈麦斯:我的思想和我4k.Selena.Gomez.My.Mind.and.Me.2022.2160p.ATVP.WEB-DL.DDP5.1.Atmos.DV.MKV.x265【简繁中字】【16.35 GB】
& J. [* N2 S2 b/ ?, P' E/ k; g; I1 z/ D' j/ @* d

( N: ^' `, p9 A9 T" T9 T' Z& k+ \5 }! l

5 U4 q; ~1 S3 ]# y" N8 M
* }+ ^. U4 U' }. d$ r# a- D/ ^
登录 发布 快速回复 返回顶部 返回列表