开启辅助访问
 找回密码
 立即注册

Gabriel Iglesias: Stadium Fluffy/加布里埃尔·伊格莱西亚斯:蓬松哥主场秀4k.Gabriel.Iglesias.Stadium.Fluffy.2022.2160p.NF.WEBRip.x265.10bit.HDR.DDP5.1-4k纪录片

#4k记录视频#时间:2023-04-28 阅读:233 回复:0

% N+ m) ^5 Q6 w' r4 K& L 094413da10xan3faamaxm6.jpg.jpg $ t0 U/ Z* d  }% n

! K9 f; E) {6 Q5 M
3 p- I/ z0 Q, L' T8 c) @简       介
7 f) O3 e+ F' {( w! @" D( X' T0 E

# W: x. V3 p) J: l& N9 m5 M  遭人勒索。冒犯职业拳击手。与儿子玩“不给糖就捣蛋”。盖布瑞在这部重量级的单口喜剧特辑中,分享自己人生的高峰和低谷。
7 v' Z+ S/ q5 Y9 U, l

2 N+ D# F! [1 E1 F) y% n6 \5 q影片参数
Gabriel Iglesias: Stadium Fluffy/加布里埃尔·伊格莱西亚斯:蓬松哥主场秀4k.Gabriel.Iglesias.Stadium.Fluffy.2022.2160p.NF.WEBRip.x265.10bit.HDR.DDP5.1-4k纪录片信息
" O8 X  t6 t5 N& lVideo
) r, t0 N* P1 k) ?$ E  f8 }ID : 1
8 P4 d- M! a' H* c( dFormat : HEVC3 p$ x$ D$ Q' G: o/ t- u; L4 ^
Format/Info : High Efficiency Video Coding: C7 w, h/ S- _" R4 I3 ]: I) r
Format profile : Main 10@L5.1@High; w3 Z: V# X6 Y+ ]1 R8 x
HDR format : SMPTE ST 2086, HDR10 compatible0 ]/ |# R4 X3 D$ E
Codec ID : V_MPEGH/ISO/HEVC7 l3 |# j+ C2 c. j  m/ E( R* \: s
Duration : 1 h 55 min
0 @7 \# \- }! Y: V3 }+ nBit rate : 33.3 Mb/s
& U% s5 \4 T" @$ n# a1 v  t" J1 VWidth : 3 840 pixels1 t. v: T  \$ S2 S7 Z0 S
Height : 2 160 pixels
" d: h/ l8 m* O; s; d1 [$ b6 hDisplay aspect ratio : 16:9
( Y3 u' Z) _/ D1 g) r7 W4 YFrame rate mode : Constant
* s1 @4 {$ q0 C3 a+ d" iFrame rate : 23.976 (24000/1001) FPS  f  g$ N' `) X" W- _; K
Color space : YUV
; Q" n  x; H! J6 l% GChroma subsampling : 4:2:0
9 p+ l2 P4 u4 f) sBit depth : 10 bits
3 G: t4 @0 b4 S, U4 J! j5 dBits/(Pixel*Frame) : 0.1682 t/ x: i' ~; v) }. H' O
Stream size : 27.0 GiB (96%)
# f7 j5 j8 O0 e! W. g  lWriting library : x265 3.5+40-0b75c44c1:[Windows][MSVC 1933][64 bit] 10bit
$ W# u% |6 }7 w( [" g5 nEncoding settings : cpuid=1111039 / frame-threads=4 / numa-pools=28,0 / wpp / no-pmode / no-pme / no-psnr / no-ssim / log-level=2 / input-csp=1 / input-res=3840x2160 / interlace=0 / total-frames=0 / level-idc=51 / high-tier=1 / uhd-bd=0 / ref=5 / no-allow-non-conformance / repeat-headers / annexb / aud / no-eob / no-eos / hrd / info / hash=0 / no-temporal-layers / open-gop / min-keyint=23 / keyint=250 / gop-lookahead=0 / bframes=8 / b-adapt=2 / b-pyramid / bframe-bias=0 / rc-lookahead=40 / lookahead-slices=8 / scenecut=40 / no-hist-scenecut / radl=0 / no-splice / no-intra-refresh / ctu=64 / min-cu-size=8 / no-rect / no-amp / max-tu-size=32 / tu-inter-depth=3 / tu-intra-depth=4 / limit-tu=0 / rdoq-level=0 / dynamic-rd=0.00 / no-ssim-rd / signhide / no-tskip / nr-intra=0 / nr-inter=0 / no-constrained-intra / strong-intra-smoothing / max-merge=5 / limit-refs=0 / no-limit-modes / me=1 / subme=5 / merange=57 / temporal-mvp / no-frame-dup / no-hme / weightp / weightb / no-analyze-src-pics / deblock=-3:-3 / no-sao / no-sao-non-deblock / rd=4 / selective-sao=0 / early-skip / rskip / no-fast-intra / no-tskip-fast / no-cu-lossless / b-intra / no-splitrd-skip / rdpenalty=0 / psy-rd=2.00 / psy-rdoq=0.00 / no-rd-refine / no-lossless / cbqpoffs=0 / crqpoffs=0 / rc=crf / crf=18.0 / qcomp=0.60 / qpstep=4 / stats-write=0 / stats-read=0 / vbv-maxrate=160000 / vbv-bufsize=160000 / vbv-init=0.9 / min-vbv-fullness=50.0 / max-vbv-fullness=80.0 / crf-max=0.0 / crf-min=0.0 / ipratio=1.30 / pbratio=1.20 / aq-mode=3 / aq-strength=0.80 / no-cutree / zone-count=0 / no-strict-cbr / qg-size=32 / no-rc-grain / qpmax=69 / qpmin=0 / no-const-vbv / sar=1 / overscan=0 / videoformat=5 / range=0 / colorprim=9 / transfer=16 / colormatrix=9 / chromaloc=0 / display-window=0 / master-display=G(13250,34500)B(7500,3000)R(34000,16000)WP(15635,16450)L(10000000,1) / cll=756,250 / min-luma=0 / max-luma=1023 / log2-max-poc-lsb=8 / vui-timing-info / vui-hrd-info / slices=1 / no-opt-qp-pps / no-opt-ref-list-length-pps / no-multi-pass-opt-rps / scenecut-bias=0.05 / hist-threshold=0.03 / no-opt-cu-delta-qp / no-aq-motion / hdr10 / hdr10-opt / no-dhdr10-opt / no-idr-recovery-sei / analysis-reuse-level=0 / analysis-save-reuse-level=0 / analysis-load-reuse-level=0 / scale-factor=0 / refine-intra=0 / refine-inter=0 / refine-mv=1 / refine-ctu-distortion=0 / no-limit-sao / ctu-info=0 / no-lowpass-dct / refine-analysis-type=0 / copy-pic=1 / max-ausize-factor=1.0 / no-dynamic-refine / no-single-sei / no-hevc-aq / no-svt / no-field / qp-adaptation-range=1.00 / scenecut-aware-qp=0conformance-window-offsets / right=0 / bottom=0 / decoder-max-rate=0 / no-vbv-live-multi-pass
; C9 `. E, G. O6 Y3 YDefault : Yes
7 {! k/ v* x& Q0 L; ~- kForced : No
% u$ b. @1 X9 a* n& X. UColor range : Limited( a3 W/ b  k2 P. f; }
Color primaries : BT.20204 p2 x8 @, O) w: U: ?
Transfer characteristics : PQ) E, N) H& {, f* }
Matrix coefficients : BT.2020 non-constant5 {8 m. n' }# {+ p  y: \, K
Mastering display color primaries : Display P3, J* K  X% {5 @+ K0 O4 e. m
Mastering display luminance : min: 0.0001 cd/m2, max: 1000 cd/m2
& M- k+ I$ N% IMaximum Content Light Level : 756 cd/m2
  I& R1 i! M. J9 rMaximum Frame-Average Light Level : 250 cd/m2: u$ P7 ?6 Y/ h* |) C3 q" g) d
: R- o* m, O- K3 u. J

' V  J# q7 o, V2 w$ `, wAudio
4 @6 S& ]# u4 F, c: E+ K/ L+ YID : 2
, N6 y) x- H. A8 qFormat : E-AC-3- h5 q! W: m6 G& {! V
Format/Info : Enhanced AC-3
! z) [. j% L5 B. e+ U' o5 v8 a! ACommercial name : Dolby Digital Plus# L+ N; y" \! l# R
Codec ID : A_EAC3
- Y* _' N/ T0 g; j, WDuration : 1 h 55 min
0 ?9 r8 \6 v2 w% @1 `$ `3 @Bit rate mode : Constant. w, }! g/ Y& ^/ W) m/ }
Bit rate : 640 kb/s
$ {- u- o" g# U" CChannel(s) : 6 channels0 X+ h3 b+ z2 h: K9 s
Channel layout : L R C LFE Ls Rs1 l, Y+ N, b5 r7 {8 V
Sampling rate : 48.0 kHz$ S; j0 V9 d, H$ r3 x1 k% n/ d
Frame rate : 31.250 FPS (1536 SPF)/ f3 }& p: y- _
Compression mode : Lossy
0 r- B- h2 Y, dStream size : 530 MiB (2%)/ A: Q" W8 [. n/ a0 L' A
Language : English
0 ?4 T8 M+ m2 W2 e: ?Service kind : Complete Main; }& M0 ^  A/ o' m8 j* m, L
Default : Yes
: ]$ `, S8 q2 U. M( J7 nForced : No' H4 [4 O9 G8 F: f

5 h$ W3 K/ n. F9 ^5 p" v
3 S4 g* s8 Y$ e$ d8 U/ o
Text #1
4 s- f+ M1 z- ]% [ID : 3) C. r9 a" ~$ l+ e( Y
Format : UTF-88 x  }7 `2 P- H
Codec ID : S_TEXT/UTF8
" F+ \% X- d5 I/ S7 H* ~( w9 B% eCodec ID/Info : UTF-8 Plain Text
7 R8 c% r* P+ m0 F) TTitle : SDH
: p3 Z" C+ Y3 ]8 mLanguage : English
* }. M# p+ @) j. NDefault : No
; X0 o1 X+ s9 T  p* P2 z7 V; tForced : No4 O; [- @0 k& ~6 r) Q5 }& g
) k4 G5 q; p2 I5 ~6 A

; i* ^, @. ]& vText #2
8 M  s- O+ h! i0 NID : 4- e3 h/ z( [- s, X3 G: {: n
Format : UTF-8
* j) d: ^/ `5 f# TCodec ID : S_TEXT/UTF8
8 l8 G; Y( Z7 P% X3 |% MCodec ID/Info : UTF-8 Plain Text5 H- D3 W4 M8 j1 W# X
Language : Arabic
: d# ]$ j( T. U5 MDefault : No1 D; p  ]; M' V
Forced : No% o! h  l$ Q, ~6 W6 Q
Text #29: Q3 C1 ]+ P8 h; w7 G% [3 G6 k
ID : 31+ E# B* H4 y1 K% G2 H
Format : UTF-8% k0 `$ T8 B! P8 R0 C7 V! z! a, d2 ~
Codec ID : S_TEXT/UTF8
. R* d" T* s! ?* M5 OCodec ID/Info : UTF-8 Plain Text! N+ d8 O* ^9 [/ D8 P. V& h
Language : Ukrainian5 ^: C. d/ T" K' F
Default : No# M! o; n) Q) ]5 E7 ]+ X/ n7 j8 m
Forced : No# |$ X% V, P: I) a
8 f) \! W( O/ q) r/ g% ^
' H0 p. s& y  m$ H! @
Text #30/ ]& v, [$ Y" M: V2 j" L% `) B) {
ID : 326 ?" f9 V1 y3 o: g: R
Format : UTF-8
) i) `3 e1 K- X8 MCodec ID : S_TEXT/UTF8
, \! @. J  I% |3 @9 UCodec ID/Info : UTF-8 Plain Text9 Y, ]. b( i( b5 [0 k
Language : Vietnamese
' p' S# i" S0 \, `* rDefault : No
; b4 K' u# ^$ Q1 ]; \5 d! l3 d7 l) Y  rForced : No8 ~, t8 V2 q' n; F9 d6 X3 R; M) ^

. t% ^( x. h- \6 E* m' @

) x' s& R4 T# g, D0 U7 d+ CText #31* q$ C2 w1 ~' y; P4 c$ k5 j
ID : 33  H2 b9 X% `# v+ i
Format : UTF-8
8 d( B+ t: Y5 Y8 _8 [Codec ID : S_TEXT/UTF8
7 X$ Z8 _6 x( e+ lCodec ID/Info : UTF-8 Plain Text
1 D  o& e  ]9 ?; n! |3 {Title : Simplified6 P- i9 H1 r. `: g  O
Language : Chinese; a* H. B! G1 ], {6 B
Default : No" d# F, F7 j) C
Forced : No
' ^. Q# i% ?. d! S
9 d/ f4 C. m, ?  ]2 A
) \1 \- P8 p3 Y0 q* ~3 T
Text #32" r1 C. l7 x! m1 ^0 d+ Q+ v
ID : 34
6 ]! ~( }$ ^. G5 GFormat : UTF-8/ Z+ d  P( a/ I; \- m, U( {# f8 x
Codec ID : S_TEXT/UTF8
/ T+ B, u3 M: S2 q& @- t9 c" MCodec ID/Info : UTF-8 Plain Text8 I" `* {3 P! G+ }" j9 d
Title : Traditional  M3 P+ f  v/ o) [+ r
Language : Chinese, Q, X* L- b3 J7 m4 E
Default : No
* M7 S8 }9 A2 {4 ^( l6 _( eForced : No

6 e- t! m" T1 k! T) L  s
& K* Z+ L  k. i0 x; R8 f! ?1 Q9 V2 p8 n0 m: J- V/ W

) b' l: ?9 J) E/ Z1 Z9 H( Y6 H% uGabriel Iglesias: Stadium Fluffy/加布里埃尔·伊格莱西亚斯:蓬松哥主场秀4k.Gabriel.Iglesias.Stadium.Fluffy.2022.2160p.NF.WEBRip.x265.10bit.HDR.DDP5.1-4k纪录片下载' T' X7 {3 h# ]7 b
& c) L& `+ T+ w. U" Y( Q! \' h$ n
加布里埃尔·伊格莱西亚斯:蓬松哥主场秀4k.Gabriel.Iglesias.Stadium.Fluffy.2022.2160p.NF.WEBRip.x265.10bit.HDR.DDP5.1-简繁中字【28.05 GB】# U- X  s% ?$ [5 c1 {$ x
- v& _% Z: p2 M; D

& |0 n! s& V: X8 o( b: N9 ]$ F  w

. I- r: l( L- {! X
" H8 h5 Q8 `6 L; S
登录 发布 快速回复 返回顶部 返回列表