开启辅助访问
 找回密码
 立即注册

Gabriel Iglesias: Stadium Fluffy/加布里埃尔·伊格莱西亚斯:蓬松哥主场秀4k.Gabriel.Iglesias.Stadium.Fluffy.2022.2160p.NF.WEBRip.x265.10bit.HDR.DDP5.1-4k纪录片

#4k记录视频#时间:2023-04-28 阅读:148 回复:0
+ O: O3 D- ~  {3 x
094413da10xan3faamaxm6.jpg.jpg 4 q) `! @- A- e" {/ [
5 M$ S, c( V  \( ^% @3 V* g

/ |; V7 e- s) q5 {0 X简       介

( j6 h  i. f7 y  X
- D0 I( F& _. B, y: C) W8 s! ^  遭人勒索。冒犯职业拳击手。与儿子玩“不给糖就捣蛋”。盖布瑞在这部重量级的单口喜剧特辑中,分享自己人生的高峰和低谷。
- e: W' l  Z( s1 O# W, }- \, R
& E$ b6 k* L4 C" ~! Y( N
影片参数
Gabriel Iglesias: Stadium Fluffy/加布里埃尔·伊格莱西亚斯:蓬松哥主场秀4k.Gabriel.Iglesias.Stadium.Fluffy.2022.2160p.NF.WEBRip.x265.10bit.HDR.DDP5.1-4k纪录片信息
! b" P  A. K+ s2 c' P8 vVideo
+ n' c% W& f0 r6 ?ID : 1
+ e" T! l  k- f7 W: A# |Format : HEVC
' i% `  _  D) S& P: nFormat/Info : High Efficiency Video Coding
9 ?5 x( K# M" L6 \5 w3 g1 IFormat profile : Main 10@L5.1@High
2 n# A4 ?+ K7 VHDR format : SMPTE ST 2086, HDR10 compatible
" B( s* \1 S, D( H. F+ h: M0 NCodec ID : V_MPEGH/ISO/HEVC
6 ^* {+ s2 F. R* B5 H  ^5 Z, m6 DDuration : 1 h 55 min
- A0 X' c* `& C5 u$ r& GBit rate : 33.3 Mb/s
0 k* q) T# i" m6 K3 J. kWidth : 3 840 pixels( x' Z0 k* k9 [2 |) p/ x
Height : 2 160 pixels# M. ^+ j1 u. p  W2 K
Display aspect ratio : 16:9$ M1 g+ F; |4 K) [4 B' D, M6 u
Frame rate mode : Constant% V  Y9 g0 L  U3 t/ i
Frame rate : 23.976 (24000/1001) FPS  {$ o1 `! e* v5 F: [7 R
Color space : YUV
0 J- ~3 Z  `% M- }' k% S2 k' SChroma subsampling : 4:2:0
8 E7 Q) K* J/ x: B2 m8 d+ Y1 aBit depth : 10 bits
" ?7 s* {& e  D: O( ?7 K6 t4 {7 QBits/(Pixel*Frame) : 0.1681 @1 _5 \6 I4 \! _; J
Stream size : 27.0 GiB (96%)7 o7 Q# q  L3 q; c7 ?
Writing library : x265 3.5+40-0b75c44c1:[Windows][MSVC 1933][64 bit] 10bit& O% I- f. p1 p9 P+ V
Encoding settings : cpuid=1111039 / frame-threads=4 / numa-pools=28,0 / wpp / no-pmode / no-pme / no-psnr / no-ssim / log-level=2 / input-csp=1 / input-res=3840x2160 / interlace=0 / total-frames=0 / level-idc=51 / high-tier=1 / uhd-bd=0 / ref=5 / no-allow-non-conformance / repeat-headers / annexb / aud / no-eob / no-eos / hrd / info / hash=0 / no-temporal-layers / open-gop / min-keyint=23 / keyint=250 / gop-lookahead=0 / bframes=8 / b-adapt=2 / b-pyramid / bframe-bias=0 / rc-lookahead=40 / lookahead-slices=8 / scenecut=40 / no-hist-scenecut / radl=0 / no-splice / no-intra-refresh / ctu=64 / min-cu-size=8 / no-rect / no-amp / max-tu-size=32 / tu-inter-depth=3 / tu-intra-depth=4 / limit-tu=0 / rdoq-level=0 / dynamic-rd=0.00 / no-ssim-rd / signhide / no-tskip / nr-intra=0 / nr-inter=0 / no-constrained-intra / strong-intra-smoothing / max-merge=5 / limit-refs=0 / no-limit-modes / me=1 / subme=5 / merange=57 / temporal-mvp / no-frame-dup / no-hme / weightp / weightb / no-analyze-src-pics / deblock=-3:-3 / no-sao / no-sao-non-deblock / rd=4 / selective-sao=0 / early-skip / rskip / no-fast-intra / no-tskip-fast / no-cu-lossless / b-intra / no-splitrd-skip / rdpenalty=0 / psy-rd=2.00 / psy-rdoq=0.00 / no-rd-refine / no-lossless / cbqpoffs=0 / crqpoffs=0 / rc=crf / crf=18.0 / qcomp=0.60 / qpstep=4 / stats-write=0 / stats-read=0 / vbv-maxrate=160000 / vbv-bufsize=160000 / vbv-init=0.9 / min-vbv-fullness=50.0 / max-vbv-fullness=80.0 / crf-max=0.0 / crf-min=0.0 / ipratio=1.30 / pbratio=1.20 / aq-mode=3 / aq-strength=0.80 / no-cutree / zone-count=0 / no-strict-cbr / qg-size=32 / no-rc-grain / qpmax=69 / qpmin=0 / no-const-vbv / sar=1 / overscan=0 / videoformat=5 / range=0 / colorprim=9 / transfer=16 / colormatrix=9 / chromaloc=0 / display-window=0 / master-display=G(13250,34500)B(7500,3000)R(34000,16000)WP(15635,16450)L(10000000,1) / cll=756,250 / min-luma=0 / max-luma=1023 / log2-max-poc-lsb=8 / vui-timing-info / vui-hrd-info / slices=1 / no-opt-qp-pps / no-opt-ref-list-length-pps / no-multi-pass-opt-rps / scenecut-bias=0.05 / hist-threshold=0.03 / no-opt-cu-delta-qp / no-aq-motion / hdr10 / hdr10-opt / no-dhdr10-opt / no-idr-recovery-sei / analysis-reuse-level=0 / analysis-save-reuse-level=0 / analysis-load-reuse-level=0 / scale-factor=0 / refine-intra=0 / refine-inter=0 / refine-mv=1 / refine-ctu-distortion=0 / no-limit-sao / ctu-info=0 / no-lowpass-dct / refine-analysis-type=0 / copy-pic=1 / max-ausize-factor=1.0 / no-dynamic-refine / no-single-sei / no-hevc-aq / no-svt / no-field / qp-adaptation-range=1.00 / scenecut-aware-qp=0conformance-window-offsets / right=0 / bottom=0 / decoder-max-rate=0 / no-vbv-live-multi-pass1 G- I  z0 p6 D
Default : Yes$ V8 ~* [& C  `* E2 z% ~& F4 c  L
Forced : No
0 z1 w9 E5 e7 Y" n2 L0 MColor range : Limited; m# I. Z# `8 [0 q/ E" `! H
Color primaries : BT.2020
) A9 S3 K9 _2 [' B3 BTransfer characteristics : PQ
7 p9 F3 _1 L# _8 M2 pMatrix coefficients : BT.2020 non-constant( k0 K# A1 ]; d: K" P( v7 L
Mastering display color primaries : Display P3
& C/ k6 p; b% h6 K! EMastering display luminance : min: 0.0001 cd/m2, max: 1000 cd/m2) H% Y" H; z4 Z
Maximum Content Light Level : 756 cd/m2% t" z' T+ b& b  |: L
Maximum Frame-Average Light Level : 250 cd/m2
/ y  G/ h3 o+ Q* p! u/ [9 k
# ], s4 ]+ s+ M9 U3 e, m
( q/ S* o1 B* U1 H- Z
Audio; F$ q) ]5 `3 _
ID : 2
$ J, o8 F  O: E  y% wFormat : E-AC-3
7 e4 a4 W6 X+ A0 d$ J* EFormat/Info : Enhanced AC-3( c, x: W1 Y3 p% k5 c2 O& c) w7 r6 Q: y
Commercial name : Dolby Digital Plus
+ P& N* A$ e$ r( @& M) s) u& OCodec ID : A_EAC3
& J1 [/ |5 O! `8 _Duration : 1 h 55 min; D' i) j% ]5 y* N% Z* o7 g; T5 D' a
Bit rate mode : Constant8 ?" ]2 k; j6 c8 l( E8 C
Bit rate : 640 kb/s6 V& J6 R. e4 }0 S; J  W8 P1 t
Channel(s) : 6 channels2 }8 _5 {; O+ m
Channel layout : L R C LFE Ls Rs% }% |9 V& g$ [
Sampling rate : 48.0 kHz* v0 S: j5 c, l5 f/ x1 E, Z
Frame rate : 31.250 FPS (1536 SPF)
8 P9 ~! l4 V. y- e  W& E& CCompression mode : Lossy
% `/ h  q/ \; W% bStream size : 530 MiB (2%)
6 v& Q3 N, I1 w8 m1 j* ~& BLanguage : English
8 P  X: ^3 m6 S* uService kind : Complete Main
: T* T  P9 ~; ]& g8 U/ v+ t/ wDefault : Yes
# W2 h9 N, Z" t6 NForced : No0 z8 x" {/ R+ @8 z4 P+ D& \. `
3 R' e1 x% y/ i8 L9 `# b% i% w5 N
. i* L! ~$ s& v5 T- l
Text #1
# c2 r$ J- b' W- B: D- \* E0 AID : 3
/ m- ?, B* y+ D! y  iFormat : UTF-8
* T( v+ ^6 I! Y5 x- c0 VCodec ID : S_TEXT/UTF8/ A. b/ Y/ m; \  o
Codec ID/Info : UTF-8 Plain Text
, C. V, \# p, ]# q# J7 \! DTitle : SDH3 d- h' o* e3 ]0 K! K
Language : English
+ c1 n+ \" [( i# l& e/ ~Default : No
2 V9 C5 c- d4 g! H. x1 P/ D/ DForced : No
6 }: ?, \2 S1 s" E; m, ^
0 G0 j) L$ j" Z; t- ^* _
: J6 \( C  ]9 I  D: U
Text #2
9 U8 ~# z9 _  Y# N0 R  SID : 4" e; W! ~+ Z; w* ^3 U6 o/ G. U
Format : UTF-8
! I5 n) V$ i) S" rCodec ID : S_TEXT/UTF8
) s. A- O) @& y3 F& mCodec ID/Info : UTF-8 Plain Text
1 ~: V1 B6 U- k5 ?& {Language : Arabic6 e- f7 N2 h6 u, |+ a8 |
Default : No
  ~+ K# f7 ?2 v& rForced : No- X0 ?1 w# Y- G/ }4 ]$ x$ ^" P8 S3 a/ X1 l
Text #29$ S. O8 f3 ]( D! B$ C/ B+ j6 ?
ID : 31
* _* o+ Y2 s2 N" h7 `5 V% C) ^Format : UTF-8
; t/ r  p% ?7 Y, Z  t  m) Y* G2 wCodec ID : S_TEXT/UTF8  `4 I: ?& G8 o/ [$ a0 b  W. }
Codec ID/Info : UTF-8 Plain Text
) l9 |6 l3 m" M9 i+ j9 oLanguage : Ukrainian6 z- h2 O6 |, g! }: N
Default : No. o& V6 o! H6 q# B
Forced : No! c* K' C0 i- I, m9 ~, W
9 M8 [4 K' I& c

7 Q& m  ~0 B7 v- j6 t% KText #30. t$ L% b7 {6 s4 z2 i
ID : 327 f8 L$ |% o/ }: @  \0 p+ v
Format : UTF-8
( ~0 E* _7 L# H$ V# ~) dCodec ID : S_TEXT/UTF8
, `% J8 i+ g8 A* \: a/ pCodec ID/Info : UTF-8 Plain Text
" Q, q) J" b+ n. f* V8 X4 rLanguage : Vietnamese
3 }, `5 n8 S8 h5 aDefault : No
4 P% {5 g: y5 H0 Z' Y" O# Y3 uForced : No
, l% Q# W1 H% |7 C3 D& z7 r; F$ a' y7 y+ i" m4 Z
( ?( P4 |; R! D/ M; S0 }/ j8 Q
Text #31* Q7 r7 Q" H. w
ID : 33  u. H) B7 s+ L% u" j3 y9 B3 Z
Format : UTF-87 u% K' |* p6 ^3 B! q3 A
Codec ID : S_TEXT/UTF8
5 s& a( p4 D( a0 ]! F- F4 ?Codec ID/Info : UTF-8 Plain Text/ k8 X, m8 w# N  p* x3 c
Title : Simplified
9 z/ F) x; U; A# G( [# o2 b% W. Y) FLanguage : Chinese2 U! S4 S) l0 n' _$ s. z
Default : No2 _) n( w" F4 h9 {5 |
Forced : No% ]' Y7 \8 V% ?7 k+ Y2 {! n

3 d' d: u" m7 c. }" U( P; `' ^$ n

& W6 a* ^+ b# W, s1 p& _* D4 DText #326 U7 F( q( k2 J% `" g
ID : 34
0 g& @& H' z! @) E& ~& rFormat : UTF-8
9 j+ d0 |" @* |+ t2 g2 m% H; O* mCodec ID : S_TEXT/UTF8! y% N% T& j0 K! {! O* w( w0 o. t/ R
Codec ID/Info : UTF-8 Plain Text
2 R3 c2 t0 i: `* w7 D& bTitle : Traditional% |$ D2 }! _; l% V$ T$ O+ d/ q8 H7 f
Language : Chinese  Q8 u" ?2 n8 l: I8 Y3 H3 ?
Default : No  b* ~, I1 e* L) \) n. R# @  W
Forced : No
1 w9 X! o) y" h2 \8 s

3 `% C/ Z3 O4 l5 P5 e
7 M5 H3 T1 y6 t( X& c( [/ @  K6 M- e8 p6 v  k3 [! `1 W- X
Gabriel Iglesias: Stadium Fluffy/加布里埃尔·伊格莱西亚斯:蓬松哥主场秀4k.Gabriel.Iglesias.Stadium.Fluffy.2022.2160p.NF.WEBRip.x265.10bit.HDR.DDP5.1-4k纪录片下载
6 q4 W7 g" `9 N" y1 l
, o, H  M" l7 b9 h加布里埃尔·伊格莱西亚斯:蓬松哥主场秀4k.Gabriel.Iglesias.Stadium.Fluffy.2022.2160p.NF.WEBRip.x265.10bit.HDR.DDP5.1-简繁中字【28.05 GB】
- Z$ w& C0 Q' Q: x( o; Q5 {1 z9 l: T8 v: j! R; v
1 k1 A: @( _& N( w
2 J2 l" z. O% |" l( J/ ^
# [# D+ V4 O) l( O6 {

$ ^1 B5 N9 x4 X) u+ X) d" y. {% Q
登录 发布 快速回复 返回顶部 返回列表