开启辅助访问
 找回密码
 立即注册

地球风暴4k.Earthstorm.S01.2160p.NF.WEBRip.x265.10bit.HDR.DDP5.1.Atmos-4k纪录片

#4k记录视频#时间:2023-04-28 阅读:212 回复:0

, v2 z  z, {' g' m0 f" N4 u& a' E6 B' Y 091144lyg98g7tr9vgc9v9.jpg.jpg
6 m4 b6 J2 p$ \* Z5 J: F' w+ t0 f, f; a
! N8 T7 w6 l% m/ k# A  a
影片参数
3 P! e. \7 W, D" t4 a& z
地球风暴4k.Earthstorm.S01.2160p.NF.WEBRip.x265.10bit.HDR.DDP5.1.Atmos-4k纪录片信息" \4 K7 F4 u% ^" ]8 t9 d. p2 i
Video8 |# Z1 Q: n0 e5 Q" \9 D# D
ID : 1% O3 L4 I( L" u: a
Format : HEVC; G% o' ~1 x  d$ @* s) J
Format/Info : High Efficiency Video Coding& @& e4 ~, O( D, q. s$ F, Q, r3 e! t
Format profile : Main 10@L5.1@High% J5 y, k5 t. `! V
HDR format : SMPTE ST 2086, HDR10 compatible
! \$ q( l1 b$ j, d( Y3 c, gCodec ID : V_MPEGH/ISO/HEVC
  @8 k1 \7 t- j/ VDuration : 46 min 43 s
3 |) G8 g7 ^  oBit rate : 20.3 Mb/s) ~$ h: ^4 Z. Y
Width : 3 840 pixels2 D. o! W. c3 W3 @( f6 V1 {$ `
Height : 1 920 pixels& ?1 U1 S/ i8 Q/ p' x$ y  i
Display aspect ratio : 2.000. f) O. w7 |! H9 a2 J% p8 X
Frame rate mode : Constant9 G; b" s' H9 a  E, u
Frame rate : 25.000 FPS
! [$ y( S# O% t$ sColor space : YUV
0 i- ]' c5 e& W% l0 Q: O" U5 ^* cChroma subsampling : 4:2:0
$ Q5 `0 X* H3 [Bit depth : 10 bits
9 s9 A$ _0 t5 {6 ^+ }9 l0 K: W) f6 P! @Bits/(Pixel*Frame) : 0.110+ u+ U. g! H- m2 D
Stream size : 6.63 GiB (96%)
6 l8 \' M* Z2 k( |& ?; h. G1 _. BWriting library : x265 3.5+40-0b75c44c1:[Windows][MSVC 1933][64 bit] 10bit
9 v2 @( ?& k. q5 J! mEncoding settings : cpuid=1111039 / frame-threads=4 / numa-pools=0,28 / wpp / no-pmode / no-pme / no-psnr / no-ssim / log-level=2 / input-csp=1 / input-res=3840x1920 / interlace=0 / total-frames=0 / level-idc=51 / high-tier=1 / uhd-bd=0 / ref=5 / no-allow-non-conformance / repeat-headers / annexb / aud / no-eob / no-eos / hrd / info / hash=0 / no-temporal-layers / open-gop / min-keyint=25 / keyint=250 / gop-lookahead=0 / bframes=8 / b-adapt=2 / b-pyramid / bframe-bias=0 / rc-lookahead=40 / lookahead-slices=8 / scenecut=40 / no-hist-scenecut / radl=0 / no-splice / no-intra-refresh / ctu=64 / min-cu-size=8 / no-rect / no-amp / max-tu-size=32 / tu-inter-depth=3 / tu-intra-depth=4 / limit-tu=0 / rdoq-level=0 / dynamic-rd=0.00 / no-ssim-rd / signhide / no-tskip / nr-intra=0 / nr-inter=0 / no-constrained-intra / strong-intra-smoothing / max-merge=5 / limit-refs=0 / no-limit-modes / me=1 / subme=5 / merange=57 / temporal-mvp / no-frame-dup / no-hme / weightp / weightb / no-analyze-src-pics / deblock=-3:-3 / no-sao / no-sao-non-deblock / rd=4 / selective-sao=0 / early-skip / rskip / no-fast-intra / no-tskip-fast / no-cu-lossless / b-intra / no-splitrd-skip / rdpenalty=0 / psy-rd=2.00 / psy-rdoq=0.00 / no-rd-refine / no-lossless / cbqpoffs=0 / crqpoffs=0 / rc=crf / crf=17.0 / qcomp=0.60 / qpstep=4 / stats-write=0 / stats-read=0 / vbv-maxrate=160000 / vbv-bufsize=160000 / vbv-init=0.9 / min-vbv-fullness=50.0 / max-vbv-fullness=80.0 / crf-max=0.0 / crf-min=0.0 / ipratio=1.30 / pbratio=1.20 / aq-mode=3 / aq-strength=0.80 / no-cutree / zone-count=0 / no-strict-cbr / qg-size=32 / no-rc-grain / qpmax=69 / qpmin=0 / no-const-vbv / sar=1 / overscan=0 / videoformat=5 / range=0 / colorprim=9 / transfer=16 / colormatrix=9 / chromaloc=0 / display-window=0 / master-display=G(13250,34500)B(7500,3000)R(34000,16000)WP(15635,16450)L(10000000,1) / cll=1039,450 / min-luma=0 / max-luma=1023 / log2-max-poc-lsb=8 / vui-timing-info / vui-hrd-info / slices=1 / no-opt-qp-pps / no-opt-ref-list-length-pps / no-multi-pass-opt-rps / scenecut-bias=0.05 / hist-threshold=0.03 / no-opt-cu-delta-qp / no-aq-motion / hdr10 / hdr10-opt / no-dhdr10-opt / no-idr-recovery-sei / analysis-reuse-level=0 / analysis-save-reuse-level=0 / analysis-load-reuse-level=0 / scale-factor=0 / refine-intra=0 / refine-inter=0 / refine-mv=1 / refine-ctu-distortion=0 / no-limit-sao / ctu-info=0 / no-lowpass-dct / refine-analysis-type=0 / copy-pic=1 / max-ausize-factor=1.0 / no-dynamic-refine / no-single-sei / no-hevc-aq / no-svt / no-field / qp-adaptation-range=1.00 / scenecut-aware-qp=0conformance-window-offsets / right=0 / bottom=0 / decoder-max-rate=0 / no-vbv-live-multi-pass9 [3 H# i& m/ Q" M3 r+ f& M
Default : Yes# n' l" Q4 k) O7 B. g
Forced : No
: K0 J% j( e# B: ^" V, y; xColor range : Limited  E* e9 M) _4 `) Z& n/ U1 O
Color primaries : BT.2020
& X: }: t  b1 Y7 B1 [$ @8 cTransfer characteristics : PQ9 {9 V% R. y: z
Matrix coefficients : BT.2020 non-constant( M2 u6 o+ A4 q
Mastering display color primaries : Display P3
0 g# J. c, A; i' h$ x8 H' z- q/ dMastering display luminance : min: 0.0001 cd/m2, max: 1000 cd/m2
; p" N2 j' N& M; X! U7 S! zMaximum Content Light Level : 1039 cd/m2# E1 M) r7 g1 W& q( v) q- {
Maximum Frame-Average Light Level : 450 cd/m2- s" H$ `& f: P

: r! c9 p% x& k# M" i+ ^( u! u
$ ~0 F2 x3 L* S2 k5 F
Text #18% b' {; J$ d" R. x3 D$ e
ID : 20
2 C( W& A0 u) k! e% C  fFormat : UTF-8
8 R2 m3 v- d* OCodec ID : S_TEXT/UTF87 Z% O6 x# N* b5 o2 a5 l, j# p1 x2 N
Codec ID/Info : UTF-8 Plain Text
5 W: k/ h9 o1 o8 N- ^  XDuration : 46 min 29 s+ {& m) v1 u4 p- q4 T' N2 [
Bit rate : 76 b/s
3 j& x3 ]0 u- ?5 h$ lFrame rate : 0.230 FPS
0 G2 d6 `, O) n+ LCount of elements : 642
4 E7 J5 t* [9 v1 pStream size : 26.1 KiB (0%)* F0 k: W1 Q& @2 O* u
Title : Malay
3 G. E/ ]# w" f, pLanguage : Malay' |7 L1 W. q- F" N9 A
Default : No
. b% y  _9 f0 n0 jForced : No
/ C* R7 z* i8 K6 A8 u
# E) H% R( v0 h

9 z8 I+ g: P' a# X+ O  vText #197 n' Y: e# V1 p) v
ID : 21
! Y( f4 C  m; p' N* Z' P! b3 `* H- qFormat : UTF-8
4 C+ H# L! e9 l2 XCodec ID : S_TEXT/UTF8
% b; U( S: n! \8 A7 Y$ |Codec ID/Info : UTF-8 Plain Text
) P4 N0 Z" U) x& @Duration : 46 min 29 s9 ]5 p% M% s4 Z) ^% |
Bit rate : 72 b/s1 {1 _+ z6 ?9 ^
Frame rate : 0.226 FPS, u  `9 v" s0 |
Count of elements : 630
( i4 q, R0 e, E; @; }1 GStream size : 24.6 KiB (0%)
3 W1 Z  s: G( l! t9 fTitle : Dutch
- e2 Z) Y5 @+ L# C' y% d' ~6 `Language : Dutch" ~+ L2 A6 A3 @
Default : No( \6 G& n! V2 x) F% J( f
Forced : No" `) k% f/ P6 `1 u# H2 K

; B4 o, x- x5 O+ ~1 z
7 u4 X' S1 I9 O- W# i& x! ^# m
Text #20! a/ ?0 p0 |/ g
ID : 22  w& v5 f- P( K
Format : UTF-8
% m) _! N; t5 v  w+ ~8 XCodec ID : S_TEXT/UTF8
( H' `, X) v8 r' O: y. a  T& BCodec ID/Info : UTF-8 Plain Text
; U: I$ m( \- }- X7 bDuration : 46 min 29 s
* ?. J" N! }! j$ t# s) G0 cBit rate : 72 b/s5 T2 G8 ?5 ^, O8 I4 y
Frame rate : 0.225 FPS! e" R$ c. d' i. Z" z
Count of elements : 6271 j1 ?+ c( V7 E. |9 r% A7 }
Stream size : 24.8 KiB (0%)
% k9 J: }% o& [Title : Norwegian Bokmal
( _" [0 _/ J  k6 }' hLanguage : Norwegian4 @- J- l6 `  _8 }2 r2 x
Default : No, [# i* ]/ w4 l! p
Forced : No
+ a& K6 Z* j: K9 |- E
! Q) h% X, R. ]6 ?7 I
: _. d' P$ Q: q/ L2 n: b  b
Text #217 Z% n. F# ^0 p3 @
ID : 236 ]$ N6 z" z0 v. G) U
Format : UTF-80 K2 g2 Z( [  i" W. N$ N4 m) O
Codec ID : S_TEXT/UTF8
$ r: C% v7 P  A& U$ t6 ]3 |' b% dCodec ID/Info : UTF-8 Plain Text: _: k; J# C" G& L
Duration : 46 min 29 s
$ M+ s6 ?# v& W( x# w- }2 L! sBit rate : 70 b/s
8 |) {2 P, s& r) L' E4 T# mFrame rate : 0.228 FPS
7 u; Y1 F7 c9 x2 [1 p' q/ Z% @6 \Count of elements : 636( w# s' u. L9 d  M3 u& u8 U
Stream size : 24.1 KiB (0%)
+ A6 i6 ~+ y( @, Q) o: XTitle : Polish: s6 \6 x- K1 H
Language : Polish7 k% s4 R" C3 x/ V& _3 J
Default : No$ [1 ~: I; x- P2 _5 g
Forced : No
$ E7 o6 F2 t6 q. F5 k# {( }* l
0 X( ?: S2 \+ i* X& Y
& ~4 p+ w! T0 Y' H% D, I  t
Text #22
$ o1 v  g" C0 LID : 24& v0 o/ |1 w7 T8 n9 Y
Format : UTF-8
3 P5 j7 Y0 V1 t. I" ^  cCodec ID : S_TEXT/UTF8
6 B* ~; ^3 i% v. DCodec ID/Info : UTF-8 Plain Text4 y" m# P1 a( l  c! C9 J& r2 k/ i0 q
Duration : 46 min 29 s
# |$ J" X2 G7 L7 h4 MBit rate : 74 b/s7 }$ Y' N( M. e. W
Frame rate : 0.229 FPS
. \& W+ {, u; H5 o- nCount of elements : 640& N' I. v9 n5 ~8 t1 A, p- H
Stream size : 25.2 KiB (0%), E, o: a9 L* q# d( S
Title : Portuguese (Brazilian)4 K6 j' c7 w, {, T+ J2 `, a
Language : Portuguese
( T) C+ ~1 q4 T* b% aDefault : No  F, l% C8 B! ~" V+ I
Forced : No; A4 T2 u4 g. S/ |* Q
2 N9 G$ S0 [5 i) ?! a
1 \' N. {3 U6 n: [
Text #23, o, ^; |  E) H3 O: G8 b% n) f
ID : 25
; o) K: r6 x3 ]" a) [3 ?/ Z) OFormat : UTF-8
0 M1 E/ N+ q: Q- LCodec ID : S_TEXT/UTF8; Q9 r3 a) \" E, n0 `
Codec ID/Info : UTF-8 Plain Text' a; T, h/ Q" {) X4 f
Duration : 46 min 29 s* c0 m# h+ e9 l
Bit rate : 75 b/s8 H0 I: C) ~9 N1 A: \1 m4 M
Frame rate : 0.226 FPS
) N) i2 M5 t' k- tCount of elements : 631
. l( I  d( x+ F) ^, `$ R9 _, GStream size : 25.6 KiB (0%)
: }: W2 h# O! rTitle : Portuguese (Iberian)
$ v# n+ K# p8 t% H8 f/ Z2 gLanguage : Portuguese
) D6 G; T' A  D2 k3 z6 G! p* ]2 yDefault : No
" S: G2 h9 g+ X/ `2 t1 w9 WForced : No- H9 X; @6 p7 E) e1 R
! R0 j. N% A. I

7 k& e4 D1 c$ _* d- CText #24
' t7 A9 ~" J  s! t( x2 ^- o4 q" X, c/ ^ID : 26' b9 y' I4 i% i
Format : UTF-8, C4 ^* V( V2 g' @% k
Codec ID : S_TEXT/UTF8  d! ?! n! J: [, j4 ^
Codec ID/Info : UTF-8 Plain Text
9 \/ E! d3 _: qDuration : 46 min 29 s( ^6 p; P% m& M* f. J/ L
Bit rate : 79 b/s
, A) w. L8 \# o" n* C) nFrame rate : 0.229 FPS4 C, }4 ^2 \, s+ x9 S
Count of elements : 638
) e6 h+ K3 a, TStream size : 27.0 KiB (0%)
7 w. X) S1 ~5 G  hTitle : Romanian* e9 o3 u6 ^) H# m9 r; [( v
Language : Romanian
# x4 ^% `+ T) o, oDefault : No
8 @  M( e, M% b+ r5 f6 N) `Forced : No
( l1 A+ g3 }; K: g" C0 B
% J' p2 g5 ?/ Q9 b: t( o4 \
6 G' C8 y- M8 [5 \7 V
Text #25/ P. w) u* K7 ^; z9 ^8 Y
ID : 27
+ l; b- I* p0 I1 nFormat : UTF-82 N+ }  p7 O2 f) Z- z' X0 m
Codec ID : S_TEXT/UTF8* b' @5 t- f. e2 B- f( @' {9 o6 p2 W
Codec ID/Info : UTF-8 Plain Text
) v+ ]& o& x; c( n6 H3 O3 _Duration : 46 min 29 s  K8 S% }, l% x& _) S
Bit rate : 131 b/s
2 }, k" ^8 C& uFrame rate : 0.232 FPS
4 s/ g& j# `. i  Y+ a. L! ^: tCount of elements : 646
+ l0 p6 D5 m0 h3 |5 N- PStream size : 44.7 KiB (0%)
$ @" X( g& g5 H, s# wTitle : Russian5 t" Z8 ~4 ~. b) ^* L) G
Language : Russian
* _1 _' u* S( I& V- aDefault : No
# c% s9 S9 A- E- l) c  A: d' UForced : No6 I$ B% ~9 M# G6 m3 [
; w: q. y% a6 |4 D
) s* [7 p( w( g& |8 F! K. L6 a6 \7 O" d
Text #26* V  K$ F, Z8 U$ y& R
ID : 28
+ E* k+ ]8 i5 \9 \1 tFormat : UTF-8
. J; q0 ~% ^0 m% f. @' [. S* VCodec ID : S_TEXT/UTF8; {. p8 g: J  d8 r$ C
Codec ID/Info : UTF-8 Plain Text2 X% |2 M4 C' B. l$ F- x' G( J
Duration : 46 min 29 s5 L1 j" b$ ]! I. a7 W9 w
Bit rate : 72 b/s
% ~# O8 w. x; u, W' [# D$ NFrame rate : 0.228 FPS
" P7 ?5 r; _  R$ ~! R1 o$ JCount of elements : 637
. K+ t+ `  s( f/ eStream size : 24.7 KiB (0%)4 t& Q: X- [: \% _
Title : Swedish: o8 V5 u$ t+ ], Z" W) ?5 `
Language : Swedish
! ~5 j  F8 r( @1 Q9 aDefault : No
9 P8 U7 h" {+ u. [& q) AForced : No
6 p+ z4 I  @, U
1 s6 C/ D5 m: {4 H7 u# e
* }$ P' F1 X& N. I: i9 R
Text #27
0 j& e' ]' u9 N: tID : 29# ^+ B9 I' S% d0 A& |+ D
Format : UTF-80 {  j, u$ X* ~, J9 n5 N& f( S$ S
Codec ID : S_TEXT/UTF8
9 E5 G7 _: W8 }0 p% `5 vCodec ID/Info : UTF-8 Plain Text) C- I6 s, S: ~, U; D/ a. l& n0 S' g$ {
Duration : 46 min 29 s* X* o/ i0 I/ ]/ h- T# u
Bit rate : 191 b/s
8 m7 g8 j  o' y8 w* ]Frame rate : 0.232 FPS
3 _: w, Q! f" d9 x& _$ rCount of elements : 646
+ J: v7 v( r( X, O" RStream size : 65.1 KiB (0%)0 J# ^5 v+ k- E4 C: l" [+ o
Title : Thai
, T7 ~: u! t' @" ?  q3 pLanguage : Thai4 P$ A  M- E; ]8 W
Default : No8 A% ?) i5 z$ X7 o1 }
Forced : No3 i8 m6 f. c# e: {6 v: j, T# A
; H  {; `! }1 [$ K: u. `

5 o$ m1 h/ C9 A8 \6 f6 |Text #28
- @( q3 R& {0 [: @/ zID : 30
' _3 K( W0 k/ S1 p( \$ N# c! W/ vFormat : UTF-8: q5 H6 l" S- I4 x) X! o' ?( Z
Codec ID : S_TEXT/UTF88 n* ~% H/ \7 [2 s% H- b3 ^5 ~' B& h: o
Codec ID/Info : UTF-8 Plain Text
) L% v1 t( H; g1 {' h$ T1 f" pDuration : 46 min 29 s
% z7 m$ P7 e% t: [/ ]6 PBit rate : 74 b/s3 k8 Q" k' F1 `
Frame rate : 0.229 FPS# f0 g8 i" c: J0 l& {$ }
Count of elements : 640
; Y9 a4 M3 k( ]3 }Stream size : 25.5 KiB (0%)+ o, ~+ E6 g% j) y0 K: B- R0 B( n
Title : Turkish
% t' K% d9 s% H" Q$ H- k% t; j8 zLanguage : Turkish
1 z% o9 d$ v- ZDefault : No
$ C3 N' R2 f3 r& D  V% B5 yForced : No
  F+ S- Y1 _, k. {/ m+ O- `
/ H* k9 R- L( P; B

$ b! ]% z. ~4 t% _' Y0 P% u" \: gText #292 [0 V" `/ X3 b7 g/ `% y, f
ID : 317 H2 }% x+ T1 l$ \5 A" w/ D
Format : UTF-8
& A; P0 @8 Y" b0 n: X3 z0 W* jCodec ID : S_TEXT/UTF8
! Y$ X8 o. F$ }: c7 D$ n& XCodec ID/Info : UTF-8 Plain Text- |5 z# {& r2 a. z! {+ Z
Duration : 46 min 29 s
0 h' x" E5 @0 WBit rate : 119 b/s) _" g  y0 [+ E
Frame rate : 0.232 FPS
4 n# V8 j/ T( @# X; f. @Count of elements : 646
+ d# Z* z6 E/ k7 h. u( c' S3 oStream size : 40.7 KiB (0%)
" m5 W5 ]( K( q% v) YTitle : Ukrainian
( [6 B( i5 p% g4 @  [3 \Language : Ukrainian+ ^2 \" t/ ?( u/ _: P9 x
Default : No0 h8 Q0 A: V8 ]: n% s0 ~, I  U: o6 _
Forced : No# K) C3 [, D" a" B6 l' @9 A4 b

/ D* o  e- Z6 o7 C$ L# S8 l( _
9 g) K; V  a4 [% J0 T' U1 e0 }
Text #306 E6 D7 G$ m. l2 e
ID : 320 k# M8 O; Y9 n+ N/ P' P
Format : UTF-8& l0 M. N% G) W3 j4 ?/ n# U+ n
Codec ID : S_TEXT/UTF8' p/ v* P% Y0 u' g% @) S, _- \3 P
Codec ID/Info : UTF-8 Plain Text
2 y% S% r+ ]7 ?8 E4 K6 kDuration : 46 min 29 s& |1 H7 F9 ^/ H& \
Bit rate : 107 b/s- b* n$ Q) Y& b
Frame rate : 0.230 FPS
; `  H! J1 Y" ]$ S8 QCount of elements : 642
% ~2 r1 S/ k  J2 hStream size : 36.6 KiB (0%)# T  V; n- c7 n) g
Title : Vietnamese
7 n: x7 L1 B, P3 U, Q2 U! S5 H. `! C* tLanguage : Vietnamese
) G: R% E7 l- ~7 r: I) O7 bDefault : No
) J8 ~- t9 ~3 u6 j* wForced : No
/ ^) _( x7 m& v6 Q% n; l, ?$ ]' o( C& v0 l0 R' _) I& g  f! @6 @: J
: M5 Z3 j6 q0 Y5 @' R. L
Text #31# v4 {9 s3 p# }6 J, _7 [
ID : 33* x8 ]" `8 L3 d- C  a2 F8 E
Format : UTF-8
0 {; S& m# S2 b3 U) \* P2 m" v/ zCodec ID : S_TEXT/UTF8
1 u$ x+ o9 b2 p8 s# vCodec ID/Info : UTF-8 Plain Text2 }% r! ^9 Z" i
Duration : 46 min 29 s$ U' }+ l* r: ?) h  V" [
Bit rate : 69 b/s
8 c5 n+ |# ~7 g* ?: o- p  w. {Frame rate : 0.232 FPS9 L$ W4 Q" H5 @5 f  R: q' `
Count of elements : 646% |/ X3 v  I8 q; `0 E
Stream size : 23.8 KiB (0%), w  I2 U0 E3 d- F" Z- `7 S
Title : Chinese (Simplified)
+ c' R: S/ ^% k+ M2 w# G. J% OLanguage : Chinese
6 z( k' J0 x! MDefault : No
2 g3 G6 E9 M* m9 }7 G2 \  `Forced : No
1 G! `! w3 G' K3 h
, g# l1 z, a, |8 b

& C$ n8 M  X. L, s5 m  {Text #32. X* Y$ Z5 x3 a+ k8 B: O& @- v; e
ID : 34+ x: [  J* \3 [4 K
Format : UTF-86 y7 K. b" L6 J" R
Codec ID : S_TEXT/UTF84 e" u$ \: H+ r8 V( e- _+ n2 o
Codec ID/Info : UTF-8 Plain Text! f, `! a2 C) S! }
Duration : 46 min 29 s
' }1 S. j) Y4 T+ A0 q4 I' |5 @6 \4 [Bit rate : 70 b/s) p7 I7 W5 R$ R
Frame rate : 0.232 FPS5 [: [3 ~5 R, x4 q" f
Count of elements : 646: ^" L9 L; R3 I
Stream size : 24.0 KiB (0%)3 N8 l* @! J, \' v
Title : Chinese (Traditional)  g+ R2 j+ H; }
Language : Chinese' I7 W3 W* u! X- w8 w2 p
Default : No
/ y+ Z$ r  x7 T6 ^' \" EForced : No
5 W( U  j$ m8 y

9 |* Z6 Y* l1 a地球风暴4k.Earthstorm.S01.2160p.NF.WEBRip.x265.10bit.HDR.DDP5.1.Atmos-4k纪录片下载
5 F1 F1 P2 a& P" r  L
; ^# @& k/ D% q, C4 @& ]3 B地球风暴4k.Earthstorm.S01.2160p.NF.WEBRip.x265.10bit.HDR.DDP5.1.Atmos-简繁中字【HDR】【24.36 GB】2 U1 K/ e: N* l* k- }+ E

: u! o8 j1 e* [. ~- B& M( o: O. w: t8 N! O$ ]
8 a$ a1 [  O. E+ H' k
  ~/ t4 ?6 k  j6 g

1 l& {. ]% p* ~; v0 |6 s
登录 发布 快速回复 返回顶部 返回列表