开启辅助访问
 找回密码
 立即注册

The.Trackers.Diary.Bears.Of.Katmai.S01.2160p.WEBRip.AAC2.0.x264-纪录片

#4k记录视频#时间:2023-04-28 阅读:313 回复:0

5 k- y7 J4 Q' i/ m/ L6 M 124424x724ag2fzg4hu2fn.jpg.jpg ' ]- K7 [" {. ~/ Z3 B; @( _( M" R

0 z$ g% N# D( [6 g. x6 H" C
" G/ W/ M3 }6 P& }3 G: Z影片参数
) T8 [) `- G' e& ~. g2 v4 t
The.Trackers.Diary.Bears.Of.Katmai.S01.2160p.WEBRip.AAC2.0.x264-纪录片信息5 v% b" n. T$ O
Video+ v2 w' A. A. u
ID : 1. F9 q3 T5 X, n" _7 I8 G" X
Format : AVC' b$ D% ?5 t7 ]- V. j2 ~
Format/Info : Advanced Video Codec  W3 M, _' b2 c  l7 R1 x0 D
Format profile : High@L5.1
; K' t/ [9 e' S6 [6 HFormat settings : CABAC / 4 Ref Frames
1 r# p: Q" f4 ]/ cFormat settings, CABAC : Yes2 G1 q+ S: Y$ O+ W; E
Format settings, Reference frames : 4 frames
! s  c/ x0 k. g, j, k& h4 CCodec ID : V_MPEG4/ISO/AVC
$ n* m2 ]' T) l  L3 V! u/ K! m& SDuration : 27 min 1 s# Y; C  `9 l% K* O# U
Bit rate : 15.6 Mb/s
1 r. i5 c) y2 C, w4 M# R& oWidth : 3 840 pixels6 m. z; v- q. B2 ~7 J
Height : 2 160 pixels
, W; ^- P/ P8 h3 |# iDisplay aspect ratio : 16:90 e" [5 J4 `6 N( ^
Frame rate mode : Constant
5 @3 B1 r7 p- c3 J1 AFrame rate : 25.000 FPS6 \) V. W$ o9 P. v! E3 `
Color space : YUV/ e3 q; ~1 L! g6 j
Chroma subsampling : 4:2:0/ Y  K6 ]& @% |. z7 J
Bit depth : 8 bits
. P! E, I9 ]  v7 A3 \& SScan type : Progressive
  n" S+ I9 W6 Z3 aBits/(Pixel*Frame) : 0.075
- C8 {( K3 Q: e7 |# W" dStream size : 2.95 GiB (99%)" I0 Y! R: N( A. @) s2 c- U
Default : Yes
, q$ c2 r, _7 G* v: i. B" iForced : No& t/ m, C5 w2 D" Z
+ _8 j; t& i/ r1 T

: h8 B. `0 U) K5 k' o! q. e/ gAudio- L7 k0 [0 B% W
ID : 2
$ ~8 ?! V; q9 v$ r9 [Format : AAC LC
' W' T5 W' J$ a! L# D, `Format/Info : Advanced Audio Codec Low Complexity5 M! I2 @! D8 ]4 I: N1 P- T6 q3 T! }
Codec ID : A_AAC-29 R9 h- v  K$ J4 S: ^1 |! |' T
Duration : 27 min 1 s6 {) A& O3 Y" M' Q1 @
Bit rate : 157 kb/s
. z) x* T8 w! P4 }3 d& jChannel(s) : 2 channels
; U1 q5 J  u7 I5 ?  v4 _Channel layout : L R2 u9 g, g+ Z0 d1 h5 k  g' W
Sampling rate : 48.0 kHz
- o' [; c5 t$ V% X0 d  RFrame rate : 46.875 FPS (1024 SPF)
" e. Q& `; u7 o" LCompression mode : Lossy# I  n2 v( c- f) S5 A
Stream size : 30.4 MiB (1%)2 I- r" S# G  p) j- i5 g1 L- D
Language : English+ ]1 e7 U, g+ K+ d7 l1 ~
Default : Yes
2 J8 x& t) h  Z% H7 l/ T+ ~4 LForced : No" Q& d: W; {: n: I! `; I# B
% g, B' T" m/ ]& a, C( ]  P  N

- e, ~( R( Z& ^. VText
1 N2 `1 G6 x/ g- Z4 V8 CID : 3
, f: s  i' b1 H" Q. tFormat : UTF-8" n" h  y* G: r) m$ e# n2 d9 k
Codec ID : S_TEXT/UTF86 A6 J& P7 P& B! [) B' z
Codec ID/Info : UTF-8 Plain Text
  c% Q1 J, N. ]" V" I& vDuration : 27 min 0 s
6 J% n. a- h/ S4 N$ BBit rate : 88 b/s' a; e; @2 L, |) O  |! V, V
Frame rate : 0.341 FPS
) I' K: G! z0 ?Count of elements : 553
9 P0 w! n4 Z1 Z- c6 u: GStream size : 17.4 KiB (0%)
" n7 C+ _5 w& m/ C. mLanguage : English3 l# ^# }) e9 t+ G) b* w' \% K
Default : No
1 W# k2 o8 W: a0 |Forced : No

, {1 Q! L( N8 A% D3 S4 O/ G* n1 v
' g7 h- N, t, K+ h3 D, a" v- g9 ZThe.Trackers.Diary.Bears.Of.Katmai.S01.2160p.WEBRip.AAC2.0.x264-纪录片下载
: V3 z% K' E0 M! F8 R! D7 P9 W0 d8 G  B
The.Trackers.Diary.Bears.Of.Katmai.S01.2160p.WEBRip.AAC2.0.x264【15.26 GB】( h8 L& d1 x) ~7 |% ?

8 E" b% Z2 A4 _' n, Z, c/ |" Z3 F% S  n# c$ s2 y# E0 j

3 z( w' h$ `/ G- u" L) n
3 {% Z" T8 u* K; a  L# @) M( Y. c6 h$ g; |1 F$ h& G- j/ o
登录 发布 快速回复 返回顶部 返回列表