开启辅助访问
 找回密码
 立即注册

Britney Vs Spears:父女对簿公堂(台)/父女之战:解放布兰妮4k.Britney.Vs.Spears.2021.2160p.NF.WEB-DL.x265.10bit.SDR.DDP5.1-4k纪录片

#4k记录视频#时间:2023-04-28 阅读:273 回复:0

! J1 ^  u) R4 s% I 105233ez0lkq7kh920d30j.jpg.jpg , V0 B+ N' K' E+ R* `4 j' j

' u9 Y$ I# s" U; l* S7 a* {% L5 S1 e7 j$ c
简       介

/ J, b# R2 M6 H+ n. U. f, e: ]. y0 }5 t
  记者珍妮·埃利斯和导演艾琳·李·卡尔通过独家采访和机密证据调查布兰妮·斯皮尔斯争取自由的斗争。
' e; k' n2 W" W. b3 o' q: C+ s1 t- l# C$ b+ ^; q
影片参数
Britney Vs Spears:父女对簿公堂(台)/父女之战:解放布兰妮4k.Britney.Vs.Spears.2021.2160p.NF.WEB-DL.x265.10bit.SDR.DDP5.1-4k纪录片信息" b: @$ \  _% k) {
Video
9 r% D) T/ K- O$ O* cID : 15 ]9 w8 [: p! ?# m# m8 Q8 e; a
Format : HEVC
% C5 F, @9 g" S% lFormat/Info : High Efficiency Video Coding
' e  d1 `: C( B0 T1 T" Z% zFormat profile : Main 10@L5@Main; O9 [  `2 @* t+ I' V# D3 Q
Codec ID : V_MPEGH/ISO/HEVC' r# r" E, _* D& {2 @) d
Duration : 1 h 33 min
) ^; G5 G6 v9 D: \: w0 \1 sBit rate : 12.1 Mb/s1 M& B$ |3 [6 y' x3 B% r5 u
Width : 3 840 pixels7 v/ T& E0 \7 E/ h9 P2 z3 a4 ~1 N
Height : 2 160 pixels) [6 p! Y- ~( {+ A7 U9 Z7 s
Display aspect ratio : 16:9
: Q0 A) ]( n! h4 wFrame rate mode : Constant, Q) u6 y3 V; L0 Z
Frame rate : 23.976 (24000/1001) FPS
' P* A  D7 l' V! b  hColor space : YUV
' L3 E/ E, u8 WChroma subsampling : 4:2:0: D, |7 S# H* O% c% K+ q
Bit depth : 10 bits2 t+ f% m. d3 N3 [' l, d1 |
Bits/(Pixel*Frame) : 0.0617 `$ h6 ^( L  z4 F3 {) n  q2 H
Stream size : 7.92 GiB (95%)
9 a- _8 b' [1 N2 ]% j' v' jLanguage : English! g  W4 m$ F  t# G
Default : Yes
  r- O' \- L4 Z/ P, xForced : No
% K3 y7 s9 k6 i3 V) Q) pColor range : Limited
2 y9 i; ~! n, F, RColor primaries : BT.709: O1 R8 r3 j) X6 o7 ~9 \4 d
Transfer characteristics : BT.709
% E! {. X( l: v. H& P$ JMatrix coefficients : BT.7090 n8 I+ o# n: k. _4 N

$ l- U7 D9 e- f" i* z
9 H+ A. v4 f8 M3 W: }
Audio
4 Z8 g+ m. h% b& S* F  ?ID : 2+ d% M8 C% w+ E$ @: X& D
Format : E-AC-3
0 K6 A" A; b  _& |7 {$ `Format/Info : Enhanced AC-3
+ I9 q4 e' }5 R8 N2 g! u$ uCommercial name : Dolby Digital Plus0 \. a3 r$ r' O, }7 }
Codec ID : A_EAC3% }+ D. f5 a) L7 W! _8 X
Duration : 1 h 33 min* b+ @* ^+ S) w0 D) I, h5 N7 T
Bit rate mode : Constant
7 D0 s$ @* `# v, u, iBit rate : 640 kb/s$ m- l# i0 m& x' t# J
Channel(s) : 6 channels* l+ R( }4 U$ x
Channel layout : L R C LFE Ls Rs8 ?9 m: o' [7 x# d
Sampling rate : 48.0 kHz
" e& T0 z- b. z" }) E- p6 bFrame rate : 31.250 FPS (1536 SPF)5 T+ C( [, F# |2 i
Compression mode : Lossy
& y$ \8 j( P! k7 `% K: BStream size : 430 MiB (5%)
2 d6 B% H: y3 J0 y6 M  j9 gLanguage : English$ y. U: a3 ~% k# M
Service kind : Complete Main
4 [  a! N2 b' f, |" nDefault : Yes$ w! k+ z  K& V$ T, R0 I) a
Forced : No$ a- ^# o) U; O. ?! l& V

4 z2 y9 m# n  b% \/ E
; z4 z4 l1 M2 {8 k% }9 c
Text #27
! {3 |2 ^4 R0 {# J. S4 f# E2 ]ID : 29
8 z: w) _7 i3 B0 xFormat : UTF-8
2 O9 j; t. u: I) B1 }Codec ID : S_TEXT/UTF8
3 e6 v% v4 g$ r% s' [3 [" ECodec ID/Info : UTF-8 Plain Text' q( v6 L$ L& o& @% P4 c1 C
Duration : 1 h 33 min
+ v4 I7 x7 K6 J/ hBit rate : 157 b/s6 H. a! H4 H# L9 c% E& c9 O
Frame rate : 0.248 FPS7 S9 T  V! a+ r/ u
Count of elements : 13965 W) E+ N4 }4 \# |2 [3 Z
Stream size : 108 KiB (0%)* s/ R6 n& k6 \2 |+ C7 N$ E. I
Language : Russian
# ~* t) F* f1 h. W* @, @1 [Default : No! m" V9 T, T4 D! v& I% Q
Forced : No4 n% o; Y0 D* h

# ^6 x, P! o; O% V8 [0 w0 z: K

0 j2 d+ S# |) v7 G- }7 Y% cText #28! O  t5 `9 [# v7 `) q
ID : 30
- g1 Y" y  L- ZFormat : UTF-8+ _8 c# M4 x: R- P* L& X1 S3 e
Codec ID : S_TEXT/UTF8
3 \) r$ i% ~( u  k2 e( VCodec ID/Info : UTF-8 Plain Text0 ]8 F/ w5 n. H0 E8 ]
Duration : 1 h 33 min
/ A2 E% G& E6 N3 x3 o. w7 EBit rate : 96 b/s
9 P( v* o7 T' @6 b0 a% P+ SFrame rate : 0.239 FPS
6 d6 g( r4 Q, s5 wCount of elements : 1343
, s) [/ x5 X9 r/ t5 {Stream size : 66.0 KiB (0%)
+ j) t$ X! N' A' D9 h5 oLanguage : Swedish
4 e  Z, Z( S. j& vDefault : No! x( B5 R  }( Y
Forced : No
7 Q' X0 g/ {) Q0 h3 l+ c' o- p, ]/ l7 V% t  v) \
- Q0 h& x5 ]0 D+ W' A- s
Text #29+ I2 @3 _" M, K9 j& h7 I' ?
ID : 31/ p- c/ [, S9 V/ P. p" |4 c
Format : UTF-8
6 w8 y  |- H+ y0 z9 Z& H6 aCodec ID : S_TEXT/UTF8
3 j3 _3 u/ W! j5 U1 n, SCodec ID/Info : UTF-8 Plain Text
0 Q& i  z" L& GDuration : 1 h 29 min
4 h& ~3 e# B& z5 gBit rate : 245 b/s) G0 F5 P. W2 L9 e6 ]5 h
Frame rate : 0.265 FPS
2 A) c- T: `; lCount of elements : 1420
) h  o/ W3 J# |7 R3 `3 DStream size : 160 KiB (0%)3 b& @* s, Z# U" o" X/ o) k' X
Language : Thai
' t7 h9 l9 ]: z: pDefault : No
# M2 A% L* P: U% l( [; RForced : No
1 w8 G# W5 U& t5 z: D
* ]( L" G6 p- d& M0 p  R

1 {4 C6 N& J, N# Y& s0 R0 g- VText #30
/ a- t2 @+ }$ ^' FID : 32
  Q5 R+ ]" Q% O2 k. y, r7 O: E: _5 TFormat : UTF-86 P/ Z( R2 x$ Y! G2 Y
Codec ID : S_TEXT/UTF8; W0 H8 u8 g& r$ W& {
Codec ID/Info : UTF-8 Plain Text
6 y* m# k2 z8 m  N# a) S1 lDuration : 1 h 33 min
8 V1 d( ~3 U9 T  i' ^, o/ lBit rate : 92 b/s
8 o0 Y* _) P6 d+ ^Frame rate : 0.224 FPS( ?/ B1 u  r$ U5 U8 J" P
Count of elements : 12609 J" `1 n2 Z5 I8 Y9 H! C
Stream size : 63.7 KiB (0%)
/ q2 ]! n4 F, [5 JLanguage : Turkish
5 }% N2 o0 i. h  i9 Z6 b1 |% @/ D$ i  [Default : No
. w1 o/ M4 U4 J* s3 ~' JForced : No6 ^* b- \; f* ]! P8 [9 f9 f

+ N# F, A# D& F$ T8 W

5 d$ N9 F' I* z2 a6 i! oText #31) F  ]& \% k- r1 I2 B% O7 A
ID : 33
0 H$ i& V  I! P, y5 RFormat : UTF-8
. o- e" Z' N* j) vCodec ID : S_TEXT/UTF80 t; `% \" \1 r, i* r7 Y& j
Codec ID/Info : UTF-8 Plain Text
% ~( D3 _7 P7 F5 N6 DDuration : 1 h 33 min
3 r" N9 W, _" A$ U1 \+ Q, c, D$ ABit rate : 153 b/s+ W: k- N+ P7 ]" ?# \( F
Frame rate : 0.252 FPS
, A& K. Y+ \, E. }4 LCount of elements : 14160 r1 Z8 r8 c7 y" N9 O% z
Stream size : 105 KiB (0%)+ A: @* E# @* {4 O1 T( _; w
Language : Ukrainian! o8 S) U' q4 t/ G5 |
Default : No
' Y1 W3 V+ z! T. tForced : No
. h0 D/ F9 m' ], ~! [' N/ I0 Q- ^; A- y

0 ~' E2 v# }1 d  W: _7 ^Text #32
( E, S3 h/ g5 E- rID : 34% _, ~3 s: m8 E# J& a
Format : UTF-8. e0 k3 Y/ K) c, O" H4 K: ?
Codec ID : S_TEXT/UTF8
3 T/ {+ X7 N% A. L2 L- m& ]7 ACodec ID/Info : UTF-8 Plain Text0 r& T6 D5 n3 _9 n" `# v8 B
Duration : 1 h 33 min
. F) ~" `$ A) P9 @Bit rate : 131 b/s5 X7 M  H; |7 r( E5 n. Q; }: R
Frame rate : 0.250 FPS
1 F% @" [( V  o6 B% X& w9 JCount of elements : 13999 V6 b# Y2 s8 L  E: `1 z# B
Stream size : 89.8 KiB (0%)
. }+ i0 m6 E( N3 PLanguage : Vietnamese
5 q. i' c- b. f* x+ q; cDefault : No! r. `+ r% ~  M4 l
Forced : No
" ~, d- `9 C6 h0 f* f& Q; ~# i
& j' b/ @! y8 _! U

5 B: y! t( J! m0 O: iText #33
% [5 I3 S$ G6 f% _* yID : 35
& Q% [- L; r  q/ _9 ]5 RFormat : UTF-82 A! n* X9 }) p* G" _# [
Codec ID : S_TEXT/UTF8: j7 e7 L& Z% y4 L' J) [6 g! ]" s
Codec ID/Info : UTF-8 Plain Text
* [* U0 t' `& f, e, d+ O  HDuration : 1 h 32 min: j$ ~8 F# ~5 }7 \+ E
Bit rate : 95 b/s3 c0 v' i& a# g  l: p, k: m- l
Frame rate : 0.254 FPS# O( J8 @$ B/ f( ~8 F: A6 Y& Y/ C
Count of elements : 14184 ?# E* |& b$ C6 }; B# K' ~0 a) P
Stream size : 64.9 KiB (0%)' j/ ]" O' e/ R& Z% H
Title : Simplified
: i8 P) x1 H# zLanguage : Chinese  _  z8 @9 `8 I0 d- s* c3 e
Default : No
# @- t" V9 o8 c+ h! p" x  TForced : No
( r5 q5 s1 J! L0 o- f' h" g! J5 M% s! ]. x/ r
) V9 Z8 X2 n' Q+ C/ U/ U  n
Text #34
! L$ v7 ]" J+ n9 L; _: q9 YID : 36
0 v% s8 Q& J% ^$ Y) x8 p) MFormat : UTF-8" t3 S6 e  T( s( e
Codec ID : S_TEXT/UTF8+ X  {/ p. F) |
Codec ID/Info : UTF-8 Plain Text9 j- S6 l( B9 d" L8 S2 V
Duration : 1 h 33 min1 W" w7 h/ X0 T+ \! |3 [
Bit rate : 85 b/s) Z- l8 o* R7 {+ [
Frame rate : 0.272 FPS
  T' T8 C5 T3 m8 |' B, ICount of elements : 1523' e$ o3 o2 c1 d* H& E, u% I
Stream size : 58.5 KiB (0%)9 S- @# S% C4 d" j% a
Title : Traditional9 @7 ]9 ?9 p% g- n' G7 {. o
Language : Chinese6 O' v" |) r  p; w  x! T' W& h
Default : No
) `; Y9 A8 N1 o( Q) h; aForced : No0 H) K7 e+ L3 ]4 f. c# Q4 X

/ [. P/ A/ h, I+ G
  B, u& n: a$ e) t. b& m
Menu
+ J) m0 I% t$ a* s' o01:29:49.000 : en:End Credits
1 u& y" w5 n' j' P" E: q* |Trailer:        

7 P" y1 e" c3 x! ~
- v9 l: F- `9 o8 `) x* y4 ^( h
. n6 p5 z3 C4 e0 @  `
1 _/ G3 a( }) U) v9 r% ~& K( ?! Q2 o/ E5 f
Britney Vs Spears:父女对簿公堂(台)/父女之战:解放布兰妮4k.Britney.Vs.Spears.2021.2160p.NF.WEB-DL.x265.10bit.SDR.DDP5.1-4k纪录片下载) T# F& i7 c1 k; q3 c* h

; D7 `4 X( U& Q6 h. k$ }父女之战:解放布兰妮4k.Britney.Vs.Spears.2021.2160p.NF.WEB-DL.x265.10bit.SDR.DDP5.1-简繁中字【8.35 GB】, n) G4 l1 n6 V+ Z
7 x: u7 T* d7 {# Z

3 H" h+ _" P2 |$ z1 _" t( Q父女之战:解放布兰妮4k.Britney.Vs.Spears.2021.2160p.NF.WEB-DL.x265.10bit.HDR.DDP5.1-简繁中字【10.73 GB】
3 g+ ]; a4 i+ D: n
- _2 I/ ]4 m9 T$ x6 F7 f
% X. B0 D- u9 h8 ~" \- Z父女之战:解放布兰妮4k.Britney.Vs.Spears.2021.2160p.NF.WEB-DL.DDP5.1.DV.MP4.x265-简繁中字【杜比视界】【11.08 GB】8 E; _9 [3 [6 r7 _: O8 z

7 |# A  X  t' P6 v9 h3 ^, I3 R2 J: s. Y2 }$ o; K
父女之战:解放布兰妮4k.Britney.Vs.Spears.2021.2160p.NF.WEB-DL.DDP5.1.DV.MKV.x265-简繁中字【杜比视界】【11.08 GB】: e5 {" u9 a% K6 Q/ n+ T. L

1 y4 R+ O& N1 j% T' j5 J3 A
' r* U  L+ O7 @. K* o" L/ U) G
" ^* q* `$ z0 Y' q4 \
2 Q6 L3 |7 d0 B: k

; y) a3 g/ L) u2 D: B( F3 l
登录 发布 快速回复 返回顶部 返回列表