开启辅助访问
 找回密码
 立即注册

Blutsbrüder - Malcolm X und Muhammad Ali/生死之交:马尔科姆·X与拳王阿里4k.Blood.Brothers.Malcolm.X.and.Muhammad.Ali.2021.2160p.NF.WEB-DL.x265.10bit.SDR.DDP5.1.Atmos-4k纪录片

#4k记录视频#时间:2023-04-28 阅读:163 回复:0

) ]! m; ?2 c9 }& a 105831raamjqlqtj727bzp.jpg.jpg 4 [5 q6 q9 }: b5 c1 X5 T2 o. ~

* T; l: A( k0 c3 T! Q" A: W- K* N% G2 Y2 r
简       介

5 W1 F8 ?5 n8 w6 a( n  {4 f! ]4 J# _
  在关键的三年里,拳王阿里与马尔科姆·X 结下了兄弟情谊,这不仅改变了两人,也改变了世界。《结拜兄弟:拳王阿里与马尔科姆·X》讲述了 20 世纪两位标志性人物从结缘到最终决裂的往事。很少有人能理解两人之间的这份情谊。在这部由制片人肯尼亚·巴里斯打造的全新长篇纪录片中,导演马库斯·A·克拉克提供了一个新鲜视角,通过知情人士的采访和未公开镜头来描绘这种复杂的友谊,带领观众深入了解这两位并驾齐驱的传奇人物:他们一位是魅力四射、为人直率的奥运冠军,举国都为之倾倒;一位从前科犯变为知识分子革命家,并勇于谴责压迫。通过采访与他们最亲近的人(马尔科姆·X 的女儿伊利亚莎·沙巴兹、阿里的兄弟拉曼和女儿玛丽尤姆和哈娜)以及康乃尔·韦斯特和阿尔·夏普顿等文化名人,这部电影讲述了他们的相遇、结缘以及最终因“伊斯兰民族”领导层的不和而闹翻的过程。该电影改编自兰迪·罗伯茨和约翰尼·史密斯联合创作的书籍《Blood Brothers》,由马库斯·A·克拉克(《未解之谜》《热血嘻哈风》)执导,肯尼亚·巴里斯和贾森·佩雷斯担任制片人,监制团队包括埃林·桑普森、乔纳森·秦、西蒙·秦、西蒙·乔治和马库斯·A·克拉克。/ t8 D* d" Y- Y8 s. V
7 M% m" {: z% S6 q$ M
影片参数
结拜兄弟:拳王阿里与马尔科姆·X / 生死之交:麦尔坎·X与拳王阿里(台) / 八拜之交:民运领袖与拳王(港) / Blutsbrüder - Malcolm X und Muhammad Ali/生死之交:马尔科姆·X与拳王阿里4k.Blood.Brothers.Malcolm.X.and.Muhammad.Ali.2021.2160p.NF.WEB-DL.x265.10bit.SDR.DDP5.1.Atmos-4k纪录片信息
, P* l9 o. d$ ?% C( ZVideo7 U+ M- h2 X- G
ID : 1+ M6 H3 q/ h3 k8 U6 Z; Z* y! x2 X
Format : HEVC
2 L5 E/ _- |4 m. g( z" }Format/Info : High Efficiency Video Coding
, r0 B3 \2 z) N' V5 T6 g( LFormat profile : Main 10@L5@Main) D' U/ ?( \* q4 m4 m% }8 ~1 K5 i
Codec ID : V_MPEGH/ISO/HEVC3 }2 r" _3 q" e9 @; p6 O
Duration : 1 h 36 min
- O  ]0 \3 M6 K8 p! c9 LBit rate : 16.6 Mb/s& G. F9 Y/ G; }; ~
Width : 3 840 pixels5 q9 J! U* ], m' w: j- [  P
Height : 2 160 pixels! g8 ]0 A8 n3 H) Y5 U
Display aspect ratio : 16:91 B' @5 b5 N; y- ]1 I
Frame rate mode : Constant( P) k; V6 [# R/ [8 a" `
Frame rate : 23.976 (24000/1001) FPS
% l: o; N/ L8 @Color space : YUV# m' c+ v( [) U3 b+ N
Chroma subsampling : 4:2:0" c$ ^7 j5 W- S1 G( V1 {, a
Bit depth : 10 bits# n% m' y* ^# k4 U/ P
Bits/(Pixel*Frame) : 0.083+ b: e& ?& ^" _
Stream size : 11.2 GiB (96%)2 ]) Y( u+ q1 z, e  R1 \
Language : English
7 ?1 e6 o1 [4 m7 fDefault : Yes4 q* L8 ]+ E: z
Forced : No  z: v' l0 D% [; }  R
Color range : Limited
7 ~( e! n( {8 [, u0 {Color primaries : BT.709
% s7 N' j  U+ D) ?6 v: uTransfer characteristics : BT.7095 j8 W/ B; ~) a) \3 z- H6 V
Matrix coefficients : BT.709
7 V3 l2 n# Z6 Q% S# F: w. k0 ]/ P% {) ~

# Z  x0 m, c8 s- T- B# B# pAudio
. S4 U/ q4 A! P, A8 _, z) k; y& oID : 2& A$ q% ?0 g. u( c" n
Format : E-AC-3 JOC2 [1 v4 k% E/ O/ z$ J0 s; T
Format/Info : Enhanced AC-3 with Joint Object Coding3 o  Y* p# ~6 n, N- [
Commercial name : Dolby Digital Plus with Dolby Atmos8 D% F# f0 L7 [6 Z2 ^& C0 E
Codec ID : A_EAC3
* `: E) q  H7 h" N0 }Duration : 1 h 36 min
' h& ?) Z! ?8 Y  T2 q5 ]! lBit rate mode : Constant) n8 b. B8 O. O
Bit rate : 768 kb/s
$ |) ~0 ~, }, `- B5 f( b2 i: JChannel(s) : 6 channels
5 x1 }& o* H. I" w# |$ J2 d# ~Channel layout : L R C LFE Ls Rs0 B3 L( W" z& I" O$ ?! n
Sampling rate : 48.0 kHz& U0 k1 a7 u& f" |
Frame rate : 31.250 FPS (1536 SPF)
5 {( q" M$ X* Y$ q; J. e* u# ]+ MCompression mode : Lossy" R. S3 J) X% V! ~
Stream size : 530 MiB (4%)
9 C4 I( N& W9 P2 N  T3 C4 fLanguage : English
  H/ O/ D! Z+ x! \Service kind : Complete Main& b8 |7 G1 Y; ~- {0 h! M; M
Default : Yes$ P8 O3 K! V& k* @
Forced : No2 \3 J- b/ _* H0 P
Complexity index : 16
2 C: i$ _1 w9 A+ |6 \& r1 W8 |7 A  XNumber of dynamic objects : 15
' Z$ t( `( Z. v3 `% G+ ZBed channel count : 1 channel
: N& b% e/ f* p! YBed channel configuration : LFE
9 {% A* j7 J) W3 r$ f- i0 y
" W4 r. P' ^% q# a1 ^! ~. o; g' c

, m# P( K7 _1 o5 z% C) y4 x7 MText #1
+ I/ v8 t9 q5 w8 R% m, lID : 38 E& N! b9 A" r+ D5 e! {" X
Format : UTF-8, t- D+ @' r" E2 A) b/ q9 `! s
Codec ID : S_TEXT/UTF8  W: W+ l. x' g1 v
Codec ID/Info : UTF-8 Plain Text
/ ?5 l9 [: g! ~2 w7 ]Duration : 1 h 26 min7 {5 l+ x& i* w' G+ h) ~9 \
Bit rate : 4 b/s' V% p9 r7 r" T  O# ]) r
Frame rate : 0.016 FPS, m7 j2 Z& E  [4 }: @
Count of elements : 82
6 q' A' ?. \3 U) R' T; e  I0 oStream size : 2.98 KiB (0%)1 J' \. z0 E( P4 n: R
Title : Forced& B$ m  R1 S6 N6 J; t5 P
Language : English
4 O& ^. F- Q0 e" l# {% W  _Default : Yes
; e: l. p% J3 B  xForced : Yes
1 ^3 N- s6 ?( P) J6 y: L- Z& b) q8 z) Y

: B5 c" d! ^5 D- W7 S' p! J8 qText #2
* k# `9 i; M& `; o. ]3 rID : 4
# v8 a1 d/ e& `0 H+ s1 \Format : UTF-8
, D; q2 N7 ~! W# CCodec ID : S_TEXT/UTF8
4 N$ J4 f3 R9 d& E  q% MCodec ID/Info : UTF-8 Plain Text
% l/ w3 s+ s4 \Duration : 1 h 32 min
# m+ S2 c+ O& ?; z, S! tBit rate : 90 b/s
  W/ I4 [* z+ z  a( DFrame rate : 0.265 FPS, }* T# q# ?5 J/ b' J
Count of elements : 14650 h/ J0 h' y/ C  D% {! o
Stream size : 60.9 KiB (0%)
# y! J8 r/ W2 A7 s* eLanguage : English
# D% ]; I+ l+ E8 @Default : No6 W0 |# E7 w: W: U
Forced : No! p8 c# X; c$ a8 A5 w8 [2 V. b
0 d6 L% {. G4 n- X* z+ a

" v/ I: X  ], ^1 e" t8 TText #3
4 U8 Y& Z9 P0 Y! Z# @2 ^3 k& Y, WID : 5* j3 T1 A3 t5 \3 x3 c1 U* M
Format : UTF-8
% Z# J( R9 M5 ~; K( r7 O0 b3 FCodec ID : S_TEXT/UTF8
" H# l9 J& }( y1 ^& c- H* z4 eCodec ID/Info : UTF-8 Plain Text
; s/ K$ }3 D3 s6 N2 @Duration : 1 h 32 min
; G, C2 }3 l8 R- l; `% T$ }  VBit rate : 98 b/s1 y9 F* \- x5 X& {% D% ]; t
Frame rate : 0.281 FPS$ c$ Z9 s5 U( P$ p: n5 r+ d
Count of elements : 1563
8 L4 ^' l" J0 q- dStream size : 67.0 KiB (0%)
. `7 j% a& J% i  mTitle : SDH3 o( r% j; D# ]
Language : English
+ e; x: _7 I% r2 @. L' IDefault : No
, l$ r. u$ H3 T( xForced : No4 l2 K$ H3 Z: P9 M6 ]7 J8 T
4 Y7 A0 Q/ y  T/ V) C# v

" J. t" d' K- P+ Z+ RText #4
' p" v" v! z: U. F1 @; yID : 6
) Z& E8 j1 n) ]- R+ {Format : UTF-8- F* I+ c3 Y% @6 a, c
Codec ID : S_TEXT/UTF8
. \; w7 z( h  R3 w/ Q8 U# PCodec ID/Info : UTF-8 Plain Text/ l' ^& k4 n! Q# i: r
Duration : 1 h 34 min
+ ^9 W3 S7 v9 H9 }2 [6 E( V" X  YBit rate : 138 b/s4 V+ s/ u  S/ u, n: s* S% _( q: L& {) w
Frame rate : 0.272 FPS7 ^  X" f$ j. Y8 L0 U. L
Count of elements : 15496 Z' n9 }- w, E( y% [
Stream size : 96.4 KiB (0%)& k6 q4 P4 ~2 n) f7 G5 |
Language : Arabic
: R# @8 x  a( kDefault : No
* L& o/ d8 [7 Z, C  C9 nForced : No* j: {- M- U5 o6 y

2 g9 `% x0 T7 }' ?6 t
- ~9 L) I2 ]8 }3 K5 ^2 I& k
Text #5
7 ]% v& o3 V9 \ID : 7
; V$ B6 Z, Y( M" @8 V/ J4 N/ a4 UFormat : UTF-8
4 b# v* z2 r0 Z) k6 xCodec ID : S_TEXT/UTF8& b( }- L. l' C8 ]# E
Codec ID/Info : UTF-8 Plain Text+ p; ^( r" s( d' ]
Duration : 1 h 34 min1 c% w+ v( L; B- S# K
Bit rate : 80 b/s# P. R0 R, x. x
Frame rate : 0.261 FPS
: `6 J* D$ t- V0 lCount of elements : 1484- N/ z$ w" A0 i' O7 a
Stream size : 55.9 KiB (0%)2 i% u2 i3 h$ B  H
Language : Czech
5 y+ R4 J: m1 e+ F' p1 R) N+ IDefault : No$ W2 S  O. y( z# r) w. s/ w$ D
Forced : No" |& U- X; ~3 Y8 a% c6 x; v/ q
7 m6 h" _) D% N: h+ l1 m, `0 F
& |/ h; _( f" B, M/ Y) _
Text #6
( I0 X) A; G6 CID : 8
2 q/ l4 \5 f/ Q/ Q4 bFormat : UTF-8  v/ ~+ f( R. |3 c5 S
Codec ID : S_TEXT/UTF8
/ n' h8 U' W. j$ \' hCodec ID/Info : UTF-8 Plain Text  {7 k' t* j# T) m0 O5 [; ^* H9 k4 q
Duration : 1 h 34 min0 }  E. w' F7 @' C7 F
Bit rate : 84 b/s
0 Q) G9 R* q9 W  ~7 ~Frame rate : 0.227 FPS
6 n/ k7 s, H& w# a0 O) U+ BCount of elements : 1293
" A* s" I$ I9 ^  VStream size : 58.4 KiB (0%)% ^: ^& w. ~3 a0 v" H* i& B
Language : Danish
- b- h" J) C7 q. |2 j3 {* EDefault : No
4 h0 \. ?: |, S; S- f9 IForced : No7 M" j3 S8 N: ~, [9 q! Z7 \! E

' B# g1 I7 \# p$ r' s8 ]5 a

0 X5 W2 L4 V4 j$ ]Text #7
5 l0 ~4 f  h; N9 u$ j* g, l: N6 \4 fID : 9
/ \# m+ ^6 |  N0 F' v' EFormat : UTF-8
6 _* [  G" D7 x$ ZCodec ID : S_TEXT/UTF8
" f' E/ w# r: L, d- N! [Codec ID/Info : UTF-8 Plain Text8 G: }! ^% i3 ~4 N- z! E
Duration : 1 h 34 min
* P+ Z& k1 A7 }7 `; {( uBit rate : 82 b/s
' d9 d# p: c% G( G" Q) WFrame rate : 0.236 FPS
/ Z- V6 @9 G: z& ]# |0 k) SCount of elements : 1343- v- A6 r! l1 k8 A. [8 a
Stream size : 57.5 KiB (0%)1 H8 q2 [- D. N8 P* I5 t0 r
Language : German" U: j' J) a1 {
Default : No
$ T$ W7 ^) @, O1 H: u7 a( G/ N5 eForced : No0 `+ v0 T) p% J+ l& R' u- X

# Q0 z8 M) H# |7 n
( p' S. v% s" Q2 u0 F9 i9 g- ]% C  Q$ [
Text #8
7 z; F! w8 L. T/ uID : 10
/ n3 }7 c0 J1 hFormat : UTF-8
" e4 a, c- q+ g, K/ c) y( M& ~8 OCodec ID : S_TEXT/UTF8$ Q& ^) Z1 G# _$ Q6 j" v$ g$ _) n
Codec ID/Info : UTF-8 Plain Text( _( n4 g) q( \+ W# f3 i+ ?
Duration : 1 h 34 min$ y4 A4 M. j( R% \
Bit rate : 145 b/s
# n3 z7 ^6 r9 g; ^3 l* k3 TFrame rate : 0.254 FPS
+ `' E8 g. t0 A# }3 f+ \. }( A) PCount of elements : 1444, n. H2 w2 @) G2 w0 a, @) _
Stream size : 101 KiB (0%)' G( A# i2 m/ }& h) t
Language : Greek5 ^3 F+ w0 z0 D9 ~7 u# ]
Default : No$ M, P$ Y: f6 s( ~4 k
Forced : No6 w: X, C1 K* @4 `: a% A; Q9 z( z
7 P# ^5 i1 t8 S0 H
" r) I7 s0 @" H7 K* i- U9 X
Text #9& x8 K! p5 n9 N" x% u7 J. q# N8 w
ID : 11/ b. b: t; [" z5 I& z  r
Format : UTF-8% }! s$ C2 j0 }- G4 Y9 W7 b2 a2 F
Codec ID : S_TEXT/UTF85 U, R  N; a, i6 K& S
Codec ID/Info : UTF-8 Plain Text. W3 I8 b  p* U% ]7 u
Duration : 1 h 34 min5 _  O5 Q& |; z4 _
Bit rate : 85 b/s* z1 T& O( x, }) z3 A
Frame rate : 0.267 FPS, H8 v- ]* M  w0 s
Count of elements : 1520- Q, j9 O) J& U- i0 W
Stream size : 59.3 KiB (0%)
, E) K  F* X% P$ J# i9 a+ |Title : Latin American4 d: v; a3 c$ k! `2 U
Language : Spanish  G- m# _% N6 t. n
Default : No
, b% ]7 ?3 T5 @& O* {Forced : No
# U: ~+ l: f" _% V/ A$ O
& s( l* G8 H! v1 w5 u

' `7 ^( J" F0 z5 X& cText #10
- e) \" l: R4 Q# X& q" H5 CID : 12
  g6 d1 |6 U: G& v- IFormat : UTF-89 ?8 M% N7 Q: j5 |7 s
Codec ID : S_TEXT/UTF8+ B2 c' T1 B8 c! }& g
Codec ID/Info : UTF-8 Plain Text6 }! ^. ~- x) f2 R2 p) p* ~
Duration : 1 h 34 min
+ Y$ f0 \' l0 m& B! s0 RBit rate : 84 b/s
" N+ D5 s" c& ?* `6 ^' gFrame rate : 0.272 FPS
3 S6 L2 t$ J) ?3 v/ O( n: CCount of elements : 1551
) O% E9 U! e0 ^' G# kStream size : 58.6 KiB (0%)9 R7 k4 J' |) h4 ~+ A1 J( E0 {/ Z* H+ \
Language : Spanish
4 {3 U. i6 N7 a2 x) l4 JDefault : No: g$ S5 l! U! N8 W; G3 n
Forced : No) Z' `8 E7 f1 |8 X9 d0 l
8 c$ T" M# E8 r% \/ f' l

; }8 Y' j3 t0 e- x3 o0 `Text #11, `( c* Z$ {8 N5 a8 C, N* ^
ID : 13) V; G$ t1 y; a4 @
Format : UTF-8- |! V# Q, z2 ^
Codec ID : S_TEXT/UTF8
, u. n/ _( w+ J1 ?# jCodec ID/Info : UTF-8 Plain Text* O" ^3 e5 Z# l% e  E2 `
Duration : 1 h 34 min- U9 X, M7 c2 g1 A# W. F: ?
Bit rate : 83 b/s9 P; n2 y1 H- S+ S2 u9 ?( P
Frame rate : 0.247 FPS, n! l# |0 A: n2 L! ?8 y) b" F
Count of elements : 1409
' }9 j1 [# r9 o9 n( F: Y! VStream size : 57.9 KiB (0%)+ _! S. K6 {1 S& _( f
Language : Finnish
6 `. A/ ^+ Z' F4 uDefault : No
: x; B+ W+ n: `& H3 cForced : No
. b. M! @& V4 R2 j( p4 e. d5 }2 e+ E
+ o% d( h8 A7 G: \" N

0 e# i+ \; p. h& @$ g, B2 kText #12% H- |. _4 j  _" N; J
ID : 14
: J! ^7 ~$ i3 \- T1 UFormat : UTF-82 D2 I/ s  b( y' d2 `. I! N
Codec ID : S_TEXT/UTF8
, C7 a: X( t: \% A0 N. S8 sCodec ID/Info : UTF-8 Plain Text3 u4 J* b. F- I; ?6 [7 H
Duration : 1 h 34 min* I" h2 B+ M7 M/ ]8 H
Bit rate : 87 b/s( s+ K  h- w* A8 _+ E
Frame rate : 0.258 FPS5 q( T# a: @: G. _0 {
Count of elements : 1472
' y: Z" i9 r. I9 [- pStream size : 60.9 KiB (0%); f0 k( G7 f4 _( s, a! o4 s0 q; C3 E
Language : French* `, A% d3 r4 |! v( c
Default : No9 O9 e5 D9 s1 Q6 a7 d
Forced : No7 x( F9 t! y$ ]
& B3 O3 ?+ O7 L" ~
8 m* {/ s1 R4 ^' g) ?, M7 K
Text #13( n, Z9 @$ B6 ~& y: Y
ID : 15: ^6 q; B9 `9 K( h
Format : UTF-8
: {- p" m6 H9 I2 |Codec ID : S_TEXT/UTF8( g) B1 u: o' o. \' U' [) Q
Codec ID/Info : UTF-8 Plain Text
( W9 Q* @- @& S' ODuration : 1 h 34 min
# Z5 \% d( {- y+ D0 KBit rate : 136 b/s
6 S* `3 ?7 a! aFrame rate : 0.256 FPS- ]  E% ~% Z) Z5 l
Count of elements : 1459
0 a' \6 l8 _6 D/ QStream size : 94.8 KiB (0%), f+ Q! e4 W' P, q3 `; v$ r) s' I3 \. Z3 X
Language : Hebrew& x. x3 U  {$ \6 o6 h  U
Default : No
# f  q0 `1 |6 H( H" K+ X3 ^8 R5 y5 Z& ^Forced : No
/ q5 G; V# [( ~. P, H8 e4 x. g  l! z4 r# m

. D" e8 e4 R8 xText #142 s" e9 V" M4 X% J$ P
ID : 16, q% V4 H8 T( l; x6 y7 `
Format : UTF-8) N# }( c. N- w6 Y% G0 U
Codec ID : S_TEXT/UTF8' A. y. X* F; @
Codec ID/Info : UTF-8 Plain Text
0 x# A" {7 b' c2 C4 n- `Duration : 1 h 34 min5 f% o; m. n( m
Bit rate : 78 b/s, E) z0 X0 u% l5 j; W6 c7 S
Frame rate : 0.256 FPS; t1 E$ \8 g( w, ]
Count of elements : 1458- q- U1 N9 q0 p1 m
Stream size : 54.4 KiB (0%)2 w9 p% Z8 T! Z7 ?9 S
Language : Croatian
: V) M0 H6 y( }) k/ zDefault : No
+ Z: x& t+ n. GForced : No
+ z7 u* ^9 V" @- `: }1 I6 G3 P6 U3 H" o

, x! o2 W3 J0 r3 t$ ?& M7 f$ wText #153 }6 s, Z9 D7 h" V* P' g
ID : 17# I# Q6 e# K1 x9 B8 h
Format : UTF-8
# ~" H( ^; \% D/ eCodec ID : S_TEXT/UTF8. n1 x* A, ^+ O0 t* g
Codec ID/Info : UTF-8 Plain Text5 K6 K0 g9 Y3 `( e
Duration : 1 h 34 min  d' }8 z; m6 Z2 p! Z* o
Bit rate : 85 b/s
, C  U( ^: u. g3 h+ l) FFrame rate : 0.250 FPS1 J. Q% D2 z; [' N: V( C% {
Count of elements : 1426
% M- h* C, A3 B* R4 W) m' K% F& SStream size : 59.6 KiB (0%)
: o# |3 F" \1 t& @! JLanguage : Hungarian% D/ L* D2 B0 h9 f& S
Default : No7 K1 L5 q( H* N& N6 K% \
Forced : No
; p  Z3 j2 m! l
7 y/ p# d0 ~: s& [
1 R2 a+ M" l) [
Text #16
3 {6 O0 E& I: uID : 18: ^6 C( y* D* V9 ]/ \+ B
Format : UTF-8( M! m9 K& z$ Q) p% X8 U
Codec ID : S_TEXT/UTF8
6 L. r7 x$ ~" cCodec ID/Info : UTF-8 Plain Text6 `: H1 \4 \/ Y" S" V4 B" l
Duration : 1 h 34 min  L. _3 J7 C' U) M9 l" z& K
Bit rate : 84 b/s
) n$ s% T# Z3 o2 n: G2 c* o4 L- MFrame rate : 0.267 FPS
( m4 i6 O4 h" k! h1 g/ lCount of elements : 1520
& J6 n$ a0 j+ ^* y8 C/ ]Stream size : 58.9 KiB (0%)% K+ s- g$ J$ W
Language : Indonesian3 b: [7 U6 m8 e) ^1 E6 q8 a
Default : No1 `! r% y1 }7 u4 J, ?; I
Forced : No
% d* Q& X2 Q- i: K1 K! B7 Q/ {
4 O& g' V7 g- u

5 \' H- s9 m. K( ^$ M1 y9 A  CText #17
$ K! U( l8 ^9 {% B# SID : 19$ x0 w5 J9 x; x
Format : UTF-8
; q. B' Q2 m5 q# Y$ L& dCodec ID : S_TEXT/UTF8  E) E5 \% F; \4 W- E, }' k
Codec ID/Info : UTF-8 Plain Text
# f7 W' x) Y4 E) qDuration : 1 h 34 min
0 s- R$ E; B1 bBit rate : 84 b/s$ G  z) U# T9 i, A" d/ ~$ W
Frame rate : 0.238 FPS
7 Z! K  ~' c' o- b) H5 E0 CCount of elements : 13547 w+ ]- c3 |( d/ D2 C: t4 f8 E
Stream size : 58.5 KiB (0%)
, |: w. G  L  p3 s6 ~5 }Language : Italian# O  w8 N3 S8 w5 ?# ]. k0 A1 f
Default : No7 x+ ]% u7 j4 F$ a
Forced : No
; k! o8 D( z& Q* _0 E6 ^, A+ X1 v0 p# v
5 _2 \- z1 `) y
Text #184 h: p+ f% F+ {  A1 `
ID : 20, k5 S; \# d6 d1 o% `% ~
Format : UTF-8
8 C3 u0 G, X# B7 ^Codec ID : S_TEXT/UTF8( h, o! W3 b$ n; P* ?# @1 k
Codec ID/Info : UTF-8 Plain Text
; D; i, @& ?+ z, s5 `9 x* h; W$ i) @Duration : 1 h 34 min" a& C9 K# ?" \0 F+ W
Bit rate : 84 b/s
7 n% g! j* H6 _& O% A( a/ aFrame rate : 0.284 FPS  x2 r0 m" f. k
Count of elements : 1619' V% t% y0 N! Q7 n8 z
Stream size : 58.8 KiB (0%)
8 T% L* {# D5 e! f) h; g7 I+ eLanguage : Japanese
% V! W, Z9 W; k' w) HDefault : No
1 i; @) ^( s+ |% F* YForced : No
  T1 T0 n3 g1 P8 K4 }2 a% \$ _1 x

  L1 O9 @( F* e  D1 }: jText #19
. B7 D- P$ d, ~, aID : 21
8 v, t- d( x' U, m2 fFormat : UTF-88 Z. R$ B; e5 ^0 D7 M4 F
Codec ID : S_TEXT/UTF8
" n4 ?: z4 ]* g0 U  fCodec ID/Info : UTF-8 Plain Text
7 k6 s3 S* G) H) _9 _( YDuration : 1 h 34 min
/ Q! M  j& y$ z3 b# ^2 ?Bit rate : 102 b/s
) _7 z9 d/ R% y) g' q* {) G" vFrame rate : 0.273 FPS$ z+ u1 n1 H) ]7 @' e
Count of elements : 1552& W' i; A( W( w7 O4 R  Y
Stream size : 70.8 KiB (0%)
7 H* z( y8 o) {( A6 N( X! ~* z4 F9 `Language : Korean( S' A* W5 d4 L; q
Default : No4 W& L7 ]0 l6 P, f
Forced : No* ?  Q2 l: l5 y) e: C0 F

: d" U5 ?# ]9 [
( Y0 ]6 ?$ Y/ Q1 q, t9 C
Text #20
3 `& q) }5 |: Y+ I3 SID : 22
# R5 v3 H5 N, o) i" h2 \Format : UTF-8
* i6 {. b1 P' D8 Y0 w; qCodec ID : S_TEXT/UTF8. X4 u  s! P% I# s
Codec ID/Info : UTF-8 Plain Text  [; N  p$ W! r
Duration : 1 h 34 min
1 Q2 V! d4 n. \  H9 K3 x8 NBit rate : 82 b/s' u; e# U- Z" z) u( a
Frame rate : 0.247 FPS
$ e$ s4 J% M" b" g/ eCount of elements : 1408
% m. p1 g' V# J  u7 J+ p' K0 m) |1 oStream size : 57.6 KiB (0%)+ J% r% @& i7 ?- A
Language : Malay  L/ M  z/ e, ~$ b
Default : No
" K. V' t( ^; A( U5 s$ yForced : No
+ ?9 A3 G3 p7 R3 @0 `1 l# {  H) S: W# D" `5 D& y9 R) v: ^

  K0 c2 G- z4 {- U! \Text #21
! e9 |0 X. Q9 M3 |5 `ID : 23
* `. z. }1 M+ A4 c$ z0 @* G7 _Format : UTF-8
6 r: N9 m; p! K) R3 O  G1 ^+ a# h$ nCodec ID : S_TEXT/UTF88 V' t! |7 ]" e, `
Codec ID/Info : UTF-8 Plain Text  f& s2 Z0 D- i; I" C1 Y
Duration : 1 h 34 min, P9 q7 w! R# I) g% Y
Bit rate : 82 b/s- ~8 ]. O) O# i/ S
Frame rate : 0.233 FPS
) d9 M; i2 l# a' ~  H! tCount of elements : 13259 ^. Z$ }) r5 G4 X2 K
Stream size : 57.0 KiB (0%)' T; c+ w" j- `) W
Language : Norwegian Bokmal
* `4 w' T6 w5 Z; f% s! ]+ ?Default : No
; P; C4 i2 t: J* K% AForced : No
* J5 U! w, W2 |% K+ \
5 V  }- ^& X; V$ e

' v% z5 T( j# IText #22* R) {, V; P- u9 \5 W. w
ID : 24
& }% O! f  G5 L  j5 I) OFormat : UTF-88 P& s6 Q+ w4 f+ z9 i. f$ e
Codec ID : S_TEXT/UTF85 ~) g0 o# q3 b% z; a# }7 p
Codec ID/Info : UTF-8 Plain Text% d! \. D0 r+ d, V9 d; `* V' f6 @
Duration : 1 h 34 min
) }3 Q7 ?% u4 @' \: b( OBit rate : 85 b/s
% o; _1 {* c" w1 H, FFrame rate : 0.252 FPS3 ?6 r: |. _2 B0 b. M
Count of elements : 1435
( O: |3 Q: n/ {% dStream size : 59.8 KiB (0%): A! c4 p. \: J4 m2 j* k
Language : Dutch4 C9 |2 m' z  i& l6 K
Default : No
9 C" i# V3 y% E% b- F' A# ^2 C0 eForced : No. E) n7 ], n  L& A( H

9 o+ x, X7 x  w! n6 t
* T8 [. E8 v/ o( Q0 m) T# _
Text #23$ [9 M0 W4 u" z' [
ID : 25' G8 O- Z  x( t- L8 I) W& [
Format : UTF-8
( Z; s3 s* M: l) r6 m: `4 \Codec ID : S_TEXT/UTF8
/ u& c& S$ Q0 e4 sCodec ID/Info : UTF-8 Plain Text
( f7 C& g7 G5 f; B, HDuration : 1 h 34 min
1 j& \+ \+ c! d. k2 k+ @7 h! bBit rate : 81 b/s
) Y3 f: J( y- V! g! P% `8 Z& }# lFrame rate : 0.247 FPS
  Y: x! K! Y7 k7 B6 y. \' XCount of elements : 1407- K4 K; U2 ]2 L* R" K* T: [1 c
Stream size : 56.5 KiB (0%)4 R. D6 G0 y% ^) C
Language : Polish
1 z" o* {6 v- S# gDefault : No+ m& H$ N; a, X3 o7 _
Forced : No" a# ~9 g& X, h$ x4 ]6 j

1 ~$ M, F# n& g

5 x5 o1 S6 Q* g& N! b7 U& yText #249 y+ Y, `; V4 s& z
ID : 26
: d7 I" L, L6 U2 l( q+ OFormat : UTF-8
, s0 a& [8 N, `; u, d5 aCodec ID : S_TEXT/UTF81 ]! f3 P, U5 p& r
Codec ID/Info : UTF-8 Plain Text
. e6 [5 p: `1 ^Duration : 1 h 34 min
9 ]" p, P, ^* r2 i" L. zBit rate : 85 b/s% _( C' X# i0 v( Y" ^
Frame rate : 0.253 FPS2 R$ ]0 }+ o4 K# H' w+ ?5 L
Count of elements : 1442' M3 U5 \. A) l2 M
Stream size : 59.4 KiB (0%)
% I/ F& ~( U: q. r: c2 w) V, FTitle : Brazilian( a8 m! K. Q6 V  v+ N! Q7 k
Language : Portuguese
4 i: |) a( G6 F1 a7 yDefault : No( {; _: J$ i$ c( S
Forced : No
: t' p( i; g5 h; I; ~7 b5 W: M* T  S* J4 s
. K. Z9 b  X, j0 g3 [- Z
Text #25
4 s" w" b9 [# EID : 27
$ s/ a, `: m" J7 z# QFormat : UTF-8: y" H4 D- O4 V. m2 m& P. G* q; q
Codec ID : S_TEXT/UTF8
5 c& L' {) q" e: l9 J; [Codec ID/Info : UTF-8 Plain Text" T7 U; D3 b, k6 E8 c' I; I  ~% `
Duration : 1 h 34 min2 a: k3 @5 K) z; M( T; m
Bit rate : 86 b/s% }( s, o2 h* N4 L- r4 o
Frame rate : 0.266 FPS# b8 `* O  S. X  ]* ?4 [
Count of elements : 1517
$ q" y$ _6 w0 @/ a, R* B1 j, DStream size : 60.4 KiB (0%)
5 L" t# V( m0 J" }" L+ m7 pLanguage : Portuguese
0 p8 I+ Z$ i# b8 ]' {: j1 @% aDefault : No
* ~& U8 ^$ L1 }% J0 k' `! Q4 eForced : No
! }% H  f/ j1 y8 N  X
( c) J& v/ p* @$ P+ Q

5 @; O* f. T  ]' ^3 ?* qText #26
/ w+ ?# W; K% n* ~ID : 28/ B6 b2 W% S; M% [) k/ @
Format : UTF-8" A0 i+ b  g* }* ^
Codec ID : S_TEXT/UTF8
. a* v2 X4 U: k" hCodec ID/Info : UTF-8 Plain Text
& g' [' Z. g0 f+ K% A, cDuration : 1 h 32 min) |, O2 j. i; E: S
Bit rate : 91 b/s
3 \: I& n; i1 m, G, w; `% `Frame rate : 0.245 FPS# y# Z7 }7 |1 X
Count of elements : 1353
0 T) z* @/ M9 L! m8 ~Stream size : 61.7 KiB (0%)6 V& k5 @  q5 {9 R
Language : Romanian, B" i& k  ?  w
Default : No
3 z# ^! z5 f, G+ t" c- p- \Forced : No
2 F$ Q) ~/ q) |. y1 H
! c, Q) ^8 |" H& o
; G& b) L9 o) V: P0 B/ h
Text #27% V& g3 t% l! j! Z# _! p5 q
ID : 29* a! q0 u: F' Z  F
Format : UTF-8
5 ?+ D' D+ F+ Y: \5 ^; J4 |Codec ID : S_TEXT/UTF8# {+ `# z7 @9 N/ J* R& l# K+ |
Codec ID/Info : UTF-8 Plain Text0 P; O4 R# ~3 D
Duration : 1 h 34 min
0 i8 U( s" X/ P9 S9 A1 {9 NBit rate : 139 b/s; z, C* i( m( G& T4 m: E
Frame rate : 0.265 FPS* Z- ~& k/ }2 `  W
Count of elements : 1512
/ O& t' C! p, r: Y2 }Stream size : 97.2 KiB (0%)
' K$ _# l4 N- }1 l" S! S& GLanguage : Russian
3 u% M, M# }# s4 Q3 FDefault : No5 b) a$ u* \8 t8 C* e/ r3 k
Forced : No
: m, ?, Z5 J: o6 M+ i$ }# L: s% @* `. Y0 z  {) t- `

; g0 i) e$ z5 Q6 p6 d8 tText #282 d+ E' x+ t7 t4 W( g8 l! [
ID : 30
( A2 k# h8 |" n3 J7 [) LFormat : UTF-8
7 d8 R9 }1 e8 S. q1 \; O! aCodec ID : S_TEXT/UTF83 i) w/ b7 `1 X6 n9 [
Codec ID/Info : UTF-8 Plain Text9 Z  z9 ?% Y' a6 D8 J& z
Duration : 1 h 34 min
  t# }/ ~  y8 S( rBit rate : 85 b/s# {/ ]" h& L* o" t, d$ i
Frame rate : 0.275 FPS
$ B5 l+ q+ }; K8 h+ K9 hCount of elements : 15674 z: ?3 x9 g/ s7 A1 Z4 Y# w5 L
Stream size : 59.2 KiB (0%)& O: q" w0 ?' u+ l
Language : Swedish
+ s$ l+ v6 @9 F  ~4 e' wDefault : No
- H6 L- |8 k# ]; o$ aForced : No; g1 J( j7 g, R: r, w' h+ A

/ X" c1 d% A# F

$ T( M3 M9 ~# Z& ]' x8 H" r3 YText #29
# ]4 w7 z2 U4 V* P& i5 PID : 31
/ R# i5 [- c8 C/ |* sFormat : UTF-8
3 c/ W1 \! a+ _2 A+ Q& BCodec ID : S_TEXT/UTF8
) O, b7 L" P5 K% A7 HCodec ID/Info : UTF-8 Plain Text+ V' ^$ L  T" P' x$ y/ F6 g
Duration : 1 h 34 min
; Q2 c/ s  Y( y0 DBit rate : 218 b/s0 V9 j" l7 b7 G4 Y( y  ?% g) U
Frame rate : 0.275 FPS& t$ a7 j0 r/ j5 D2 A' x0 ?& d
Count of elements : 1568
  x/ B6 W1 `/ r4 B1 m& QStream size : 152 KiB (0%), R/ g2 h( W! P# x" J: \0 N
Language : Thai
1 a# J! X, x7 y- z+ o3 }Default : No  T2 N2 E' q5 Y/ W
Forced : No
0 p2 {8 g/ T8 v, y* z( n8 I2 K& d
2 v5 ?& i* W( V

& A- T) K1 }4 Y' x( W$ N! KText #30/ c; q+ p  }% ]5 X) S
ID : 32" A2 \! ^2 Y' x7 @! `
Format : UTF-8
$ k& X* A7 s& Y3 k1 Z8 n/ F2 {Codec ID : S_TEXT/UTF8
; h1 t, X5 d3 ]6 D' h9 ?2 c0 YCodec ID/Info : UTF-8 Plain Text
0 j6 U& j5 y6 a- ~2 z+ yDuration : 1 h 34 min
, x( n2 F  c  D; [/ K6 M% [Bit rate : 79 b/s0 e7 V9 j( D- r7 B
Frame rate : 0.264 FPS( r( z! q+ F1 W! ]- V
Count of elements : 15024 @( V  o+ Z/ e& ?
Stream size : 55.4 KiB (0%)/ G, \3 T+ g" D0 U- D
Language : Turkish- _, \! \( I) I+ i; x4 J
Default : No
' y  Q% f, X' D% G+ b& s+ kForced : No3 g, r% N3 y7 l# Y+ l5 Z  l
4 a  [9 }! |! @8 e$ i, M

; d0 m7 F! z' ]; Z+ h; @/ _Text #31
7 y( O  _9 o5 g# FID : 33# Q* |, v7 G0 s+ C+ i+ d. ~
Format : UTF-84 _& h+ U4 ?* k
Codec ID : S_TEXT/UTF8
& n9 p8 ~. U  o& D7 t. qCodec ID/Info : UTF-8 Plain Text1 M( g/ O: T6 O$ N
Duration : 1 h 32 min
  J8 ?0 K7 G4 r3 k; [  y$ _0 SBit rate : 148 b/s0 p0 s2 c) T4 U. f9 E
Frame rate : 0.276 FPS3 k# N& R/ g: y
Count of elements : 15277 j# h1 R5 a" R! W& X; \; F  e
Stream size : 100 KiB (0%)
6 \# R' Q$ {$ z2 a" j# u: {Language : Ukrainian
/ j0 o9 ]% C; Y8 d! z7 U- U2 pDefault : No
. F& p1 g2 l( z: L# H. kForced : No" V" p5 K+ ]( [. A, r5 M, N9 E
3 _& e/ f) u. p& \+ l9 y
/ c. x5 ]6 u1 s0 a) A
Text #32
7 P% F# S( H" G) }ID : 340 h- |: {5 S& R! }  \( O( w  y
Format : UTF-8
' f; k! N2 H8 ~) nCodec ID : S_TEXT/UTF8
% G4 \) j9 X% |Codec ID/Info : UTF-8 Plain Text. k/ t9 {, r+ y% b, O
Duration : 1 h 34 min3 |8 m* G. S  [; q7 Z" n. z. {
Bit rate : 114 b/s
0 e2 H: p$ L1 `  F" qFrame rate : 0.252 FPS
- E6 V0 a. |' a, kCount of elements : 1437
. Q( L7 P4 g/ B: g) m/ u# XStream size : 79.8 KiB (0%)/ O9 y! z5 j( y; i' T2 e5 u& t
Language : Vietnamese
  d& i3 C. y* ?* C+ e, PDefault : No2 B% t$ y" E" ^1 P
Forced : No( @3 R. v, u7 x; B& ^

+ T+ u$ y& x' @" l+ R; ~0 N" J
6 Y2 J' {: f! _; t
Text #33
( S+ M( q3 v! N$ B" X! `& FID : 35& y# c+ K0 W( `# S2 S# w: w
Format : UTF-87 @' u- }8 ?+ Z; C5 L
Codec ID : S_TEXT/UTF8: J' L& D) u: x+ {6 U# a
Codec ID/Info : UTF-8 Plain Text
4 j$ V9 g* w2 G, VDuration : 1 h 34 min
0 U0 k; E9 I2 |. p* VBit rate : 79 b/s# l/ b: x, O9 w. q
Frame rate : 0.271 FPS
3 V" h0 J$ R( H4 y; j. XCount of elements : 1543
6 a) Q. t' {. r" _Stream size : 55.0 KiB (0%)
9 ?+ p9 _7 f( V3 UTitle : Simplified
* W: ?  M5 D; O: O  R4 HLanguage : Chinese' f# Y4 O3 _) [! u
Default : No8 ~2 R: B: S+ G9 I( P& \' [
Forced : No0 _, _: H7 {7 I! {! w- ]

2 R# V" i) |# `. o% ]: k) x+ ^0 J
3 M' O  v9 w6 w
Text #34
8 v' j8 \4 g2 sID : 36
0 b/ z" X! G# H0 a! c% r, z6 o' vFormat : UTF-8  k6 @' Y  s3 }& q) a* y8 N  o
Codec ID : S_TEXT/UTF8
' E1 q! p- G& A4 f3 yCodec ID/Info : UTF-8 Plain Text
( f- D9 l  n' ?" rDuration : 1 h 34 min
4 `/ g5 f/ Z9 b  o5 w. @Bit rate : 84 b/s
3 i! P* p, U: h0 k" S. p# l5 C5 i. gFrame rate : 0.282 FPS
3 @. _  X* ~4 Z0 D5 d) d: YCount of elements : 16077 t4 z3 g1 H- g" C2 S- P
Stream size : 58.5 KiB (0%)
& w& o/ @3 K# MTitle : Traditional8 \" n) Y! r5 S( N
Language : Chinese* j) v" P: b6 C* S  c
Default : No1 U9 \. F- }5 k! F
Forced : No* o+ Y( Y$ p" u6 j+ ^1 Q+ t- ~

) [+ y2 c$ M( ?( N9 X# P
+ T. @. p4 ?* C( v- e- V; A, T
Menu' H# l# C# c" P! I3 k& F
01:32:50.000 : en:End Credits
% W( c( `. ?1 b9 [) @

+ ?5 n, _) S2 }& d5 ^# D# d; `$ g0 _( A( Q$ C% |- m
6 i$ z$ w2 c" z* N6 X7 V9 j
5 z9 I. K4 @, E4 E" q1 `  `8 w3 G
结拜兄弟:拳王阿里与马尔科姆·X / 生死之交:麦尔坎·X与拳王阿里(台) / 八拜之交:民运领袖与拳王(港) / Blutsbrüder - Malcolm X und Muhammad Ali/生死之交:马尔科姆·X与拳王阿里4k.Blood.Brothers.Malcolm.X.and.Muhammad.Ali.2021.2160p.NF.WEB-DL.x265.10bit.SDR.DDP5.1.Atmos-4k纪录片下载; q' R2 ]+ ~$ M8 L, U2 Y
+ R7 R4 M) \) L. `- B& `
生死之交:马尔科姆·X与拳王阿里4k.Blood.Brothers.Malcolm.X.and.Muhammad.Ali.2021.2160p.NF.WEB-DL.x265.10bit.SDR.DDP5.1.Atmos-简繁中字【11.71 GB】4 u- V( ]" b* [, [3 s& f
: s% K5 Z- w" l, r. P6 ~$ w$ V: h
/ |7 T7 T$ E) W+ a
生死之交:马尔科姆·X与拳王阿里4k.Blood.Brothers.Malcolm.X.and.Muhammad.Ali.2021.2160p.NF.WEB-DL.x265.10bit.HDR.DDP5.1.Atmos-简繁中字【10.19 GB】8 K8 O: @9 B% G9 [% d2 t

2 Q% s# z# r) a! _! q3 w; a3 t( @/ E# }4 i3 J
生死之交:马尔科姆·X与拳王阿里4k.Blood.Brothers.Malcolm.X.and.Muhammad.Ali.2021.2160p.NF.WEB-DL.DDP5.1.Atmos.DV.MP4.x265-简繁中字【杜比视界】【10.64 GB】
. [6 D/ k, Y& b$ B2 t
3 @3 C, ^9 W  ?7 H) [4 U6 t: l4 D- |! D! Y% U: |$ H
生死之交:马尔科姆·X与拳王阿里4k.Blood.Brothers.Malcolm.X.and.Muhammad.Ali.2021.2160p.NF.WEB-DL.DDP5.1.Atmos.DV.MKV.x265-简繁中字【杜比视界】【10.64 GB】
8 G' i2 l1 k8 ]! B* G- F" B
8 O, F, u# i0 n  j/ ^7 E6 h

/ i6 C" K9 g' _- e" k7 _; f8 C9 F( Y8 G2 \/ r& N
) H1 q* x2 O, A/ F4 @
/ S9 O) M8 m# Z  X
登录 发布 快速回复 返回顶部 返回列表