开启辅助访问
 找回密码
 立即注册

荷里活套路大搜查(港) / 好莱坞老梗大集合(台)/好莱坞俗套大吐槽4k.Attack.of.the.Hollywood.Cliches.2021.2160p.NF.WEB-DL.x265.10bit.SDR.DDP5.1-纪录片

#4k记录视频#时间:2023-04-28 阅读:158 回复:0

8 S$ t+ J" v/ m7 X3 L0 F0 T 110602xvma02uae50hwctw.jpg.jpg 8 C7 T5 j& c0 T5 N

' o( c1 q% M* F! i$ y0 @) _& N! _1 x7 c0 u) i
简       介
) H: ~( o* n! M

5 ^5 p) K( _+ Q$ ~  顾名思义将分析吐槽多年来好莱坞影视里的各种套路,比如坏人的设定(总有迷惑台词)、床戏怎么拍(镜头切到门外风雨)、表现人物吃惊必有喷饮料、威廉尖叫、遇事不决蒙太奇……罗伯·劳主持,安德鲁·加菲尔德、安迪·麦克道威尔、弗洛伦丝·皮尤、马克·斯特朗、理查德·E·格兰特、桑吉夫·巴哈斯卡、卢卡斯兄弟等人担任嘉宾,cue到的包括《泰坦尼克号》《阿甘正传》《独立日》《沉默的羔羊》等不少经典名片。
8 R3 w( K" `5 p1 F6 V$ M  f6 z
# W5 A  _5 r; L+ l* a影片参数
好莱坞套路来袭! / 荷里活套路大搜查(港) / 好莱坞老梗大集合(台)/好莱坞俗套大吐槽4k.Attack.of.the.Hollywood.Cliches.2021.2160p.NF.WEB-DL.x265.10bit.SDR.DDP5.1-纪录片信息
- q: y4 E* c7 D6 @  eVideo
& e1 w# A1 D. r& u! n1 aID : 1/ m& y% m9 x" D0 i- @. p
Format : HEVC
" C5 F1 c- a7 b) RFormat/Info : High Efficiency Video Coding% \7 z' J; J$ N* Y
Format profile : Main 10@L5@Main
5 o+ S; ?9 u# n+ {6 Q3 H- iCodec ID : V_MPEGH/ISO/HEVC, [. a# G0 K2 ]$ W) H4 z
Duration : 58 min 17 s. e6 t% ]) j3 j
Bit rate : 16.5 Mb/s, @: Q$ q/ f, A( l# I
Width : 3 840 pixels
' H8 R4 }7 X7 XHeight : 2 160 pixels! n0 v" q, q; S3 {
Display aspect ratio : 16:9
3 ]5 R2 E( i9 L5 g9 d  a- bFrame rate mode : Constant4 ?* L) X+ ]4 b& M: H. t- ~' C* R, m: H1 v
Frame rate : 24.000 FPS
  |; K5 K. n  j8 `  y, EColor space : YUV% u. F" `+ ?+ X. ^0 E) l
Chroma subsampling : 4:2:0( Y, _- C, v4 b6 H/ {
Bit depth : 10 bits
1 n" A2 J3 I3 y8 S  X+ bBits/(Pixel*Frame) : 0.0836 S8 ?, P5 ~0 b; L
Stream size : 6.72 GiB (96%)
% |  U4 f6 p, w# Q4 @2 NLanguage : English
4 q0 c. o6 B8 i& J  RDefault : Yes
, S; K0 E1 I% W) O( F+ IForced : No/ e7 R2 `! a4 Z8 P5 z( l
Color range : Limited
- f, j; t% C) V, FColor primaries : BT.709  x3 E  c4 S2 b' d/ w+ n
Transfer characteristics : BT.7097 G* Y" K6 ~( g
Matrix coefficients : BT.709
) U# o3 O/ P8 `# P
% |: @# b+ K  ]8 I2 \. P# p

! i" f+ V/ o* b: W9 s& n4 oText #21
) `. y6 U! @' E9 h  hID : 23
8 k1 p: P' z/ e. f5 E: VFormat : UTF-8  ^& I5 O" m0 H2 d/ o8 ~, b9 F  u
Codec ID : S_TEXT/UTF8
6 o) l5 f+ m( B3 w, b3 _Codec ID/Info : UTF-8 Plain Text! L0 h7 C# g* q% I- H2 o" y+ @2 k# G
Duration : 58 min 5 s
+ \) F# |6 G2 Q, sBit rate : 93 b/s
' s. a# G' z7 Z( g, lFrame rate : 0.277 FPS& U; G5 o. x9 T6 K1 g
Count of elements : 966# F# N1 V( h5 z) j' Y. R3 j; j! J5 E" ~
Stream size : 39.7 KiB (0%)
+ b( I7 S6 o. D" m$ T. hLanguage : Dutch
8 x$ I' Z( S3 H) oDefault : No
( X0 {- j- F( s3 G+ h3 i4 yForced : No# ~+ ~1 l6 R1 a
/ e: I- b* a  n" Y+ v
" D# s: {: c" A5 g
Text #225 k& P% ~/ L, @% d# r$ I6 _& P
ID : 24
% n4 v9 W3 l+ J# xFormat : UTF-8
& K3 O5 X/ m9 x. U7 B  _Codec ID : S_TEXT/UTF8
' L9 M" |2 W2 e6 g0 ?1 B% J1 _Codec ID/Info : UTF-8 Plain Text+ _8 Y, y5 k6 Z. E/ j
Duration : 58 min 5 s
$ E* o2 L3 ?% lBit rate : 110 b/s
9 B. U( A! F' p7 S9 ?( ]4 sFrame rate : 0.319 FPS5 I- e3 r. J  Q  H
Count of elements : 1113. }, O; D. i% V, Y
Stream size : 47.0 KiB (0%)" D1 z7 [4 S0 X3 g2 ?! X
Language : Polish# y; w3 K/ u! `2 E( c, I
Default : No5 f  M/ M: ~  ~3 B
Forced : No
$ }) m6 a, A; G6 u
' ?" h! Z3 [: j0 B9 G

% w: J7 i1 W  RText #23* l* ^9 d: G9 H$ {9 S
ID : 25
* O$ r# v  @, S4 RFormat : UTF-8: s* U$ X( E$ ]' L* N: k
Codec ID : S_TEXT/UTF8
5 Y: n. A0 w' \8 vCodec ID/Info : UTF-8 Plain Text, o1 q, ^: P9 n+ Y+ {
Duration : 58 min 5 s3 J% [# L. U- Y) ~1 E5 ~1 _% `
Bit rate : 113 b/s* {: ^8 x* Z3 f% v
Frame rate : 0.307 FPS! K3 S1 z( ~8 x, t9 P4 v( c" P  i
Count of elements : 1069
+ C; z4 U* k5 K! ]0 J- GStream size : 48.5 KiB (0%)% M' w! o* ?- g' a- r
Title : Brazilian
" G% m; m% ]& n) u, H  |0 v( PLanguage : Portuguese- v7 H" f/ H7 B) D+ R0 R
Default : No
' g6 M, n+ ~+ E, n! XForced : No+ m" Z, _$ I: ~2 J* m2 r4 G
5 A* i' C( q0 z( g! l( O5 ~

+ V; Q6 G# @" B# ?. TText #249 z( D( o" F! k9 K3 Z# _( u1 t
ID : 26
) S) R) n5 b* q+ S' Z; JFormat : UTF-8
6 ~; D# O6 v. s$ M  ~% g7 bCodec ID : S_TEXT/UTF87 w  c  Q$ }- p2 Z$ _
Codec ID/Info : UTF-8 Plain Text
/ g3 ?4 ]& r5 x1 w# _, e2 J# N" nDuration : 58 min 5 s
. h1 }: y# S' l  L9 YBit rate : 112 b/s
- u; ?/ @% I9 y9 @; [: iFrame rate : 0.317 FPS1 D+ Y. V- S! i2 |* r/ S. ~, D$ I
Count of elements : 11055 l% L7 [: b' ^7 _: L) T6 t
Stream size : 48.1 KiB (0%)
" t: {7 Z  ]( S7 oLanguage : Portuguese1 Z, r, h) G, l9 [
Default : No/ s. F+ v0 y; P' y/ P  U* t* w
Forced : No: l2 h. I/ X" {1 X  C
7 U6 A0 W+ |% N7 A$ t1 f$ s% S
+ Y) P9 ^* q7 c
Text #25
% I4 x0 O! t% H7 e/ x. H0 xID : 27' G" O2 ?4 {- b: C. t; @5 d0 T
Format : UTF-86 B; p9 P* x; B+ A9 W5 x8 Z
Codec ID : S_TEXT/UTF8% f2 L' N$ k1 u$ F) `9 t
Codec ID/Info : UTF-8 Plain Text3 R% l- W) N7 d# a* P0 Y# V( \+ o/ |
Duration : 58 min 5 s
2 Z3 {- n6 B/ e7 O7 ^# @! j+ ^Bit rate : 126 b/s
# f# N* e% S8 a8 qFrame rate : 0.318 FPS6 R0 I( Q( R2 J" C$ q: F& X
Count of elements : 1108
, k1 s; }# N& X$ ^- T/ Q' xStream size : 54.0 KiB (0%)
( f* k$ f0 u6 `9 e) T" l5 o, xLanguage : Romanian2 V- c) v4 v. O; Z* ^
Default : No
0 W( q, B; A8 \1 ~8 B3 l  s; v* ]9 hForced : No5 F1 m' t; d4 z; C1 x# |. y

5 U+ i& @$ f  G2 i8 |3 G

' X, x5 g: L7 o3 l' l2 _# F  n' ^Text #26
7 X+ r; s' N; ?% V: b7 K; BID : 28+ F: j3 u; x4 f$ D8 }6 I
Format : UTF-87 k9 r" m) ]6 Q0 R+ B5 L
Codec ID : S_TEXT/UTF8
+ I; z' M( M$ J  l: j* g. E5 lCodec ID/Info : UTF-8 Plain Text
, h& x1 K) W; K3 I6 Q, zDuration : 58 min 5 s% n) O& W2 R7 P$ m
Bit rate : 183 b/s3 T0 Q8 ]  m5 B% V, g9 M* U  G
Frame rate : 0.319 FPS
# e1 `4 l- s1 i* bCount of elements : 1111
, J2 K1 O2 f* O4 U3 X2 H- l6 N! f6 fStream size : 77.9 KiB (0%)
6 m% a+ Y. L  M; r5 CLanguage : Russian
# L8 m7 M0 G+ P1 T# M5 d2 p  gDefault : No
+ n0 e/ B! s$ LForced : No
1 |$ S/ y$ \  q: O( `: a
- _4 D# u8 P1 V+ X5 D) A

2 V) x) ]( ~  GText #27
! X4 W( j+ g/ LID : 29/ H  K" n! b) V. A' U
Format : UTF-8& W6 E. A; `" D, T
Codec ID : S_TEXT/UTF8
6 t/ ?. m, C; ~- ]Codec ID/Info : UTF-8 Plain Text
( `9 A' z7 s( I8 F, @- mDuration : 58 min 5 s! [0 Q* j' y! Q/ _: M  j" F
Bit rate : 110 b/s) u+ ?& \1 D; N) _9 K6 Y' }5 _
Frame rate : 0.275 FPS( A1 H# ^) h6 P2 O
Count of elements : 959
5 i8 h  I+ U! mStream size : 47.1 KiB (0%)
# Q% }9 ?* w* X1 _Language : Swedish
2 s  @7 P  G9 i; q! SDefault : No4 v2 D2 `1 g, D7 d5 C, x3 Y" y
Forced : No# p7 c' X" P6 a/ o4 p2 E: z
  t1 q5 V& ]5 ^, k8 K$ P5 n

9 ]4 `6 ^  R/ y' X1 YText #281 |+ S: U. `. a) b
ID : 30
2 Z" F9 x6 N/ n- i" J( A/ oFormat : UTF-8
7 d8 R( r7 I6 I/ rCodec ID : S_TEXT/UTF8* a" g& \. s  e
Codec ID/Info : UTF-8 Plain Text
- N# m9 s% ]4 ^5 JDuration : 58 min 5 s) B/ ?$ N, ^$ ^  `& _
Bit rate : 274 b/s! u$ |4 @3 z: n: n1 y
Frame rate : 0.323 FPS! p3 p2 |& v' {1 W1 S! b8 B
Count of elements : 1127
& w7 l% t3 C0 |$ M# ~) \4 o( MStream size : 117 KiB (0%)6 x! R3 A  v9 g  }* I) L
Language : Thai4 S, o0 v% U3 {( l! V* p
Default : No
! _% l8 a( Z* {  r5 P" ]Forced : No% n$ b% I. e# E6 {$ |. ?5 P
0 h8 j! e3 V% _; H

8 r( g7 `4 ]9 T" G& U& x1 uText #29
3 V4 }6 R) \( ~. y8 pID : 316 O' m' D% G: \, d& @
Format : UTF-8
2 d0 H  ?1 n( m" `  X* dCodec ID : S_TEXT/UTF8$ B& x( O/ Y9 D8 M! p" Z! D
Codec ID/Info : UTF-8 Plain Text
0 ?6 m, u& m' DDuration : 58 min 5 s
* r3 a  j  e7 EBit rate : 117 b/s
9 v  `$ Y1 m* |6 bFrame rate : 0.320 FPS
' Y; s5 e% g8 r2 [6 A; q4 e; F1 GCount of elements : 1115
; \4 d) ?3 ?1 D" iStream size : 50.2 KiB (0%)4 i9 n( _: t1 q4 a4 ]
Language : Turkish
' L* A; S5 c, M/ F8 pDefault : No
4 W$ r( G; X  r0 [1 CForced : No
! N1 o' O, i, _, f2 ]) ^+ e
2 v* U( \7 n! V4 z6 Q
8 Y; Y, t0 g' g0 S: l& _3 I
Text #30' E" [8 j( s! L2 `! l, c
ID : 32+ X2 @" x( R. k* |
Format : UTF-8
1 m9 w  i; b3 ^( r3 m" r7 L5 S" Y- V2 ]5 OCodec ID : S_TEXT/UTF8
$ A: }$ T) ^7 @$ K7 L% xCodec ID/Info : UTF-8 Plain Text, }/ a. E( W9 C: g: j3 x# O
Duration : 58 min 5 s* T; m3 d: }2 J. O# F* I5 p& S2 z
Bit rate : 178 b/s
# y4 i4 D+ F0 b  b4 _# ?" fFrame rate : 0.323 FPS
! @2 e3 E" X3 M* `4 hCount of elements : 1127* K1 r9 u7 M5 v
Stream size : 75.9 KiB (0%)
) u& {) L6 S3 KLanguage : Ukrainian2 R9 k+ V. }- ~6 N: z5 l3 G
Default : No3 l" h9 o9 p$ k0 g3 d
Forced : No( _' a) B" N' I9 c( H  i; ~) _
! q; C3 g  J2 B/ b! X8 w

: D  h* L# ~. c* t+ f" b! s' jText #31
8 d. I  }5 o* {+ xID : 33" q- D6 Q/ E% \/ s6 O
Format : UTF-8
+ |) Q. z6 F8 t& h* z- V) `Codec ID : S_TEXT/UTF8
% N. @8 x. `8 T# t% e8 oCodec ID/Info : UTF-8 Plain Text, F9 o- S0 p5 w" q
Duration : 58 min 5 s
% N" ^9 b9 p& b3 m: U: xBit rate : 157 b/s' d  V* s" ?; a: w
Frame rate : 0.318 FPS
' X- p5 c; ~0 B& _6 s7 KCount of elements : 1108
# j  K# F4 b+ R. {Stream size : 66.9 KiB (0%)+ P- X5 Z$ O* M- I9 L
Language : Vietnamese
( U! q( W; d# M5 d! A& A, vDefault : No9 W0 j/ ^+ `$ s+ J( b
Forced : No+ }+ a  u% a! l4 m7 z
( {, t; P" q' K+ A# m; U2 ^
+ b' M: D' b) C+ M2 l9 |& K; ^7 M
Text #326 ^$ P2 r( X, ]: s! Y
ID : 34) a. y( l( X3 m' r
Format : UTF-8
. Y8 D2 K) C5 K9 q* G0 KCodec ID : S_TEXT/UTF8
( r$ q+ G. S: vCodec ID/Info : UTF-8 Plain Text
% t0 m9 o5 i2 Y6 @Duration : 58 min 5 s3 E0 z* m, ~/ R' x, \! L  f4 Y
Bit rate : 107 b/s
! b. H. ]0 Z" d, U! x- bFrame rate : 0.326 FPS* P% T. g, [# j5 ~  C8 \) ~
Count of elements : 1137
$ R: d, \/ m- tStream size : 45.7 KiB (0%)% ^  T) Y, j0 t' t; i2 Z+ [- y7 Q
Title : Simplified
, Z, t2 R2 h4 y4 v# u: L1 ELanguage : Chinese
! W& U; g. R5 P2 \" |Default : No
5 x: ?2 i& `  `. b& L" ?Forced : No
& I8 P" G( j# L- W  q4 k- _% y
# i8 x/ E5 E$ l$ H1 ?5 K5 M7 ]
6 H* q* z4 F; L6 ?# z% z2 c
Text #338 q4 P/ `( X, i. v
ID : 35, H6 Z2 Q- g7 r
Format : UTF-87 O8 R/ g/ ^! x* r
Codec ID : S_TEXT/UTF80 x- m9 b2 d- Q$ G, o4 I' P6 `7 i
Codec ID/Info : UTF-8 Plain Text! d( o% R% ]8 X) A5 t$ S. e1 J$ n
Duration : 58 min 5 s* M5 l% k3 {# }# R' v
Bit rate : 104 b/s
: F6 Z  B0 S5 W8 cFrame rate : 0.334 FPS! P" w' {+ ?0 n9 |( \8 H
Count of elements : 1165* A( L& g7 w) {. P: m
Stream size : 44.4 KiB (0%)
/ i" t% L; }8 x; FTitle : Traditional
9 z* ]7 e# d7 P) s  ]2 |% @Language : Chinese
" I. H+ u: @" ?; ^. L4 XDefault : No! u$ @% P9 v: g
Forced : No7 W& e. s' J( U7 _9 k; m! X

% O3 \; `  v  M7 q

/ w. z9 h9 J& C' ]4 p5 B- R& yMenu, K0 O( l( ^! p& n
00:57:21.000 : en:End Credits
- O& M$ U5 i4 e( r8 @% I复制代码

: A* e. v* y; @; ], u' I, w  p) j' a( z
好莱坞套路来袭! / 荷里活套路大搜查(港) / 好莱坞老梗大集合(台)/好莱坞俗套大吐槽4k.Attack.of.the.Hollywood.Cliches.2021.2160p.NF.WEB-DL.x265.10bit.SDR.DDP5.1-纪录片下载
6 ?* ?/ b7 G  @& S/ f  f, j# ?. @. X- [1 u5 w9 Z. @6 Y
好莱坞俗套大吐槽4k.Attack.of.the.Hollywood.Cliches.2021.2160p.NF.WEB-DL.x265.10bit.SDR.DDP5.1-简繁中字【6.98 GB】& o% c% _3 b' E  O# s3 e9 N$ e+ K
4 _1 D' e8 y" k6 C
8 c$ S; k3 u& i* s  d
! e( v- i1 T7 T
% Z& C2 K* H2 n8 P5 l& G/ {' d
: t2 U( v8 G% }0 S% p: a
登录 发布 快速回复 返回顶部 返回列表