开启辅助访问
 找回密码
 立即注册

Dio.Dreamers.Never.Die.2022.2160p.WEB-DL.x265.8bit.SDR.DD5.1-纪录片

#4k记录视频#时间:2023-04-28 阅读:320 回复:0
* p  L7 E1 d$ U' Y
133131ua52162fa61lfa6w.jpg.jpg 0 Q% o  }! B8 Z8 u! y' ~3 E( K

/ z: B% O5 n) j! Q8 q9 A
+ [8 K6 y5 D2 ?: S% r" G' k简       介
) N" n% i/ g! a
. ~  F- {3 |; }
       罗尼·詹姆斯·迪奥(Ronnie James Dio)是一部跨越职业生涯的重金属传奇纪录片。( G5 T7 l2 [+ U# X: a$ ]9 P

; F* C; s, k/ M影片参数
Dio.Dreamers.Never.Die.2022.2160p.WEB-DL.x265.8bit.SDR.DD5.1-纪录片信息
4 C' }  Y' C! g- U# RVideo7 ~* C7 S) t6 v# @+ `. L- G
ID : 1
% ^5 ?/ ~: q  O) E, iFormat : HEVC0 L: s4 J9 N# p- W0 u# A$ f" x
Format/Info : High Efficiency Video Coding
- h4 W( F7 u$ ]2 l. @& O1 M9 XFormat profile : Main@L5@Main1 g3 F  V: s& N7 }% p% ]
Codec ID : V_MPEGH/ISO/HEVC4 Q6 \# ?9 g9 S$ a
Duration : 1 h 55 min
: C! p% {# k/ U6 r! pBit rate : 14.9 Mb/s
: u3 d3 Q  q; c5 S; K8 t) D( X! {1 z2 mWidth : 3 840 pixels
: R9 f3 Z: P! s5 v6 g8 F5 O! u, VHeight : 2 160 pixels6 ^  z: ?$ l& x6 S
Display aspect ratio : 16:9
' a4 Y5 t/ x$ _$ L. L9 U8 nFrame rate mode : Constant+ r% i/ Z) A* \) _& w
Frame rate : 23.976 (24000/1001) FPS: _' ~$ H) v1 B4 Q3 }9 h) S
Color space : YUV
' W: t0 k  Q! p9 g+ V/ |/ ?- l7 UChroma subsampling : 4:2:0
+ }4 o. m3 U6 a3 W4 jBit depth : 8 bits! E* y' P6 N4 t; O+ q
Bits/(Pixel*Frame) : 0.075: z) M$ M/ X0 r5 v6 Z
Stream size : 12.1 GiB (97%)6 {: z3 L, ^( ?0 U1 T0 n
Writing library : x265 3.5hy:[Linux][GCC 7.5.0][64 bit] 8bit/ G$ S  \% i- ~4 a8 g
Encoding settings : cpuid=1111039 / frame-threads=2 / wpp / no-pmode / no-pme / no-psnr / no-ssim / log-level=2 / input-csp=1 / input-res=3840x2160 / interlace=0 / total-frames=0 / level-idc=0 / high-tier=1 / uhd-bd=0 / ref=4 / no-allow-non-conformance / repeat-headers / annexb / aud / hrd / info / hash=0 / no-temporal-layers / no-open-gop / min-keyint=48 / keyint=48 / gop-lookahead=0 / bframes=4 / b-adapt=2 / b-pyramid / bframe-bias=0 / rc-lookahead=48 / lookahead-slices=4 / scenecut=0 / hist-scenecut=0 / radl=0 / no-splice / no-intra-refresh / ctu=64 / min-cu-size=8 / rect / no-amp / max-tu-size=32 / tu-inter-depth=1 / tu-intra-depth=1 / limit-tu=0 / rdoq-level=2 / dynamic-rd=0.00 / no-ssim-rd / signhide / no-tskip / nr-intra=100 / nr-inter=200 / no-constrained-intra / strong-intra-smoothing / max-merge=3 / limit-refs=3 / limit-modes / me=3 / subme=3 / merange=57 / temporal-mvp / no-frame-dup / no-hme / weightp / no-weightb / no-analyze-src-pics / deblock=0:0 / no-sao / no-sao-non-deblock / rd=4 / selective-sao=0 / no-early-skip / no-rskip / no-fast-intra / no-tskip-fast / no-cu-lossless / no-b-intra / no-splitrd-skip / rdpenalty=0 / psy-rd=0.00 / psy-rdoq=10.00 / no-rd-refine / no-lossless / cbqpoffs=0 / crqpoffs=0 / rc=abr / bitrate=15000 / qcomp=0.60 / qpstep=1 / stats-write=0 / stats-read=2 / cplxblur=20.0 / qblur=0.5 / vbv-maxrate=18000 / vbv-bufsize=12000 / vbv-init=0.6 / min-vbv-fullness=50.0 / max-vbv-fullness=80.0 / vbv-end=0.6 / vbv-end-fr-adj=0.0 / ipratio=1.10 / pbratio=1.00 / aq-mode=0 / aq-strength=0.00 / no-cutree / zone-count=0 / no-strict-cbr / qg-size=32 / rc-grain / qpmax=69 / qpmin=0 / const-vbv / sar=0 / overscan=0 / videoformat=5 / range=0 / colorprim=1 / transfer=1 / colormatrix=1 / chromaloc=0 / display-window=0 / cll=0,0 / min-luma=0 / max-luma=255 / log2-max-poc-lsb=8 / vui-timing-info / vui-hrd-info / no-concatenation / slices=1 / no-opt-qp-pps / no-opt-ref-list-length-pps / no-multi-pass-opt-rps / scenecut-bias=0.05 / hist-threshold=0.03 / no-opt-cu-delta-qp / no-aq-motion / no-hdr10 / no-hdr10-opt / no-dhdr10-opt / no-idr-recovery-sei / analysis-reuse-level=0 / analysis-save-reuse-level=0 / analysis-load-reuse-level=0 / scale-factor=0 / refine-intra=0 / refine-inter=0 / refine-mv=1 / refine-ctu-distortion=0 / no-limit-sao / ctu-info=0 / no-lowpass-dct / refine-analysis-type=0 / copy-pic=1 / max-ausize-factor=1.0 / no-dynamic-refine / no-single-sei / no-hevc-aq / no-svt / no-field / qp-adaptation-range=1.00 / scenecut-aware-qp=0conformance-window-offsets / right=0 / bottom=0 / decoder-max-rate=0 / no-vbv-live-multi-pass
. J; b( h; d6 J1 c9 A' s  wLanguage : English! q9 g6 }% a+ }% e& }2 u& f
Default : Yes
. _+ ~/ m) x$ O8 Z- f( nForced : No# _6 _) Y. }! D' o5 m
Color range : Limited
, u) T, D7 R; h) w! M" \Color primaries : BT.709# U8 ~' y: y: C/ @
Transfer characteristics : BT.709! k; \, L$ F4 G' f4 o
Matrix coefficients : BT.709/ C8 d, b. }( F$ p4 w# H0 U' T/ V
" W, p/ e( c1 v! }0 G/ Q
6 m4 X. ~: e# k" i
Audio
0 h5 V) b' u6 F2 }& DID : 2$ H. s0 S" x# x& [' l' Z" b: D1 E2 Q
Format : AC-3- `$ I! a9 M% R2 W" Z: t- q" u
Format/Info : Audio Coding 33 S$ K5 W# Q: p! d  W
Commercial name : Dolby Digital) y2 P1 u' a& N  d; a# o- t7 |) r
Codec ID : A_AC3
4 y. w. B2 U9 M- z1 D- b/ b6 lDuration : 1 h 55 min; H0 T: P7 \* U
Bit rate mode : Constant
% _* m0 q* ^2 r+ GBit rate : 384 kb/s. J& I( v. F" ?6 u8 }
Channel(s) : 6 channels& m- N( b  @7 T, }; J
Channel layout : L R C LFE Ls Rs) Q5 f, {; m9 A; U# ^
Sampling rate : 48.0 kHz
5 e( \, L$ p, X6 A2 U0 C# WFrame rate : 31.250 FPS (1536 SPF)' v0 f- M6 z  V; X5 M) L5 Z
Compression mode : Lossy# |: }  n- _: m! Y3 U+ A
Stream size : 318 MiB (3%)
6 [- |8 L$ }: N; L4 S, FTitle : English
1 f. I% @' {3 i0 w- |. x  tLanguage : English# T5 U5 T2 t6 b3 _
Service kind : Complete Main, X+ e0 b& s( ]  w" I2 b6 F$ ^6 m' Y; B5 I) H
Default : Yes
0 x% J0 H( f6 mForced : No" y; ^1 d$ R. ]( m0 K' U; h
6 r5 \8 G2 v8 Z* F# I. R/ {9 \8 k

$ u/ U; _+ v# d; GText2 C. z0 R+ x. i+ N' K
ID : 3  o: S5 \$ S* \5 S6 N6 s$ |
Format : UTF-8
- x1 c' P6 E9 J- ]+ |" DCodec ID : S_TEXT/UTF8
) T" m6 L( b) c% l) ZCodec ID/Info : UTF-8 Plain Text' D1 k$ E- [9 Y. e1 [
Duration : 1 h 55 min
9 z% K) `( a! X" T  T4 sBit rate : 107 b/s  U' S: K% S. v5 D( w
Frame rate : 0.352 FPS- X0 w) `% S/ N) Q- h" c! A
Count of elements : 2435
' |4 A7 o  M/ y3 r" JStream size : 90.9 KiB (0%)1 r7 d$ p. |* \  S
Title : English (SDH)
* n+ x: `' [' W. [; w: M- |Language : English
3 P5 v! u1 o5 c0 o& bDefault : No
2 o) ~+ _( Q* v  O! kForced : No

7 U  {5 f. m, U. a) s/ B' `& k4k收藏网提示您 点击下方附件名称 即可开始下载% ~1 O& n2 m- \) F, r# }
/ Z2 u5 x# J+ ^$ P8 S8 z
Dio.Dreamers.Never.Die.2022.2160p.WEB-DL.x265.8bit.SDR.DD5.1-纪录片下载' A& ^& v7 g, o+ D# `" y6 Y' \' \- ~- v

. ^0 N' k- h& |$ H& Q* x+ _Dio.Dreamers.Never.Die.2022.2160p.WEB-DL.x265.8bit.SDR.DD5.1【12.38 GB】
4 M6 [' c$ R8 x$ K3 c% |- J' P

Dio.Dreamers.Never.Die.2022.2160p.WEB-DL.x265.8bit.SDR.DD5.1-OPUS.torrent ( 16.18 KB )

4 W% M+ H1 v; B

" f% l/ k( f6 {: ^) a. ~% E5 P$ p, l  q( U1 V- U9 D
9 e6 L, I$ C# S5 O. h5 Y

  g" q* j" @+ \
登录 发布 快速回复 返回顶部 返回列表