开启辅助访问
 找回密码
 立即注册

Dio.Dreamers.Never.Die.2022.2160p.WEB-DL.x265.8bit.SDR.DD5.1-纪录片

#4k记录视频#时间:2023-04-28 阅读:239 回复:0

+ w0 ]2 n9 c2 u# c' e) y 133131ua52162fa61lfa6w.jpg.jpg
, }9 S$ x1 S6 p( T, `! `. Q
5 D; g" q0 Q( s2 h
0 I, H) g  ?$ |, E8 |2 R; z3 A简       介
$ A- C7 ~6 ?( P, Z1 T1 w6 Z! N, e
) c# ^8 ~: @7 p* I
       罗尼·詹姆斯·迪奥(Ronnie James Dio)是一部跨越职业生涯的重金属传奇纪录片。
5 |2 p& q6 i$ y2 a1 v8 b" x( k( k0 L+ b  `
影片参数
Dio.Dreamers.Never.Die.2022.2160p.WEB-DL.x265.8bit.SDR.DD5.1-纪录片信息5 S& ]- ^4 Y2 f& z2 I6 m) {
Video
* h/ Q. t# f& h! Z0 tID : 1
1 J5 `8 `+ S% m' rFormat : HEVC/ f  ]/ ?, J) H7 z& ?
Format/Info : High Efficiency Video Coding, J6 \% [6 o5 B2 \: S, M7 u
Format profile : Main@L5@Main
" C1 d* @: l' l/ k8 e1 h5 ]Codec ID : V_MPEGH/ISO/HEVC+ m& M3 K6 R; \8 F- o
Duration : 1 h 55 min
7 b/ Y! m9 N0 J: r7 bBit rate : 14.9 Mb/s4 i; X6 v- V2 O$ O$ e
Width : 3 840 pixels# M) K! q8 ^; `5 A, K! C5 l
Height : 2 160 pixels" Q! M# g9 f7 C, Y! l: d
Display aspect ratio : 16:9; E6 F5 r4 ]$ O$ U; x/ |2 c
Frame rate mode : Constant
" \0 g4 \: W& D, d9 M' fFrame rate : 23.976 (24000/1001) FPS
4 a7 m: B( M, H1 P: h$ s$ ZColor space : YUV
0 W# i3 _0 M! w1 E8 L8 EChroma subsampling : 4:2:0
5 u/ _0 I, ^- D" a+ eBit depth : 8 bits
$ J+ ?; Q) `" D6 fBits/(Pixel*Frame) : 0.075
# c7 `* ^7 S. y! z# t1 S7 QStream size : 12.1 GiB (97%)
/ z3 M/ j0 b- M, E6 I3 i/ h2 y2 O5 eWriting library : x265 3.5hy:[Linux][GCC 7.5.0][64 bit] 8bit
8 j; R& \6 x  N& E' v9 i* h4 eEncoding settings : cpuid=1111039 / frame-threads=2 / wpp / no-pmode / no-pme / no-psnr / no-ssim / log-level=2 / input-csp=1 / input-res=3840x2160 / interlace=0 / total-frames=0 / level-idc=0 / high-tier=1 / uhd-bd=0 / ref=4 / no-allow-non-conformance / repeat-headers / annexb / aud / hrd / info / hash=0 / no-temporal-layers / no-open-gop / min-keyint=48 / keyint=48 / gop-lookahead=0 / bframes=4 / b-adapt=2 / b-pyramid / bframe-bias=0 / rc-lookahead=48 / lookahead-slices=4 / scenecut=0 / hist-scenecut=0 / radl=0 / no-splice / no-intra-refresh / ctu=64 / min-cu-size=8 / rect / no-amp / max-tu-size=32 / tu-inter-depth=1 / tu-intra-depth=1 / limit-tu=0 / rdoq-level=2 / dynamic-rd=0.00 / no-ssim-rd / signhide / no-tskip / nr-intra=100 / nr-inter=200 / no-constrained-intra / strong-intra-smoothing / max-merge=3 / limit-refs=3 / limit-modes / me=3 / subme=3 / merange=57 / temporal-mvp / no-frame-dup / no-hme / weightp / no-weightb / no-analyze-src-pics / deblock=0:0 / no-sao / no-sao-non-deblock / rd=4 / selective-sao=0 / no-early-skip / no-rskip / no-fast-intra / no-tskip-fast / no-cu-lossless / no-b-intra / no-splitrd-skip / rdpenalty=0 / psy-rd=0.00 / psy-rdoq=10.00 / no-rd-refine / no-lossless / cbqpoffs=0 / crqpoffs=0 / rc=abr / bitrate=15000 / qcomp=0.60 / qpstep=1 / stats-write=0 / stats-read=2 / cplxblur=20.0 / qblur=0.5 / vbv-maxrate=18000 / vbv-bufsize=12000 / vbv-init=0.6 / min-vbv-fullness=50.0 / max-vbv-fullness=80.0 / vbv-end=0.6 / vbv-end-fr-adj=0.0 / ipratio=1.10 / pbratio=1.00 / aq-mode=0 / aq-strength=0.00 / no-cutree / zone-count=0 / no-strict-cbr / qg-size=32 / rc-grain / qpmax=69 / qpmin=0 / const-vbv / sar=0 / overscan=0 / videoformat=5 / range=0 / colorprim=1 / transfer=1 / colormatrix=1 / chromaloc=0 / display-window=0 / cll=0,0 / min-luma=0 / max-luma=255 / log2-max-poc-lsb=8 / vui-timing-info / vui-hrd-info / no-concatenation / slices=1 / no-opt-qp-pps / no-opt-ref-list-length-pps / no-multi-pass-opt-rps / scenecut-bias=0.05 / hist-threshold=0.03 / no-opt-cu-delta-qp / no-aq-motion / no-hdr10 / no-hdr10-opt / no-dhdr10-opt / no-idr-recovery-sei / analysis-reuse-level=0 / analysis-save-reuse-level=0 / analysis-load-reuse-level=0 / scale-factor=0 / refine-intra=0 / refine-inter=0 / refine-mv=1 / refine-ctu-distortion=0 / no-limit-sao / ctu-info=0 / no-lowpass-dct / refine-analysis-type=0 / copy-pic=1 / max-ausize-factor=1.0 / no-dynamic-refine / no-single-sei / no-hevc-aq / no-svt / no-field / qp-adaptation-range=1.00 / scenecut-aware-qp=0conformance-window-offsets / right=0 / bottom=0 / decoder-max-rate=0 / no-vbv-live-multi-pass: a: l# @+ p1 j, r* R' P
Language : English: F4 x  O. N) ?4 F
Default : Yes" x: H' ?  r: v
Forced : No8 |4 m, N& X6 L# y
Color range : Limited6 Z5 X6 k% k# c8 k1 F
Color primaries : BT.709
+ y+ z' b4 }  N; ^Transfer characteristics : BT.709
! a3 [0 W* K2 Q% b2 e  tMatrix coefficients : BT.709$ W6 a: D% g" I( p4 @$ c

4 E( `2 _2 O+ b' L! a
1 {& u1 O6 d+ [! j
Audio" g" I8 E: h% a7 |9 s
ID : 2$ ^- P& U8 G: ~
Format : AC-3% w- ~1 d% W' e& {
Format/Info : Audio Coding 3
$ A3 M  y5 h$ }% y  uCommercial name : Dolby Digital2 ~3 `! y; v' ^6 s; T8 m4 k$ d" L5 N
Codec ID : A_AC3! ~2 O, [5 B. e3 A1 k4 A, {
Duration : 1 h 55 min" ?# \  T0 H% g) L! q) d
Bit rate mode : Constant9 f0 e; P: _, S, j
Bit rate : 384 kb/s8 {3 Z* G# @" P) M5 g% j$ O
Channel(s) : 6 channels1 d8 L# ]' H9 h4 Q, v0 y7 m
Channel layout : L R C LFE Ls Rs
+ G2 C! g* V+ v. l- \# A# G; f( T; ?Sampling rate : 48.0 kHz
. l! c  B) O- n9 b* {' \, BFrame rate : 31.250 FPS (1536 SPF)
/ e) b( |6 g4 P0 x1 y3 tCompression mode : Lossy$ ~6 L8 I; |7 {! h- F
Stream size : 318 MiB (3%)
2 H. {% N  Y' RTitle : English* `" q) f- d" L- `. o* e% M
Language : English
+ H& V1 d0 d+ OService kind : Complete Main; J$ K3 D" {9 z, g: I; i
Default : Yes/ W" b7 `+ j' r. ~4 \) F
Forced : No
. n. [$ o5 m1 W8 W) Q: d3 R9 v/ @) _& `7 k8 E8 r* N: `% D
6 P- R5 v( I; t- J& O8 V4 O4 {
Text
8 V- s) \4 Z* u2 q; F0 xID : 39 A  k# b1 l" S
Format : UTF-8
5 i+ e9 v7 a  W; D! T% VCodec ID : S_TEXT/UTF8$ v/ g+ s4 F8 s9 G8 ?
Codec ID/Info : UTF-8 Plain Text
( s- t- `/ V0 cDuration : 1 h 55 min
" [, K0 S- m8 P# zBit rate : 107 b/s
& M: Q7 h. i- G/ uFrame rate : 0.352 FPS+ A& U0 y* D" ~4 D' a/ m
Count of elements : 24353 E; Z, f& k) ^3 |9 I; h* h
Stream size : 90.9 KiB (0%)! ^9 v  A7 ]0 p. T
Title : English (SDH)
; ]& |! ^# H) Z( m2 T* T( ILanguage : English
' c4 y6 ~6 t  M- G% T+ a0 T) KDefault : No
1 S6 h2 Z3 S! T; t. jForced : No

" _; W7 f( R) o1 ~% B4k收藏网提示您 点击下方附件名称 即可开始下载! i/ N% @, E+ t- \3 G' ~

6 W5 `; ]2 _5 x" H( n. V8 D0 uDio.Dreamers.Never.Die.2022.2160p.WEB-DL.x265.8bit.SDR.DD5.1-纪录片下载3 b3 }% B- G. Z
; b$ V; q. ]9 j: I
Dio.Dreamers.Never.Die.2022.2160p.WEB-DL.x265.8bit.SDR.DD5.1【12.38 GB】
8 q; u. P$ _% ~, {

Dio.Dreamers.Never.Die.2022.2160p.WEB-DL.x265.8bit.SDR.DD5.1-OPUS.torrent ( 16.18 KB )


, f. }7 n' `: O0 h. C
. Q8 r" e& }0 N: v( r  i# e- P8 g9 G/ T3 ~6 _
: i+ J. r( D" U* z- y3 {

# `- W1 m, {+ V
登录 发布 快速回复 返回顶部 返回列表