开启辅助访问
 找回密码
 立即注册

罗诉韦德案:政治博弈/推翻罗诉韦德案4k.Reversing.Roe.2018.2160p.NF.WEB-DL.x265.10bit.HDR.DDP5.1-纪录片

#4k记录视频#时间:2023-04-28 阅读:219 回复:0

) k+ i- u2 a0 O# d6 m+ s 172505ljn6ir46u7gusn7r.jpg.jpg
6 T8 Y# P  J1 o. W& f0 K6 _5 o* r" x( r$ q# v, [6 K

6 S; c6 L$ H% F; {: q2 N" I7 |5 V简       介
9 Z" n' }, [% u) s# }# B8 f
# Q* o  G8 ?# j6 ]
  《Reversing Roe》讲的是美国著名罗诉韦德案。“罗诉韦德案例”给了美国妇女堕胎权,等于承认美国堕胎的合法化。1 P# a, a: O+ V% }" {- W/ X

( m; i. s3 T' h+ e) {影片参数
罗诉韦德案:政治博弈/推翻罗诉韦德案4k.Reversing.Roe.2018.2160p.NF.WEB-DL.x265.10bit.HDR.DDP5.1-纪录片信息. q* }! o) l6 c' v2 a/ @- I$ A
Video
, J2 O" H* b: Y; i3 Q$ pID : 1" `# y  p% @/ y; ]+ c; u* ^
Format : HEVC9 B8 ]6 Q2 [7 ^( |+ h4 Q4 f' Z
Format/Info : High Efficiency Video Coding
* L) f3 a1 R) o" m" Q% e$ T" D1 ^Format profile : Main 10@L5@Main
' C( I$ {8 y& w) q9 WHDR format : Dolby Vision, Version 1.0, dvhe.08.06, BL+RPU, HDR10 compatible / SMPTE ST 2086, HDR10 compatible6 x$ Q/ H( H' H) L
Codec ID : V_MPEGH/ISO/HEVC
/ y# \1 D2 W4 h3 kDuration : 1 h 39 min
8 B/ @9 `- H3 b' t9 S! }Bit rate : 14.4 Mb/s- g, r/ L) S& `% r, A2 l
Width : 3 840 pixels
$ p; A8 l1 V- V% n5 V0 s% wHeight : 2 160 pixels
- o: `0 O* `8 d+ gDisplay aspect ratio : 16:92 X' S" y2 b# h0 o
Frame rate mode : Constant9 @. S& j6 s5 n
Frame rate : 23.976 (24000/1001) FPS
* g& L7 l2 s/ b6 w" tColor space : YUV7 E, `) H  x& T* d6 K3 V
Chroma subsampling : 4:2:0 (Type 2)7 M8 T( `) o6 _' p
Bit depth : 10 bits" F! q# W9 E$ n. `) Q. T
Bits/(Pixel*Frame) : 0.072
6 X2 R+ ?5 b! Q" ^$ u) j" V# bStream size : 10.0 GiB (94%)
! @' f. a' t2 n* C  xDefault : Yes
0 @' k2 F" K4 t6 Q9 Y: z( sForced : No
4 h# a/ g6 d+ f& m2 X) b7 JColor range : Limited6 N0 |3 U4 ^& v# R% r0 z* r/ w
Color primaries : BT.20207 x; E( W! H3 O9 |# w5 w7 O+ j
Transfer characteristics : PQ
3 ^( _8 `5 r) p+ q+ f& MMatrix coefficients : BT.2020 non-constant
& k( }9 @$ o% d$ \/ rMastering display color primaries : Display P3
+ c1 |( [1 L$ b% c: M0 Z; dMastering display luminance : min: 0.0001 cd/m2, max: 1000 cd/m2
6 @9 M/ k3 ~: g( X5 OMaximum Content Light Level : 1997 cd/m2
$ n9 k, R) Q' c) g5 e% |# MMaximum Frame-Average Light Level : 877 cd/m2; W" G2 p, Q% }+ Z

/ s/ Y- ]8 w4 `$ Y6 I

& X* s0 B- C- \) @' i  t+ jAudio" K% h, o3 {! j0 a; l, n* c0 P
ID : 2
, U( o2 |; X) G9 c/ {Format : E-AC-3- }. f- G; `" A, [
Format/Info : Enhanced AC-3
/ f# _% _, |& b$ F9 U( QCommercial name : Dolby Digital Plus
+ J. _2 Z' U9 l6 m! ?) O  t" \9 NCodec ID : A_EAC3! Q! G$ ?. }5 Q* K
Duration : 1 h 39 min
) b0 c+ l# t- `# o; E) Q7 w# sBit rate mode : Constant' P5 q3 ~+ Z/ X% d6 l& [7 u
Bit rate : 640 kb/s
9 B  F, j; G+ S# hChannel(s) : 6 channels
. y: g3 Q3 u* bChannel layout : L R C LFE Ls Rs& K& q4 }: V6 }# `! ^8 G0 h- y
Sampling rate : 48.0 kHz6 |. X3 H! b0 J0 z
Frame rate : 31.250 FPS (1536 SPF); z4 \! B# u" A5 ~6 }+ A
Compression mode : Lossy
0 a, M7 f+ j1 a; UStream size : 456 MiB (4%), V0 l3 r2 B4 Q, S; E- ]0 X
Language : English
) Z9 z- {; [! B% t1 WService kind : Complete Main
! ?" G- q/ y6 M0 j. ?& s% JDefault : Yes+ l6 P: K, W5 o& j0 J
Forced : No' O, y5 h1 d& s8 }
2 T8 h2 p# d7 ?, Y

& e  X6 q  K$ G- }" X/ @3 x7 V' v6 NText #17 N. \0 z2 ~( z/ y& }
ID : 3
- b9 q* y4 L. E6 w. BFormat : UTF-8
. Y; c, h, R3 A; C4 t2 NCodec ID : S_TEXT/UTF8
/ f" f- K# I. U  ]Codec ID/Info : UTF-8 Plain Text* i! [! v. J- s3 V3 g! V5 w5 \. _
Title : Forced  H% E7 s+ x1 b( i2 i. b8 @$ V% r
Language : English
2 h2 A) E# ?8 E! h4 n  H9 z6 M7 C2 y6 @Default : No  u0 x* I- }9 Z) C
Forced : Yes
# h1 J) j/ L% X0 W! m% s# n% u9 e, }, X! o6 ]5 q

! `% k+ ?+ u- s, @Text #2
3 f. S" t: P& K' W9 rID : 4
: {! y- n( }3 j/ M) q) P0 m, x9 ]Format : UTF-8' U0 q& ^* {! `
Codec ID : S_TEXT/UTF8
/ V( `2 `% B4 g- A3 U; p; _Codec ID/Info : UTF-8 Plain Text
6 i' X, w- k+ K. [( U6 B; T! a& wLanguage : English7 b$ \+ i  T. U% D2 x' Z0 M
Default : No
3 J+ k9 ~! t9 [: \Forced : No
9 y7 d0 O7 b1 o7 j2 i4 [
9 X- y* l) [: R
8 T/ P: `: Z+ W  c" g2 X- F
Text #3, r. W3 U1 Y* F- ~, y+ `$ o
ID : 5
4 ?" ^4 W# |- A1 t, kFormat : UTF-8
1 V# t! j' J- v* Y; YCodec ID : S_TEXT/UTF89 X/ H6 v% K8 Q1 H2 Y/ s6 R
Codec ID/Info : UTF-8 Plain Text
( Y! L. r3 K, f+ PTitle : SDH
  m: z1 T$ q: v/ H5 A7 \& {& DLanguage : English  E* V6 ~0 V* G3 g7 C6 ~$ P3 B
Default : No/ R- d1 w5 y0 f+ O) x0 D
Forced : No
1 S) o4 V! [" N' D7 O
+ d! K& s/ \% C) C: N* ~7 G8 k

9 f$ e" E: D, b/ zText #4; s$ r1 _; n% p/ W: X5 ]
ID : 62 g- X9 s6 q0 B# L8 d: z
Format : UTF-8) o: o4 ^5 G# L% J5 \; C
Codec ID : S_TEXT/UTF8
( }$ X4 Q( h* V) V# D; mCodec ID/Info : UTF-8 Plain Text
, f4 i( T2 G& n7 C6 F3 R; T  fLanguage : Arabic9 L& v0 D3 G& a% `" q' E" N
Default : No' Q1 o  ~/ R. T1 J! V! Z0 p" ~
Forced : No% Z9 v8 Y+ s8 @) [* C

' @+ U: z; B' u& \) ~3 |. ~

& B" Y$ X7 x  @9 H4 HText #5
& f) M6 \, j& U4 K* O! ?ID : 7
) k: m; I0 D( `Format : UTF-8
/ P7 v% p* O: i. @Codec ID : S_TEXT/UTF8
) [2 A% R3 A* lCodec ID/Info : UTF-8 Plain Text
$ i" T& p. U* \% ^, {. DTitle : Simplified
: H( ~0 C9 d* J. E" zLanguage : Chinese  v1 O8 O4 |. J% g
Default : No: }/ n8 l' ~4 G) L# O& w# e" H
Forced : No
1 A6 H4 l: b7 y! n0 w2 R# h1 g: r

! [7 d: ^& R1 j. j) dText #60 z3 r0 [. q# F, L2 B
ID : 81 S! Q, M1 e8 ~0 Y$ R$ p0 g
Format : UTF-8
! U+ t) C8 T* e* O/ }5 sCodec ID : S_TEXT/UTF88 n* Q7 Y1 C/ ~- o* f
Codec ID/Info : UTF-8 Plain Text
/ Y0 @  L9 b6 e) x/ `; JTitle : Traditional
% {) K, S8 @; ZLanguage : Chinese
6 G0 Z3 o2 L1 ^8 o+ DDefault : No
/ m: s" J$ R: r5 B3 f0 ^5 `Forced : No

8 W0 p+ }1 t8 o# T: c7 l  a! G9 D5 ~! q$ M! P
" M# d) b4 n+ c& k2 g" d6 m! Y
罗诉韦德案:政治博弈/推翻罗诉韦德案4k.Reversing.Roe.2018.2160p.NF.WEB-DL.x265.10bit.HDR.DDP5.1-纪录片下载" _5 ~' {# ^1 A8 q' L

. ^- e% h' ?8 r" S, E) D5 x% g推翻罗诉韦德案4k.Reversing.Roe.2018.2160p.NF.WEB-DL.x265.10bit.HDR.DDP5.1-简繁中字【杜比视界】【10.67 GB】# L* W6 @% D% e. f8 M

推翻罗诉韦德案4k.Reversing.Roe.2018.2160p.NF.WEB-DL.x265.10bit.HDR.DDP5.1-SiC.torrent ( 13.98 KB )

! t% d& z4 R1 v

& e+ n5 P7 \% {* p9 P0 v8 q" q) z& c* g/ e  f  ]4 G
. |/ z" F( K: i! g( P8 X. J$ t) e/ Y
登录 发布 快速回复 返回顶部 返回列表