开启辅助访问
 找回密码
 立即注册

请服药(港)/药瘾4k.Take.Your.Pills.2018.2160p.NF.WEB-DL.x265.10bit.HDR.DDP5.1-4k电影

#4k记录视频#时间:2023-04-28 阅读:147 回复:0
$ ^; G4 ]7 ?1 m% x5 j% h
175601trxyccok3ob4yrc2.jpg.jpg
7 p: t3 d" f0 d2 r' o
/ T  s/ O# J, B4 |$ l! m# i& G2 `
简       介
' J& v2 z* Z+ ?1 a' P; f' c0 m
$ p* B& f+ ?( X, S, f% i
       实现更多、做更多、做得更多的压力是人的一部分,在Adderall和Ritalin的时代,实现这一点可能与当地药房一样接近。处方兴奋剂不再只是“治疗易激动的孩子”,而是在大学教室、华尔街、硅谷……任何“需要成功”的地方都会变成“一天中没有足够的时间”。但这是有代价的。在富有洞察力的Netflix纪录片《TAKE YOUR PILLS》中,获奖纪录片作家艾莉森·克莱曼(Alison Klayman,艾未未:从不道歉)重点讲述了认知增强药物的历史、事实以及在我们这个晚期资本主义盛行时代的普遍性。Maria Shriver和Christina Schwarzenegger制作的《TAKE YOUR PILLS》一书探讨了一些人眼中的无限可能的勇敢的新世界,而另一些人则认为这是一个在突触陡坡上加速前进的过程,因为这些药片已经成为一代人的决定性药物。2 F: y, p7 {- Z4 G, @

, M4 H" m4 n) S+ ]: A影片参数
请服药(港)/药瘾4k.Take.Your.Pills.2018.2160p.NF.WEB-DL.x265.10bit.HDR.DDP5.1-信息' J$ y7 t: u. j: l4 L0 O
Video7 C5 Z! q. J! A2 f
ID : 1
9 L" Y5 g' s4 D: f/ w, X2 ]7 w) s5 A% PFormat : HEVC
% [( P' @4 G, h# e, ?8 X* {Format/Info : High Efficiency Video Coding: s9 S: ^0 l) p7 \
Format profile : Main 10@L5@Main9 M+ \: h0 B5 O# M6 R
HDR format : Dolby Vision, Version 1.0, dvhe.08.06, BL+RPU, HDR10 compatible / SMPTE ST 2086, HDR10 compatible9 ~! c- m! k/ t% x5 `0 [* J) o6 O
Codec ID : V_MPEGH/ISO/HEVC7 Q. n: z3 h2 T" o
Duration : 1 h 26 min
7 d: f; u# k: k  N' TBit rate : 15.5 Mb/s
2 b: h' c8 `3 \& I6 Y8 dWidth : 3 840 pixels
% n0 R$ L/ L* w! i. ?1 lHeight : 2 160 pixels# m8 {  r' s$ I4 C+ H) a( \
Display aspect ratio : 16:9; j/ O6 q  c  O
Frame rate mode : Constant% t; m# I1 h8 P3 @
Frame rate : 23.976 (24000/1001) FPS
! s7 f6 j( \+ w  Q" M, u! |9 i7 KColor space : YUV; C) _5 f/ C5 z
Chroma subsampling : 4:2:0 (Type 2)9 v7 b2 f  b: Z  K3 G, r; L
Bit depth : 10 bits
' K8 @# |7 |$ ?, n% D7 h! U% ABits/(Pixel*Frame) : 0.078% P% I) z: L* J0 E$ _
Stream size : 9.40 GiB (96%)
& h, B( v7 `& U9 v" ^1 b2 f. ^: ODefault : Yes
& ~- I0 |$ g( h3 DForced : No" V: r# ^& s6 H+ c3 j$ ]& P' U" b' j! d
Color range : Limited
, k* T1 c' J. ^$ I. R3 z9 cColor primaries : BT.2020' r8 b, ]" h0 `9 w! F
Transfer characteristics : PQ
" L# d7 Y. ]5 O8 y# e; o3 CMatrix coefficients : BT.2020 non-constant
- c4 M( B4 m2 Z; EMastering display color primaries : Display P3- V# a. t( _. F3 O7 @
Mastering display luminance : min: 0.0020 cd/m2, max: 1000 cd/m2
4 \, ]( M, E; X. h) I: Q! gMaximum Content Light Level : 2046 cd/m2
$ S$ z+ ^* v! D4 Q) m, T  E6 U4 }Maximum Frame-Average Light Level : 903 cd/m2% [% ~& D9 b  S; ?
: `$ |1 \0 `8 v" J* [8 }& w

' g8 C' x- N/ K) C8 z# i8 BAudio7 p  F0 Z# a  \; F' h% C5 F! @4 Q
ID : 2, Q1 H( V# |2 N) d! T, i
Format : E-AC-3
0 x0 ?# E* |, `5 E2 SFormat/Info : Enhanced AC-39 [- R# d! w( O7 K
Commercial name : Dolby Digital Plus
4 X- ]- [1 \2 o- F- Z) G/ |4 l! J6 M- ICodec ID : A_EAC3
$ B9 s& g# j1 o) {2 n& ~+ S( PDuration : 1 h 26 min
7 ^4 e* g. w2 j" \9 p, i' ~/ nBit rate mode : Constant1 ~1 k% m( c9 N( Q) k0 ~/ H1 E; X( h
Bit rate : 640 kb/s
+ C- K& \4 L5 I$ TChannel(s) : 6 channels
; {  o7 t8 K. ^% `1 wChannel layout : L R C LFE Ls Rs: q: ~" }* Y3 J7 G3 A) C8 L
Sampling rate : 48.0 kHz
& M  w" f5 Z. h! ]% @Frame rate : 31.250 FPS (1536 SPF)
0 K- z% v8 H+ I5 p/ Y: K, Z) Y0 LCompression mode : Lossy: Y, C. F% z7 ^) V) `
Stream size : 398 MiB (4%)% a: }0 F8 N% F
Language : English# ?! [7 T$ l4 R1 e
Service kind : Complete Main
3 q/ B2 P6 D# XDefault : Yes
+ ?. _6 E8 J$ AForced : No
, `6 O% ]. M( e% Y$ S
& S" a+ ]0 n  s; P6 u

5 ?7 ^8 I% H4 U/ p- kText #1
) K  ~; K' p$ s" J1 nID : 3
6 R4 c) H' x: p) z# EFormat : UTF-83 H* O4 z7 C1 P3 D
Codec ID : S_TEXT/UTF85 K" @: F' k" q0 v0 F/ z2 k$ H5 ]' x' j
Codec ID/Info : UTF-8 Plain Text* l7 y5 `+ m; V" P: t7 x  r; y
Duration : 1 h 24 min
' Y! @6 f$ c* j/ u2 H$ g& j2 ?Bit rate : 113 b/s5 S! x% l+ H$ t! J
Frame rate : 0.277 FPS7 f4 v2 K7 d3 ?. F- I
Count of elements : 14026 I3 b6 i+ t$ B' w
Stream size : 70.2 KiB (0%)" n% [1 `" o( f: ^8 X
Language : English/ @1 |9 k8 N7 Z3 z+ C4 N4 k
Default : No
! P3 ^! ]  ^% @Forced : No
# b+ r# L; a( m! i
( Z  Y9 Y* k2 x5 }
( p1 E8 \. b2 L9 n! z! ?
Text #2" f* E/ z. F( c7 [( V( ]
ID : 4/ _; m4 j4 n6 w% a! c) t
Format : UTF-8% j3 v; n: q0 n! ?6 u
Codec ID : S_TEXT/UTF84 ~* U' I! T: z: Z
Codec ID/Info : UTF-8 Plain Text4 X7 I/ D( ^' y( v1 D) a
Duration : 1 h 24 min
) S* l1 \" u0 E8 N& D, D8 x" `Bit rate : 118 b/s! ^* f5 V. x: @2 A5 U' Y) R
Frame rate : 0.284 FPS* P( T3 G! F& i
Count of elements : 14373 u: Y, o0 s, \  t
Stream size : 73.1 KiB (0%)
# g9 t  C# j6 t+ \' ]- I4 \% b( d: \Title : SDH
- y5 A& g) z1 a$ J8 z8 |1 B. jLanguage : English4 |& E1 r6 V9 h& d! M
Default : No0 J" c( P. q2 q! x: U2 b
Forced : No% ?: E- D0 |8 r2 W  \' w2 B
: g+ }; Y' R1 L" C; J1 `' o
# {7 z0 L  T: b( G; C
Text #3! j* O' M6 Z; ^6 q8 a" X; y
ID : 5
( V& R( e9 N: H( [6 ^* TFormat : UTF-8
" F8 G& d! D  p0 L/ hCodec ID : S_TEXT/UTF8
0 W: u- M4 P; G$ [Codec ID/Info : UTF-8 Plain Text( k2 A, K$ D4 o4 r7 D% z" J$ [' [
Duration : 1 h 26 min
8 W* b  X3 O- B/ u3 GBit rate : 163 b/s" s6 [% V& O& x% G  z
Frame rate : 0.288 FPS
; H3 s5 y" f  E+ O* qCount of elements : 1495
, p8 a: [' H$ r* v2 b+ qStream size : 104 KiB (0%)
: V( s! z6 X1 H: H3 s" DLanguage : Arabic' T( N" K. H3 ]# t
Default : No
0 t3 v( R+ U% yForced : No7 ^7 H+ b  Q* y, `. R% I
: D. \$ _5 r+ e: {
' u% Y" N4 F9 v- u' ~3 O& x; d
Text #4
6 k5 D9 i1 `6 X, vID : 6( L5 i( k( W* K  a2 O* m& F1 n
Format : UTF-84 |! L* Z/ t* e$ n/ a
Codec ID : S_TEXT/UTF8; F  S" U1 g1 b& h3 m+ \
Codec ID/Info : UTF-8 Plain Text; }& F% y! z+ n& X8 x
Duration : 1 h 26 min2 U9 C' c* O- ]+ y
Bit rate : 90 b/s9 `, I4 Q" u2 K" K( j) S, Q8 c/ a6 Q+ D# R
Frame rate : 0.287 FPS# p: Y: d8 f  i: @  t! i4 H
Count of elements : 14948 Y- \- N' Q0 H- L* f/ Z7 `6 E
Stream size : 57.3 KiB (0%)% x8 u. S" X; S. i5 a$ V
Title : Simplified
- M* C3 k7 }$ ?7 [2 vLanguage : Chinese
( u7 c& I0 U. `  V6 x/ _: V6 eDefault : No
( T) s" u, ]& w2 ~Forced : No
: {/ I0 ]1 N9 g# Q2 }$ V' q! C* u! _+ q+ n6 p7 Y) r* f
" Y  V' U; P( C
Text #5
* [8 N1 F1 S! J7 o5 s% ]) eID : 75 l) ]) G7 d' W3 j( R- D
Format : UTF-8
+ m, a' ]. r# DCodec ID : S_TEXT/UTF84 y2 I0 y" L, i) b
Codec ID/Info : UTF-8 Plain Text7 n2 b! i% f: P, G/ o- d, _( ^0 R4 Y
Duration : 1 h 26 min
$ y6 i2 D* P5 A2 n0 t* a" \) @* HBit rate : 84 b/s" |( u& S( g/ ^$ a. o$ l
Frame rate : 0.288 FPS
5 u5 m$ O6 |* z: lCount of elements : 1495
  @9 O+ @. V7 rStream size : 53.7 KiB (0%)7 f. ~# N; X% j
Title : Traditional
% V" z# t8 S- s' }1 S" d9 g) KLanguage : Chinese7 K5 {) a/ N$ q8 ^. B
Default : No
) D6 |6 {0 r. V8 GForced : No
' U# _6 l+ \/ o
7 J) {+ N) U" \4 G, I9 D! G
请服药(港)/药瘾4k.Take.Your.Pills.2018.2160p.NF.WEB-DL.x265.10bit.HDR.DDP5.1-4k电影下载
+ w+ l3 E- h; N# ~( n
  e# s: D3 N0 l! o5 j4 `9 t4 ~药瘾4k.Take.Your.Pills.2018.2160p.NF.WEB-DL.x265.10bit.HDR.DDP5.1-简繁中字【杜比视界】【9.79 GB】7 _  z& e" d# ]2 n' n" ~: V

药瘾4k.Take.Your.Pills.2018.2160p.NF.WEB-DL.x265.10bit.HDR.DDP5.1-SiC.torrent ( 25.13 KB )

! V( Z& ~$ R  r2 R/ |  b" `# i

7 d. o" M' U! I& G" A5 b- F
% N" k' K  U7 h& p/ a7 _! h4 g) B5 [
登录 发布 快速回复 返回顶部 返回列表