开启辅助访问
 找回密码
 立即注册

请服药(港)/药瘾4k.Take.Your.Pills.2018.2160p.NF.WEB-DL.x265.10bit.HDR.DDP5.1-4k电影

#4k记录视频#时间:2023-04-28 阅读:215 回复:0
: G% O9 L; l" Z! i; H
175601trxyccok3ob4yrc2.jpg.jpg
( S! y+ P) @5 G$ ~) Y
# O6 N) N2 `" T) o- L0 T: {* }
. r1 g' h* p5 w; S/ \8 i简       介

& l/ J1 ^7 ^6 r. A# C' E& B5 ]+ J0 n+ c
       实现更多、做更多、做得更多的压力是人的一部分,在Adderall和Ritalin的时代,实现这一点可能与当地药房一样接近。处方兴奋剂不再只是“治疗易激动的孩子”,而是在大学教室、华尔街、硅谷……任何“需要成功”的地方都会变成“一天中没有足够的时间”。但这是有代价的。在富有洞察力的Netflix纪录片《TAKE YOUR PILLS》中,获奖纪录片作家艾莉森·克莱曼(Alison Klayman,艾未未:从不道歉)重点讲述了认知增强药物的历史、事实以及在我们这个晚期资本主义盛行时代的普遍性。Maria Shriver和Christina Schwarzenegger制作的《TAKE YOUR PILLS》一书探讨了一些人眼中的无限可能的勇敢的新世界,而另一些人则认为这是一个在突触陡坡上加速前进的过程,因为这些药片已经成为一代人的决定性药物。& h, _6 G5 C% Y% T/ m- p

0 P! W9 M- B0 y8 S& Z+ `3 ?+ E影片参数
请服药(港)/药瘾4k.Take.Your.Pills.2018.2160p.NF.WEB-DL.x265.10bit.HDR.DDP5.1-信息' C, N# S+ K9 x7 {* L+ |
Video
- d( G( A$ U0 |& k; n7 w, |ID : 1
6 B( i  x" g9 R6 z* I, IFormat : HEVC/ Q+ U- x( F! u+ _* r% E/ b, A
Format/Info : High Efficiency Video Coding2 c4 N  x8 K1 o
Format profile : Main 10@L5@Main
! S8 x) [! _2 H6 w2 j- U& {, e9 _& XHDR format : Dolby Vision, Version 1.0, dvhe.08.06, BL+RPU, HDR10 compatible / SMPTE ST 2086, HDR10 compatible
1 V( m/ s- T" k1 R! b$ _Codec ID : V_MPEGH/ISO/HEVC
( E0 w5 a6 Y/ u+ \  gDuration : 1 h 26 min
' y1 M* Z& v% R" xBit rate : 15.5 Mb/s3 V$ }4 [, m8 H* Q+ o' J
Width : 3 840 pixels
; @' Y3 e! q$ ?, A& X0 N+ C" yHeight : 2 160 pixels
# T: t* B# g/ {8 w( sDisplay aspect ratio : 16:9
0 }6 w2 Y7 N6 C6 y5 sFrame rate mode : Constant: a$ O( u; P6 J8 V* i0 A9 M+ o: v
Frame rate : 23.976 (24000/1001) FPS
" h  T7 ]# ?3 s. v; k3 WColor space : YUV* ~  p# U8 Q  Z! v! \: `* b
Chroma subsampling : 4:2:0 (Type 2)4 ]0 p. A) M' D8 J- Z" d
Bit depth : 10 bits8 Q* k0 F" G2 z6 F. g' s- X5 I2 W
Bits/(Pixel*Frame) : 0.078
: J& T3 h: ]3 T* V9 _4 N: wStream size : 9.40 GiB (96%)
& L% ]- U3 ^9 _! bDefault : Yes
! w8 }5 K+ ]! tForced : No) a1 x! g5 |8 {$ D$ u( M
Color range : Limited
: ^7 W9 P1 Q: }) UColor primaries : BT.2020
( d  q3 N4 O9 O" ~1 @% z( rTransfer characteristics : PQ
, r# O6 e  V/ b$ B6 w/ K5 fMatrix coefficients : BT.2020 non-constant7 T. Z3 r5 y7 [. `: `
Mastering display color primaries : Display P3! _+ [. ]& |* F
Mastering display luminance : min: 0.0020 cd/m2, max: 1000 cd/m2
$ f% i2 ?0 ?+ O) Q  h/ M  ^& CMaximum Content Light Level : 2046 cd/m2
, z' m/ ?6 M9 r, u3 W5 ZMaximum Frame-Average Light Level : 903 cd/m2
8 m, Z* Q  H- m
7 ?& U) A8 a- y
% P# v" d1 ~% X$ C5 Q+ {
Audio
4 U1 K. M5 D" ]% b! P* ZID : 23 e( P* f- U, W9 F' Y/ D
Format : E-AC-3) }' y2 G/ }0 C6 {
Format/Info : Enhanced AC-33 \4 J* s' p# E* Y- N
Commercial name : Dolby Digital Plus
, l2 K; @) |4 `) _8 s3 o! rCodec ID : A_EAC3
6 q) I% C: C  x; }1 X' oDuration : 1 h 26 min
* |- G1 w; _0 {Bit rate mode : Constant/ A$ i3 u' B& a" G
Bit rate : 640 kb/s
" z% t; J: ~& a; X* pChannel(s) : 6 channels  v; e  W3 q0 F9 ~( p0 P' Y$ k- D, S
Channel layout : L R C LFE Ls Rs
6 A: s1 k- O! o2 J1 B2 Z+ I. e5 ESampling rate : 48.0 kHz
; v( {% e6 o8 h2 z2 @$ y& F) F! tFrame rate : 31.250 FPS (1536 SPF)0 h/ \/ b% o9 z' \
Compression mode : Lossy( x$ z2 b  Q+ B; A
Stream size : 398 MiB (4%)1 ?) ^7 B  O  o. Q5 \4 i& X
Language : English
' q& ]8 l& S8 J( t/ D, h* `Service kind : Complete Main
) M* t% ]. T  @/ v; d- |Default : Yes
8 a' Q  n- Y+ IForced : No
% C9 o/ I/ O; ?. c9 N( H0 U9 j3 d: g# l& m# {

9 L5 }( Y6 k$ C1 o* R: ^4 f" |Text #1
$ e) N, f) x- R* E; a0 r+ d" UID : 35 @5 F0 z$ b* i0 U( Z) l& d- g9 F$ n
Format : UTF-8
1 e5 J# r' }( n- s& gCodec ID : S_TEXT/UTF8
- T" |5 Y, j/ aCodec ID/Info : UTF-8 Plain Text
/ u7 U- X1 A3 v! p# Y5 `$ N$ {Duration : 1 h 24 min
8 e5 F6 l1 @. x0 D3 Q0 YBit rate : 113 b/s1 t) i0 a& f; Y' s/ |0 \+ o
Frame rate : 0.277 FPS
  V( @( g' @# v& K# FCount of elements : 1402
: e# x* ?2 V! s9 }7 [Stream size : 70.2 KiB (0%)
! o, Y( k9 q" h& ALanguage : English. C0 y$ h( T; f0 F
Default : No
# O3 g# z  y" e8 A# a% c( }& oForced : No3 W2 |4 v, @& m& |
0 c! y, N5 O( B2 s" }( X

0 d% k6 [% `' U( H2 ?; L  j" EText #2
: x5 b& j  f+ z5 y; LID : 4
% `% v3 t/ N, E1 h8 ^7 `Format : UTF-8& D# K# @' b: z" g. d. D9 l
Codec ID : S_TEXT/UTF8
) E/ i9 z2 R6 ]3 ]5 ICodec ID/Info : UTF-8 Plain Text
4 S2 F' |3 m. B) SDuration : 1 h 24 min
/ {+ ?2 a. b2 N* l2 `+ ZBit rate : 118 b/s
' I! S0 B2 o0 i) PFrame rate : 0.284 FPS6 Y, b$ p0 ~! g8 Y, n
Count of elements : 1437
$ x* ]3 A! ]4 @3 }9 tStream size : 73.1 KiB (0%)3 e  f+ n4 }% Q
Title : SDH8 o  g, \/ F/ g4 p4 u7 t
Language : English, X3 M5 e1 ]7 Z/ i
Default : No
. n6 H6 w3 w; l, x! ?Forced : No
- k3 d; e9 q2 s" r8 D; a* z1 X, q$ t% x! y. y. f+ b
3 l8 ^  F6 J, P3 q* t
Text #3
7 g: r+ O' R6 pID : 5' X# H9 Q0 D0 P5 T
Format : UTF-81 C2 k) }' Y. n/ F
Codec ID : S_TEXT/UTF8
2 j. \4 c' i# ]* TCodec ID/Info : UTF-8 Plain Text/ j8 F' n. M* g2 V
Duration : 1 h 26 min* }9 J7 u' f8 M3 V' z1 F8 K2 N
Bit rate : 163 b/s
5 Y, l2 e: Y) x# B7 vFrame rate : 0.288 FPS$ n. I; B1 n5 q9 O) q0 s6 I
Count of elements : 1495* S: c* F9 }, K! O" _- W; q) D
Stream size : 104 KiB (0%)
& S9 e, g& `; O& D5 C+ M  p* XLanguage : Arabic
7 L, ^: R  T6 c* CDefault : No
2 L7 S; K* o* M* p) k3 e' D2 QForced : No
! R0 T$ e6 E) y: L" k; h; U, L
& _" L! b4 @0 A

1 R/ W* i% q8 XText #4
" C+ H% T) n, eID : 64 e! H2 E5 x% d
Format : UTF-83 d, H8 }# U# x- t
Codec ID : S_TEXT/UTF8
7 W/ e5 d. {* u2 b/ s& C3 Y$ e# tCodec ID/Info : UTF-8 Plain Text: N2 Y! @( V; ^
Duration : 1 h 26 min8 @. d2 _' J5 t4 t
Bit rate : 90 b/s
% J4 G8 L- @/ }0 s3 j# xFrame rate : 0.287 FPS
  T6 W9 u8 Z# r5 E% ~- ~Count of elements : 14941 |" K9 c: L/ b3 C% Z
Stream size : 57.3 KiB (0%)
: ]8 @; }+ O) [6 @% |2 kTitle : Simplified
, ~  S, {5 }( m! o3 SLanguage : Chinese
* d' P/ X$ Z( QDefault : No9 w- D" m  N& i; W. R- o$ x
Forced : No
5 b4 R5 o: |" A+ ?
1 O1 B' k! L" m3 N* D! E# d
$ v1 ~9 ^5 z) h8 d3 q( r0 ~
Text #5! T# }6 A5 u8 X
ID : 7  ^+ o& Y+ |/ r0 u  W7 s" e( l; }  B' }  I
Format : UTF-8
' \  \; X+ [3 i( S: K$ S! kCodec ID : S_TEXT/UTF8
1 s2 Q2 l( Y8 m/ o! LCodec ID/Info : UTF-8 Plain Text8 [3 ?3 _. O+ q: p5 @) ]$ F
Duration : 1 h 26 min4 |% |  ]+ @! ?
Bit rate : 84 b/s
8 K5 C' ^! z7 r* p7 CFrame rate : 0.288 FPS
3 ?* t& y/ K: VCount of elements : 1495* P/ z" R1 a6 a- q8 n* [
Stream size : 53.7 KiB (0%)! R7 x- j. Z  [1 D
Title : Traditional
8 w- G' f5 L+ B7 c/ G3 K) {Language : Chinese
, J, ~/ ?2 w7 t* {; T: i# i8 [Default : No& s  b: I  K- W9 x8 c' X3 D
Forced : No
- C8 _3 @* l* w" H- k1 ]
- P+ b4 C5 F3 E8 |* g
请服药(港)/药瘾4k.Take.Your.Pills.2018.2160p.NF.WEB-DL.x265.10bit.HDR.DDP5.1-4k电影下载% o" [/ I4 {  u7 p
" P5 g" |7 @7 ~& \
药瘾4k.Take.Your.Pills.2018.2160p.NF.WEB-DL.x265.10bit.HDR.DDP5.1-简繁中字【杜比视界】【9.79 GB】
$ ^7 a4 k5 i6 p1 W7 y

药瘾4k.Take.Your.Pills.2018.2160p.NF.WEB-DL.x265.10bit.HDR.DDP5.1-SiC.torrent ( 25.13 KB )


) q/ o5 ]9 z. |* v, m- i9 _, ]- ?
" M- m( h; M% U) i4 ~( }+ f" S. Y% I& r

+ Z) x1 W' d& @
登录 发布 快速回复 返回顶部 返回列表