开启辅助访问
 找回密码
 立即注册

黑人音乐教父/黑人商业教父4k.The.Black.Godfather.2019.2160p.NF.WEB-DL.x265.10bit.HDR.DDP5.1.Atmos-4k纪录片

#4k记录视频#时间:2023-04-28 阅读:158 回复:0
  l" O( P3 O* N/ c8 B) F
7 k9 u6 G, ^( k/ i% e
1 r& ?; k$ l' O- g7 I
180317hkf56kji9z9vd6ji.jpg.jpg 4 M$ k/ ]$ L0 U7 H& [5 r. c
- C& r9 h- I7 p3 G

* \0 B: P' C/ w' g简       介

5 f8 ^3 |  ?3 Z
( O/ F8 \5 z: k' v* V  几十年以来,世界上最知名的艺人、运动员和政治家在他们人生和职业生涯中最关键的时刻都向一个人寻求建议,包括格莱美奖®得主、名人堂成员、世界重量级拳击冠军和两位美国总统。此人就是克莱伦斯·埃文特。- v) ~, H9 @( W4 w6 a% O8 Q
  《黑人音乐教父》讲述了埃文特非凡而传奇的成名历程,这位音乐界高层通过自己开创性的幕后成就打造出众多杰出人物,例如比尔·威瑟斯、昆西·琼斯、穆罕默德·阿里、汉克·阿伦,以及总统比尔·克林顿和巴拉克·奥巴马。' O1 U2 G) [; W* e: |& h% b" e
  根深蒂固的种族主义已渗透到美国的每一个角落,在平等、忠诚和正义感的驱使下,埃文特摆脱南方的种族歧视制度,成为了一名出色的谈判专家。埃文特打破了人们对于黑人高管的概念,为有色人种艺人和高管重新定义娱乐圈,其利他主义的精神,也激励后人纷纷效仿。
1 S  x* J* N$ F7 i" L# [; K  《黑人音乐教父》由荣获奥斯卡金像奖®提名的雷吉纳·哈德林执导,采访了斯努普狗狗、吹牛老爹、莱昂内尔·里奇、苏珊娜·德帕塞、大卫·格芬、杰里·莫斯、赛西莉·泰森、吉米·詹姆、特里刘易斯和杰米·福克斯等人,本片聚焦于将整个职业生涯奉献给照耀他人的音乐教父,揭秘了这位大师的真实故事。

: \. R% E: Y7 i8 C8 d
' p  ~2 s0 T' I影片参数
黑人音乐教父/黑人商业教父4k.The.Black.Godfather.2019.2160p.NF.WEB-DL.x265.10bit.HDR.DDP5.1.Atmos-4k纪录片信息9 d% ?2 P( q  b, x" s: i
Video
) a2 o' R9 r2 @2 Z4 ~9 ~/ h6 WID : 1
$ W" z( O; E1 Z- x: ]$ aFormat : HEVC% H4 R2 @4 p: h6 t/ e$ m" A
Format/Info : High Efficiency Video Coding4 g+ |( @% [5 c% \" T) Y
Format profile : Main 10@L5@Main: i4 d4 U$ o( T% m/ ?6 }2 f$ b
HDR format : Dolby Vision, Version 1.0, dvhe.08.06, BL+RPU, HDR10 compatible / SMPTE ST 2086, HDR10 compatible# i6 t0 l( j( [/ D0 x/ G& f
Codec ID : V_MPEGH/ISO/HEVC
& c. W8 O* F5 C% X6 z; {9 nDuration : 1 h 58 min
& W' ~# T% D5 I% \% \( a! o* U( vBit rate : 15.0 Mb/s
3 _1 K3 E- o7 J# B/ b. q. |: qWidth : 3 840 pixels1 O8 z7 i, s7 A0 e# O& r
Height : 2 160 pixels$ `7 i6 `' ]# ^
Display aspect ratio : 16:9
; u2 f: V  Y$ V" ?1 e6 q: EFrame rate mode : Constant
8 ~$ g) |* o5 F0 vFrame rate : 23.976 (24000/1001) FPS, U7 `% _- K% V7 }6 n' g6 z
Color space : YUV4 a* T( U0 T: ~7 K  T0 y; Z, M; X
Chroma subsampling : 4:2:0 (Type 2). P# d& s; B3 j5 d! l2 E6 [8 b
Bit depth : 10 bits
7 o! F& \) D/ J4 X# e# VBits/(Pixel*Frame) : 0.075/ U4 r" H7 J0 C' Q
Stream size : 12.4 GiB (93%)
, z/ |$ l. j4 x  I( R* K; y; R* bDefault : Yes
1 V' M! I' Z2 ^6 `" K- vForced : No
1 T1 f/ l3 t3 w$ wColor range : Limited
0 T2 ?& e/ E+ Q& _2 yColor primaries : BT.2020
  B5 z; @$ H  V2 R. MTransfer characteristics : PQ% Q7 i3 z& G5 e" o
Matrix coefficients : BT.2020 non-constant. F5 d8 b( T' k+ C$ n# b3 k! |
Mastering display color primaries : Display P3
4 M# I% Q$ m2 G" D9 P+ P' U  s9 GMastering display luminance : min: 0.0001 cd/m2, max: 1000 cd/m24 {7 \& E8 ^# g0 m2 c
Maximum Content Light Level : 1104 cd/m29 c- t5 C, o$ I  M; p5 L/ F
Maximum Frame-Average Light Level : 96 cd/m2
1 S% z6 n8 h, P0 m: H4 j4 A7 P4 }0 `) v' t4 f6 f
! p% }+ G  u5 ]8 _
Audio" F5 ^. h& {2 _" p& \
ID : 2
" b3 ^/ M; G$ \' i- z3 NFormat : E-AC-3 JOC
4 H) M8 L  y1 d+ `# U; YFormat/Info : Enhanced AC-3 with Joint Object Coding# w, J" w  B" K: j3 z
Commercial name : Dolby Digital Plus with Dolby Atmos
) U. E+ m! o4 l# n& s4 OCodec ID : A_EAC3- c0 Z9 R# t0 [5 k) s! _0 u
Duration : 1 h 58 min( y) M3 P7 H# _3 ^5 m" t
Bit rate mode : Constant! z- h4 l( }) p2 p/ l( E
Bit rate : 768 kb/s- S; _) ~9 H  }; S; P
Channel(s) : 6 channels0 V5 N" M& C9 I/ B: B: Q: B! ]
Channel layout : L R C LFE Ls Rs% b  R2 ~8 d- B4 {; \4 c  s9 m3 Q$ k
Sampling rate : 48.0 kHz
) Q1 y! S: n+ w2 F4 C% T  aFrame rate : 31.250 FPS (1536 SPF): N4 Y( R# e6 y. D6 Z
Compression mode : Lossy# E( j$ }2 D* |1 [1 E
Stream size : 649 MiB (5%)
- N, U; p% O* R- iLanguage : English
/ \( c1 x7 p- I- C: \Service kind : Complete Main1 T+ ~. ~% Q3 Z9 v1 K0 X( e
Default : Yes  v8 o* _8 F% [
Forced : No# s. T. w. H+ P. s, [5 _& K7 l
Complexity index : 16
8 |, b" C/ S  c6 HNumber of dynamic objects : 15
8 O7 |/ N  \4 u9 BBed channel count : 1 channel  D( Z: M3 W$ N/ t7 S
Bed channel configuration : LFE3 j/ g, u& e+ J" L& J

$ k  K) l" p) Z- c+ Y: T1 _/ LText #1
2 W* R- r- A/ c- q0 f* x! a* hID : 3
9 Z1 k, U9 ^7 `' Z" OFormat : UTF-89 Q! p! m" z0 X! i
Codec ID : S_TEXT/UTF87 j7 X, N- s6 ?  J
Codec ID/Info : UTF-8 Plain Text
' }9 j' K; }2 ~8 {Language : English0 j* X. j, d: c: |1 y0 J, f
Default : No$ S/ X9 r8 W9 Y  n0 A
Forced : No' S3 i. W' }, v; o, V

/ s5 w  o% x6 U3 ~1 }Text #2
" k8 J& b* A% z5 {ID : 4, v' j$ i/ W8 \9 W+ ?3 D# U
Format : UTF-8
1 f6 b& h  m; S4 hCodec ID : S_TEXT/UTF8; X1 \6 O" I4 v# |1 r
Codec ID/Info : UTF-8 Plain Text
3 o" Q# [/ r! n9 K, pTitle : SDH
! s! w# E; h  H6 o, L6 ]' f( w) ]Language : English. r( r# S1 s* X' [8 M8 z' `& Y
Default : No
8 r* a9 k  }, c+ j. q5 R+ n# VForced : No
$ H& a9 y; x) W  b2 T& G0 l# ]2 v; P% O
Text #3- F6 D% n6 {6 t6 N! N6 \
ID : 5
6 S2 a8 F3 q8 i9 K/ TFormat : UTF-8
  \9 V" D/ V6 }* {Codec ID : S_TEXT/UTF89 N( g" t4 U& U' F1 Y$ ]
Codec ID/Info : UTF-8 Plain Text
! y1 v0 Q/ V  p/ d3 _; tLanguage : Arabic
0 O2 y5 S7 C! B3 g& C4 V7 z3 _Default : No" c% c# Y; W1 _7 `
Forced : No+ Q- W% O6 }5 L  u* e0 L" A

6 y2 Q& |, T6 t& Z2 eText #4
5 f( E1 x7 {1 z6 @0 u5 WID : 6$ A8 b- G# j" H9 c2 G! G" M
Format : UTF-8! t* C" a% L% M/ P, u
Codec ID : S_TEXT/UTF8) Z( u6 _. C. I4 k
Codec ID/Info : UTF-8 Plain Text
' R" u  ~' j7 \- Z# k$ }Title : Simplified8 g" @3 E! k$ Z! o: p7 h  N
Language : Chinese6 }1 j) C$ i6 Q4 ~& w
Default : No! n; t2 [9 @/ R- n* n- Z) U
Forced : No
9 W4 W# e" O7 o* ~
( V' W. c+ f9 W8 D
Text #5; i. q! {1 I$ u+ r' h
ID : 76 t7 p2 w# |7 }+ d% ~: O9 {
Format : UTF-8
0 T! G, k8 N1 a( J  L; `Codec ID : S_TEXT/UTF8: D9 f* Z4 z1 t, v# D. _( u" M
Codec ID/Info : UTF-8 Plain Text
3 ~. W$ j$ |$ V2 J  OTitle : Traditional2 C0 {6 g: t+ T( B: S
Language : Chinese0 H* L" i9 o8 ?- `* u1 e1 `
Default : No6 v; }: \, N! n, q+ Q
Forced : No

; u1 R9 j% d% ]" J0 t" L1 a' \/ K' {/ q9 J# {9 h/ J
" f# F& z, P) U5 g- p5 X+ b
3 I; y2 U) z9 i6 R+ X! Q
黑人音乐教父/黑人商业教父4k.The.Black.Godfather.2019.2160p.NF.WEB-DL.x265.10bit.HDR.DDP5.1.Atmos-4k纪录片下载. y$ u- a5 g+ n8 B' i8 ?9 b3 ?
" h9 m! D# ~2 k" j* A9 z
黑人商业教父4k.The.Black.Godfather.2019.2160p.NF.WEB-DL.x265.10bit.HDR.DDP5.1.Atmos-简繁中字【杜比视界】【13.27 GB】
; \3 K- A2 `; H; k

黑人商业教父4k.The.Black.Godfather.2019.2160p.NF.WEB-DL.x265.10bit.HDR.DDP5.1.Atmos-SiC.torrent ( 17.26 KB )

& ]& L6 D  r# _- E! J9 ~% b  O
" X: ]3 ^: K! V% R9 h% P
登录 发布 快速回复 返回顶部 返回列表