开启辅助访问
 找回密码
 立即注册

黑人音乐教父/黑人商业教父4k.The.Black.Godfather.2019.2160p.NF.WEB-DL.x265.10bit.HDR.DDP5.1.Atmos-4k纪录片

#4k记录视频#时间:2023-04-28 阅读:234 回复:0

; _, z# L8 J1 B$ i8 H1 j1 Z6 [' w4 F6 m+ M7 S. P* T3 I$ O
+ i7 l0 U# N  X7 _
180317hkf56kji9z9vd6ji.jpg.jpg 4 p5 a# @% l8 I
6 L5 u9 I( y; i5 {& \) `) }
" o* L7 Q% V8 y; L! a- M
简       介
" [3 O" r4 H8 m" j- j% e& [* N( K
2 N6 v% C' f, C' {
  几十年以来,世界上最知名的艺人、运动员和政治家在他们人生和职业生涯中最关键的时刻都向一个人寻求建议,包括格莱美奖®得主、名人堂成员、世界重量级拳击冠军和两位美国总统。此人就是克莱伦斯·埃文特。
9 v, B! k/ N( @5 X+ a4 G  《黑人音乐教父》讲述了埃文特非凡而传奇的成名历程,这位音乐界高层通过自己开创性的幕后成就打造出众多杰出人物,例如比尔·威瑟斯、昆西·琼斯、穆罕默德·阿里、汉克·阿伦,以及总统比尔·克林顿和巴拉克·奥巴马。
/ j$ l; k3 \9 u- f  根深蒂固的种族主义已渗透到美国的每一个角落,在平等、忠诚和正义感的驱使下,埃文特摆脱南方的种族歧视制度,成为了一名出色的谈判专家。埃文特打破了人们对于黑人高管的概念,为有色人种艺人和高管重新定义娱乐圈,其利他主义的精神,也激励后人纷纷效仿。
' y$ J1 Z3 P+ |7 j2 `2 B: ]  《黑人音乐教父》由荣获奥斯卡金像奖®提名的雷吉纳·哈德林执导,采访了斯努普狗狗、吹牛老爹、莱昂内尔·里奇、苏珊娜·德帕塞、大卫·格芬、杰里·莫斯、赛西莉·泰森、吉米·詹姆、特里刘易斯和杰米·福克斯等人,本片聚焦于将整个职业生涯奉献给照耀他人的音乐教父,揭秘了这位大师的真实故事。

. p' |) T# x6 E* R0 D% ?. A
8 y" w4 K/ q( Z  o7 H影片参数
黑人音乐教父/黑人商业教父4k.The.Black.Godfather.2019.2160p.NF.WEB-DL.x265.10bit.HDR.DDP5.1.Atmos-4k纪录片信息
6 J9 ?" `5 m) F) E5 G5 S9 XVideo8 g" J  ~, f3 _, ^) A
ID : 1
$ ^( a; X& S& c: T% j5 N  iFormat : HEVC) E& a- ]. f/ T7 x; {+ V
Format/Info : High Efficiency Video Coding  p7 J9 e- U  q5 [4 J
Format profile : Main 10@L5@Main
. q# e0 ~' C/ R9 H9 _9 V) BHDR format : Dolby Vision, Version 1.0, dvhe.08.06, BL+RPU, HDR10 compatible / SMPTE ST 2086, HDR10 compatible0 b) @) Q+ U3 a! n) L9 A
Codec ID : V_MPEGH/ISO/HEVC
8 g# E% t0 H4 l: Z. J5 ^& DDuration : 1 h 58 min
% l, G! ?( z' h$ O8 \* W: p5 c7 f- TBit rate : 15.0 Mb/s
" F6 h5 f! l5 iWidth : 3 840 pixels
8 Y0 W+ F9 j/ U# ?$ q  l' N  I. Y% ZHeight : 2 160 pixels
4 v; q7 _$ |3 y% c. T- @" g/ S( x! iDisplay aspect ratio : 16:9
4 P9 Z9 H: P+ m3 \6 L5 x& E/ l+ [Frame rate mode : Constant
7 [; a3 ]% O3 K7 @. L0 y7 c( t& i' RFrame rate : 23.976 (24000/1001) FPS" l% D0 ]) o3 [
Color space : YUV; G+ F; t5 [/ P
Chroma subsampling : 4:2:0 (Type 2)
( a& ~2 w, B, b8 r- SBit depth : 10 bits
, I# a0 j% [% O1 _  zBits/(Pixel*Frame) : 0.075
6 E0 O" o, g4 C/ yStream size : 12.4 GiB (93%)
5 x5 I5 j# H8 G5 V9 s0 qDefault : Yes, M. U% {) _4 Y5 y
Forced : No
, J. n% D* O7 {3 y$ [5 _Color range : Limited
0 S6 I, h' Q+ e6 q& vColor primaries : BT.2020! }2 T- F3 |5 m0 T) t+ z- f  L
Transfer characteristics : PQ
1 H& g" H2 L0 K% R7 m8 iMatrix coefficients : BT.2020 non-constant# k) {9 [+ |8 w
Mastering display color primaries : Display P3
( P$ D4 Q0 n' e( t/ _Mastering display luminance : min: 0.0001 cd/m2, max: 1000 cd/m2& }5 k% b0 x5 r( _
Maximum Content Light Level : 1104 cd/m2
# ?+ K( j! t% YMaximum Frame-Average Light Level : 96 cd/m2
  M# e& D  |+ b6 N' e2 K, |, L# n( w. Y& {( U
0 X! ?) h& F+ {6 y, Z8 h, v2 Y
Audio0 U3 q. Q9 o/ \  ?5 a$ [8 y* Y
ID : 2
; B7 \) l' k& ]' FFormat : E-AC-3 JOC1 L. J/ X2 x& M; O- \# {' y
Format/Info : Enhanced AC-3 with Joint Object Coding' y1 B2 s% p0 g6 m# V
Commercial name : Dolby Digital Plus with Dolby Atmos! A4 a" a; b/ R/ S4 l
Codec ID : A_EAC3
  N8 k5 t) b. J' b1 z, [5 i: K) T/ ]4 EDuration : 1 h 58 min; z, W# j  N1 h  D7 r3 N8 R
Bit rate mode : Constant) C- X5 p( e8 f# R; C& x, E0 p( R* I2 x
Bit rate : 768 kb/s9 `% d! e% a, `5 A/ M' [/ ]" ~
Channel(s) : 6 channels+ D$ Q; W( d! d! h) t2 G
Channel layout : L R C LFE Ls Rs( L) @5 @/ t8 w% n  k- p! \
Sampling rate : 48.0 kHz
5 g3 L2 t4 R) a$ G% qFrame rate : 31.250 FPS (1536 SPF)% t" R9 {9 y1 A; L, L3 p% v/ P6 Q8 h
Compression mode : Lossy
- n0 E. h0 P6 P6 o. _2 }Stream size : 649 MiB (5%), f5 t* N# I' \) P5 g
Language : English
5 l/ G. E, |# F, D* _Service kind : Complete Main
5 N1 ^; p# h" Y$ t4 M; \7 K- _Default : Yes( O4 S. b' [: S3 p9 q+ T
Forced : No
: R: [% D* W$ |. P* nComplexity index : 16
! f1 v# Y, E$ ?9 R" d  |Number of dynamic objects : 15$ P* K5 e$ [8 v7 ^. P
Bed channel count : 1 channel( W: V0 [- u/ I/ @, \: a* R
Bed channel configuration : LFE
( [/ b5 m; N( K; |0 s6 m# H
0 s. S' R* V& X3 ]3 z0 O- M5 rText #1" _* v  B) n1 S- x( V* U( T& c
ID : 3' a5 A1 @- Z: N1 y2 S& _# U- T
Format : UTF-8( w- l$ N. K, V( k, K9 o+ D
Codec ID : S_TEXT/UTF89 ]3 D) K6 u! H+ a/ m; e- ?
Codec ID/Info : UTF-8 Plain Text2 I, Q; W, a  a
Language : English
7 @  E+ N5 F; P0 m8 B) n6 yDefault : No6 j' F- J/ `: {
Forced : No* J& y  q, Q; p! G8 u

6 y2 H8 C$ I& M1 h6 ^: S/ HText #2) O4 b$ h% ]' A2 j! q0 [" b
ID : 4
7 n& k2 n  V1 z' M  eFormat : UTF-8+ _$ X- L/ D& N+ u
Codec ID : S_TEXT/UTF81 X  z7 K- f9 x, W4 t
Codec ID/Info : UTF-8 Plain Text: {2 d# e( w& ^; A8 i
Title : SDH- W, m8 L+ U) N6 w7 c( T
Language : English
: Z2 P! A: @! t" v# e6 G2 {Default : No' l3 B# U( ^& I; B
Forced : No/ z- L) \- c, d/ m
+ M- s6 T# H# k' [' y
Text #3
) n& D& o  i% b5 X( p" aID : 52 a4 n6 f0 m- [$ ^0 r9 Q
Format : UTF-8& |5 ~) k! Z/ o, e
Codec ID : S_TEXT/UTF8
+ f0 V, `5 i9 N9 Z/ @9 R; d; r- Z3 @Codec ID/Info : UTF-8 Plain Text% ~* o' P* n) r
Language : Arabic
0 i8 G8 P, G+ Q* i: wDefault : No2 b3 t. _5 ]1 y! f* ~
Forced : No4 c0 s1 u: }  ?0 X
& D8 L0 }; n; v9 h, J
Text #4
) ~# ^( S' c0 Y: z4 xID : 6
8 T1 L- ^1 y: `) L0 O, q1 nFormat : UTF-8
5 E; {) w  C( q7 P/ PCodec ID : S_TEXT/UTF8+ a& ^* A/ r! e2 p5 `$ R. Z8 X
Codec ID/Info : UTF-8 Plain Text) s1 c- A4 p; @. I, X
Title : Simplified
- V% e2 X) n2 k( Z  I6 l; n; xLanguage : Chinese
( e+ ~; x9 |5 ^/ W% f1 i7 PDefault : No
- D6 U% F0 i$ }9 OForced : No8 m1 V/ R& S! d; q- o

" A/ J  q% Z$ I5 V+ G4 ]Text #51 d! ]! X% }* ^
ID : 7
0 M+ Z: Q2 u* b1 Z6 N. e% xFormat : UTF-8
( w5 |7 Q/ S# v: i4 J  p9 @; l) NCodec ID : S_TEXT/UTF8% p% l3 |6 e$ j7 o( ?( D  @
Codec ID/Info : UTF-8 Plain Text
( \. Y) o" O* l9 o5 A( WTitle : Traditional
  W, H: z& s) z/ L9 {6 }* ILanguage : Chinese
3 B) n' h! H- b0 Z' M$ @3 m/ iDefault : No' l& M- `9 r2 f2 N7 X6 C. v: T# e
Forced : No
" o# A& x9 G! n% d  V, ^3 P9 Y8 F

4 ^% M3 J  b& a8 [& M: T! @- j5 I" v' s0 t  |& g
% m% ]5 r# N3 g/ ?$ w+ U+ s
黑人音乐教父/黑人商业教父4k.The.Black.Godfather.2019.2160p.NF.WEB-DL.x265.10bit.HDR.DDP5.1.Atmos-4k纪录片下载" ~3 m# N/ \0 t. ^) X1 r; b

$ j( [& {5 h0 y黑人商业教父4k.The.Black.Godfather.2019.2160p.NF.WEB-DL.x265.10bit.HDR.DDP5.1.Atmos-简繁中字【杜比视界】【13.27 GB】# Y9 g: z0 M5 J& I% p$ g7 P" W8 S

黑人商业教父4k.The.Black.Godfather.2019.2160p.NF.WEB-DL.x265.10bit.HDR.DDP5.1.Atmos-SiC.torrent ( 17.26 KB )


+ b( @  @6 N; u% i7 j* s+ r  Y- w. g* d( h/ e' `& Z% b
登录 发布 快速回复 返回顶部 返回列表