开启辅助访问
 找回密码
 立即注册

体坛秘史:NBA 集体殴斗事件(港)/体坛秘史:奥本山宫殿斗殴4K.Untold.Malice.at.the.Palace.2021.2160p.NF.WEB-DL.x265.10bit.HDR.DDP5.1-4K

#4k记录视频#时间:2023-04-28 阅读:269 回复:0
" b# i: w. M4 t$ ^
181039bpprh6o2n2inscck.jpg.jpg & A, ?2 f; R* X. H' r* F' \

" e6 }/ U5 B1 e, u( a! X+ U2 ~. z4 z* L' c% w
简       介

2 G+ q0 B9 g. I' _+ T* N# L2 C" R, y- s7 g9 A
  2004 年 11 月 19 日,这是 NBA 永远都不想提起的时刻,但对于经历过这一时刻的球员、教练、裁判和球迷来说,这只是一个他们无法从记忆和名誉中抹去的夜晚。这是一场赛季初期的比赛,但对于常年失利的印第安纳步行者来说,对阵卫冕冠军兼死敌底特律活塞就是用来巩固他们新获得的统治地位的最佳方式。当比赛接近尾声时,印第安纳好斗的罗恩·阿泰斯特放倒了活塞队的本·华莱士,此举引发了两家俱乐部之间的斗殴。当一名球迷将一整杯啤酒扔在阿泰斯特的胸前时,一场 NBA 历史上从未有过的混战由此引发:球员冲进看台,球迷冲进球场,警察冲进大楼试图控制混乱局面。几天后,为了保护联盟的形象,总裁大卫·斯特恩将阿泰斯特禁赛整个赛季,他的队友斯蒂芬·杰克逊禁赛 30 场,杰梅因·奥尼尔禁赛 25 场,这是 NBA 历史上最长的禁赛。媒体随后跟进报道,称这些球员是一群无法无天的“暴徒”。现在,我们第一次展示了那个夜晚从未公之于众的镜头,讲述由亲身经历者描述的故事,让球员们有机会为他们的行为做出解释,并捍卫自己的形象,澄清那个让他们在场上和场下都名誉扫地的夜晚。$ S2 P2 n& b, e5 {+ p
$ s3 m  N1 k4 O: T& f" P7 b. f
影片参数
体坛秘话:NBA 球场斗殴事件(台) / 体坛秘史:NBA 集体殴斗事件(港)/体坛秘史:奥本山宫殿斗殴4K.Untold.Malice.at.the.Palace.2021.2160p.NF.WEB-DL.x265.10bit.HDR.DDP5.1-的信息, I! G" n2 b2 ^. r! C0 R7 Y
Video
! T: v) X* t! K0 t9 ^/ o/ x+ bID : 1: U- \8 w/ f9 P
Format : HEVC6 H3 p* w) B) O3 H' E8 ?4 a- Z( c
Format/Info : High Efficiency Video Coding
/ z# N8 K; v0 a6 a* A, RFormat profile : Main 10@L5@Main1 |% u6 U7 A$ ~& o8 m4 O
HDR format : Dolby Vision, Version 1.0, dvhe.08.06, BL+RPU, HDR10 compatible / SMPTE ST 2086, HDR10 compatible# }% D; O9 H7 V* E# I, U# Y6 U
Codec ID : V_MPEGH/ISO/HEVC2 O( i( o$ B, J: b+ O6 Y% r
Duration : 1 h 8 min
- \. I! z1 h* n3 C1 w6 Q$ d; h: \Bit rate : 15.3 Mb/s) v- a  W/ W! ~/ L1 R- D  e( m! s
Width : 3 840 pixels
$ i& B  O# T: B  NHeight : 2 160 pixels
7 s3 H7 k9 d1 E) eDisplay aspect ratio : 16:9* C" _# e; U0 X) B. Y5 e" k
Frame rate mode : Constant
+ h4 n6 O  {3 w- N! h8 s& ?7 dFrame rate : 23.976 (24000/1001) FPS
2 O* j. p4 i0 s" D: S; {; CColor space : YUV
% c6 Q1 w2 C# j6 z9 d0 J( g6 SChroma subsampling : 4:2:0 (Type 2)
* e7 }, U) Q* t: ]% v9 X$ ~+ a. TBit depth : 10 bits3 Q7 L2 l, a# z5 z4 W* p
Bits/(Pixel*Frame) : 0.077
" ^# M+ \. Q4 S/ m2 q% AStream size : 7.36 GiB (97%)2 L7 t5 |; W9 ~$ q" a
Default : Yes
/ z( S$ C& O# I5 tForced : No5 L0 ?8 w+ L6 ]8 L0 M5 g
Color range : Limited( |# N, X9 g* e8 X3 g/ N
Color primaries : BT.2020
  q$ f% Z5 y( BTransfer characteristics : PQ
$ \5 S0 V4 Z6 ]Matrix coefficients : BT.2020 non-constant
+ M, Z( ~4 n$ d( B* o: r; yMastering display color primaries : Display P3
+ R; u/ T% y9 @0 b( F  aMastering display luminance : min: 0.0001 cd/m2, max: 1000 cd/m2
) _! W) L6 q$ h+ T) f) o: E% jMaximum Content Light Level : 1320 cd/m2
7 `6 l9 @$ n2 I4 L+ rMaximum Frame-Average Light Level : 138 cd/m2
; A8 P! s8 Y- r- K! p" j7 v: z- U2 W% [7 Y4 W1 V. n

/ R2 _$ G; d: s0 h2 W! ?' m; s7 yAudio2 H7 S. ?6 H6 o# k+ T0 C& Z* q6 w
ID : 2% M5 h1 i* T; g) v7 U) Y! M
Format : E-AC-3
$ \( D* f" ~1 d. ]  j- B1 x- {Format/Info : Enhanced AC-3
; G/ v' m0 L$ I6 k  Q! _' y, g+ WCommercial name : Dolby Digital Plus
! A0 o; [( [5 U! ?2 @7 @1 R/ @Codec ID : A_EAC3
: Y! w' H- h+ H+ f6 NDuration : 1 h 8 min
+ d) K/ _* u& x' d& |1 Q7 @Bit rate mode : Constant5 h" x6 T2 ^4 f5 Z+ Q
Bit rate : 448 kb/s
) l8 {0 S& O1 y* jChannel(s) : 6 channels0 v) I8 Z6 n5 W" e' x6 o
Channel layout : L R C LFE Ls Rs  l/ M# T. k6 |# w3 ?# u& N, G+ i
Sampling rate : 48.0 kHz% T+ I" W# E7 ^* g+ q
Frame rate : 31.250 FPS (1536 SPF)
# k" M7 p" }8 Q) e5 Q0 SCompression mode : Lossy( O& [; V& P; y
Stream size : 221 MiB (3%)# p+ e% l) `- q5 B9 `- V
Language : English6 l! B4 _; C! ?: A
Service kind : Complete Main9 b5 }. [0 j. V) U2 o
Default : Yes
. S- f- B, i# a( {! i, C: pForced : No* Q8 ]8 p! j  w" E- V, T

. t* `" I( ]* L# H. _! U
& h" j7 L: |  ^6 x& D
Text #1' T- d0 j: j. c0 p8 ~( m
ID : 3
2 v" g  x7 ?: A' ]  A6 vFormat : UTF-8
- _: [7 Q  _$ l. l& V# zCodec ID : S_TEXT/UTF8* t5 M" m# d, _: Z' h7 z
Codec ID/Info : UTF-8 Plain Text' Z0 a1 Z7 P% ^2 D. a' x* ]: x2 f
Duration : 20 s 979 ms+ T: g+ u* [! m" x) C% n
Bit rate : 63 b/s
. l# t3 w) \" ]Frame rate : 0.334 FPS
: m8 q# B- |' S( UCount of elements : 7
2 M9 p: U! v$ LStream size : 166 Bytes (0%)7 X0 Y- B( g* ]: z* |; R& [
Title : Forced
% I( P1 v' }, Z% h" S7 _1 v' _Language : English
3 b" H7 o* O( k! _1 |Default : No5 `2 W8 d) C! W7 O: _' J
Forced : Yes, B! u6 z3 h. Q! c+ A8 R" u) c8 L

* _( ~0 ~# }- N
* f( w* [7 |5 S/ |8 F! Z- I
Text #2
! `( u4 H# w* OID : 47 Z0 C- r6 ]# E9 y, p
Format : UTF-8* J3 m' q9 D# U5 k0 u* o
Codec ID : S_TEXT/UTF8' I* `2 ]' v4 I: U8 u5 N" G
Codec ID/Info : UTF-8 Plain Text
/ T# J, c( E" s* e) _' S5 MDuration : 1 h 6 min
* e# j$ U1 f1 r! l2 c7 VBit rate : 99 b/s
5 V2 @  M5 \" DFrame rate : 0.274 FPS* k7 K% R6 L. {; W: w) X6 a6 _# ~
Count of elements : 1092
# @8 y. T. [7 {, v1 |* L$ q$ l# sStream size : 48.3 KiB (0%)
$ T& E6 I2 _2 gLanguage : English/ ?4 j) ^6 S2 s* ]& D- [' o8 v
Default : No
% _$ @9 |) f9 R$ |9 l. n1 bForced : No
% n9 c7 F2 I/ _% J
  U; K$ R' j: x3 [

3 g5 Z$ i* v, T. @$ k/ }1 ^: a3 T) nText #3
) j+ n* J6 T5 sID : 5
) N2 p* T" B4 i1 n; bFormat : UTF-8; |8 }: v9 J# D. m- W% w
Codec ID : S_TEXT/UTF8. o, Z6 |1 J" W
Codec ID/Info : UTF-8 Plain Text5 ~% S" Q& E) `& g1 R# x/ [3 Y" K* c
Duration : 1 h 7 min
7 E0 p8 F8 Q5 s* u: gBit rate : 108 b/s
9 X% k! v7 {" s# l. KFrame rate : 0.311 FPS
# l+ c, I9 ~5 E5 V" H1 M/ FCount of elements : 1255
% Y2 U7 L) l! b; O1 s: QStream size : 53.5 KiB (0%)0 ~  U- P1 u# c) a* {
Title : SDH( `& N7 l; s* G# z$ s
Language : English" E! W7 X# g* i, q; h/ Y. k
Default : No' ?1 O* g4 e2 M  B3 b
Forced : No
& ^* O" R" G4 P2 d3 k/ Q
/ y* E1 a+ ~: {% n# {" q; x. x

/ Q; X3 [" p! t! q/ V7 v+ cText #4
9 j/ T4 R; ]3 P2 A4 G8 xID : 67 e+ B3 V, o+ w# |( W
Format : UTF-8
( `% a9 i- H' T7 cCodec ID : S_TEXT/UTF8
8 H0 a9 O( v1 V6 b  E5 z$ r. _Codec ID/Info : UTF-8 Plain Text
. \! l7 i# e1 D0 o( F/ ]; E; BDuration : 1 h 6 min" [6 a/ w9 h' N8 ~4 A# e. D+ L
Bit rate : 158 b/s( @6 C$ y: A. B: o, ~) [
Frame rate : 0.263 FPS
! j. W) J; L- }6 ^Count of elements : 1055
, p: [/ Z) v6 Z2 q- ~Stream size : 77.5 KiB (0%)
1 C. [7 _: v7 z0 NLanguage : Arabic
" H" e. z  J3 e. k3 N9 ODefault : No
2 s( i8 \0 w( ~% y& s7 c1 SForced : No& S$ o- Z) w! {$ j9 a6 |. p2 U

) n- Y9 S2 |4 s4 w+ \
% a. E( N) S1 i5 R. @+ `5 M' K
Text #5
2 @" X; O" S8 U! w' S; YID : 7
4 e# B* ]; j1 F+ C9 H% WFormat : UTF-8
# O( i7 ?" K3 j( s8 ^& M/ m, a' P6 _Codec ID : S_TEXT/UTF86 ?8 ^$ I9 K# }6 r( w4 \: g
Codec ID/Info : UTF-8 Plain Text
( `1 J( }; P2 W! K( x5 K* T( nDuration : 1 h 8 min
- e2 [: A4 @/ RBit rate : 87 b/s
# F- R$ b; k; j. A* Z5 i3 LFrame rate : 0.262 FPS
/ ]7 X* }. H- |Count of elements : 1078
6 y9 R7 w. I, Z4 T) H. [Stream size : 43.8 KiB (0%), O, e3 {! ?- f0 S' r& \
Title : Simplified
8 ]( e: o) s! I2 ~Language : Chinese8 I" I+ B" B, T8 z& s# H$ R
Default : No
) ~6 {% |; ^0 f. M$ h3 YForced : No
, c8 r8 B8 z9 A1 R6 E0 d+ o+ W& y

* h. G: \' A% m& E& b1 v, m" xText #6( `# m7 L7 y6 q: o6 W" M
ID : 8/ P9 F' S. Y# U* W9 z3 M
Format : UTF-8
2 R2 S4 ]! n9 k: y* C1 t* jCodec ID : S_TEXT/UTF86 r! b& n+ {7 F) O8 ?/ @4 C1 P
Codec ID/Info : UTF-8 Plain Text& N! C+ ]2 F, ?7 ^+ a! G
Duration : 1 h 8 min0 R2 S, u& |$ {+ F1 @( x
Bit rate : 79 b/s
7 m% c, m' D" |7 w/ dFrame rate : 0.262 FPS
8 k: [) ?6 C' V3 x+ J# q5 A" CCount of elements : 1079
  D: I1 o8 r% d3 A& {, oStream size : 40.0 KiB (0%)( z# i1 b' J- \2 o, @7 p
Title : Traditional
1 g: d& ?9 X* R$ N, iLanguage : Chinese  U% ?' W1 ?: f$ }( Q
Default : No% q+ b, ?2 m8 T* ^- {" L; F) p
Forced : No
6 M0 A% b4 i+ q. X+ i$ q; ^! r, Z
5 @! m6 O1 q: R& }! W: x
  \' E( V5 L5 T, U' L) y  S7 S

7 u; G7 ]* t' F; J' m: t体坛秘话:NBA 球场斗殴事件(台) / 体坛秘史:NBA 集体殴斗事件(港)/体坛秘史:奥本山宫殿斗殴4K.Untold.Malice.at.the.Palace.2021.2160p.NF.WEB-DL.x265.10bit.HDR.DDP5.1-4K电影下载
) C" N7 U. [: V" ?6 s$ n3 a( b! x' l) r# w' p1 _
体坛秘史:奥本山宫殿斗殴4K.Untold.Malice.at.the.Palace.2021.2160p.NF.WEB-DL.x265.10bit.HDR.DDP5.1【简繁中字】【HDR 7.58 GB】
4 |8 C+ g( J% Z$ s

体坛秘史:奥本山宫殿斗殴4K.Untold.Malice.at.the.Palace.2021.2160p.NF.WEB-DL.x265.10bit.HDR.DDP5.1-SiC.torrent ( 19.62 KB )

" T# b2 U- ~7 V( c. p* D
0 @4 N$ x( J7 V/ ^

2 X  i2 _8 y3 P7 U- B) q' O
) N& K7 ?; {; {& T; O9 ^) h
登录 发布 快速回复 返回顶部 返回列表