开启辅助访问
 找回密码
 立即注册

领地 4K.The.Territory.2022.PORTUGUESE.2160p.DSNP.WEB-DL.x265.10bit.HDR.DDP5.1.Atmos-4K电影

#4k记录视频#时间:2023-04-28 阅读:299 回复:0

/ I; \0 `% J+ P2 g) e* { 092508mjb75nv57i52tndh.jpg.jpg
/ ~$ v3 `. J+ d- ?: o" e7 [8 F+ M0 V* ?2 h/ K1 E# z1 [" m
/ i( r& Z6 {( m4 f8 m
简       介
) g8 h% m" l1 M6 p
' A3 B" x  A) d1 {. z
       巴西农民网络夺取了亚马孙雨林的一个保护区,一位年轻的土著领袖和他的导师必须反击,保卫这片土地,保护一个生活在森林深处的无人参与的群体。
/ H3 d: A6 l/ f; O/ a. q' _. w: S; E# k$ M4 L3 l5 h' ]0 v
影片参数
领地4K.The.Territory.2022.PORTUGUESE.2160p.DSNP.WEB-DL.x265.10bit.HDR.DDP5.1.Atmos-信息
. B' J- q- f' l+ jVideo( Z% e9 P9 n: W% [( f7 J
ID : 1% W: c. V: z" _# t4 M
Format : HEVC
: r, a* q4 r0 X8 ]Format/Info : High Efficiency Video Coding+ W, S; C' a$ ^& U5 x7 ~* i6 W
Format profile : Main 10@L5@High
- v# \' X9 e  I; d. t9 l1 PHDR format : Dolby Vision, Version 1.0, dvhe.08.06, BL+RPU, HDR10 compatible / SMPTE ST 2086, HDR10 compatible+ ^* k9 b# a- t3 A5 x
Codec ID : V_MPEGH/ISO/HEVC
( S$ L5 a# `, U* tDuration : 1 h 24 min
0 q# i# m3 b  n% hBit rate : 14.6 Mb/s
8 R) n! j' P  i& o. JWidth : 3 840 pixels
5 s- Q- e% p( n7 \* @4 e$ cHeight : 2 160 pixels' B: H8 x5 B1 Z& l3 \1 r8 T: b
Display aspect ratio : 16:9
' u! N. z1 {' C$ rFrame rate mode : Constant
, ^: r, L$ d2 A$ x; y; {Frame rate : 23.976 (24000/1001) FPS
# e) R2 }1 E4 K3 l8 x' QColor space : YUV6 s7 W# W. z: Z6 c7 O
Chroma subsampling : 4:2:0
1 l3 k0 i2 C8 p, J( O4 z' F7 r# PBit depth : 10 bits7 ^: ?% R# H0 @8 Z- r! Y
Bits/(Pixel*Frame) : 0.0737 o" Q: Q( R5 w
Stream size : 8.64 GiB (95%)
, J2 R, G9 L: F7 R/ x/ YDefault : Yes, T( v, L  q1 ^+ a, f
Forced : No5 A  ?  ]2 s7 p8 s
Color range : Limited. G8 X- c$ u: o6 M, X- X
Color primaries : BT.2020, G7 G2 i' m& L! h3 m9 W
Transfer characteristics : PQ: }6 |' d/ j3 a# t5 I# a
Matrix coefficients : BT.2020 non-constant9 y! I1 O  U$ d+ b5 D9 d! |+ w& B
Mastering display color primaries : Display P3. a, L: F9 T: O) y/ p
Mastering display luminance : min: 0.0010 cd/m2, max: 1000 cd/m20 @& E' s. a) J* u( Q0 ]

) W/ w( J+ D/ }* _( l

& G) ]/ V+ B) L* V6 T, C) j8 FAudio& c3 D7 y) N8 A# [# s) ~
ID : 2
. m+ h3 K8 r5 X: IFormat : E-AC-3 JOC
% W6 n' P! f+ WFormat/Info : Enhanced AC-3 with Joint Object Coding% n1 V" w9 [" z! \7 \& @
Commercial name : Dolby Digital Plus with Dolby Atmos) P2 S3 t8 P7 |& \
Format settings : Dolby Surround EX
0 Y- r- j. ]& P) U- {; [$ e& `. Q# GCodec ID : A_EAC37 E5 j2 |0 J2 u& l
Duration : 1 h 24 min0 C% R( o( `+ R
Bit rate mode : Constant5 x! k( Y! g: V: O7 M# z
Bit rate : 768 kb/s, D) b& N6 s  u
Channel(s) : 6 channels0 C! g$ c, I- g' ^* T
Channel layout : L R C LFE Ls Rs
1 p. T& Q! U! cSampling rate : 48.0 kHz8 k% g: E/ ?/ }8 t1 t$ U3 p
Frame rate : 31.250 FPS (1536 SPF)7 f0 p9 O# T' c1 N  y  P0 C: F
Compression mode : Lossy0 }( e/ i& ~+ D8 M& E
Stream size : 467 MiB (5%)( A- C! c* w* V! E  v7 l, Q
Language : Portuguese
+ ]7 P$ Q1 O9 ]# a& c; XService kind : Complete Main
1 v+ l' b0 P! I4 v6 [Default : Yes
3 U, A% f7 R% QForced : No' v8 D; G& F) c2 o$ Q/ {) v
Complexity index : 16
2 y5 ]* }/ j. \9 e0 b* {  g  [Number of dynamic objects : 15+ U4 P( F! ~* Q. ~4 @
Bed channel count : 1 channel4 ~; k& J* r: L; C3 M9 [
Bed channel configuration : LFE
  Y- e+ B" v5 R* C5 {3 G; B$ p$ S  I; W) U
1 R5 A' d3 ?; _
Text #13 y* ?9 M4 J" G2 o  F% I
ID : 3
: K- L! y" t. b( v: M/ Q  O7 kFormat : UTF-85 C1 K% J5 }& O9 ], O5 S! P
Codec ID : S_TEXT/UTF8
: y  }' c3 h' ACodec ID/Info : UTF-8 Plain Text
+ ~0 i: G% k9 I' `1 [4 M6 MDuration : 1 h 24 min
6 \$ F$ ?  v/ g/ m  NBit rate : 46 b/s
+ l) [( [" K' z9 IFrame rate : 0.155 FPS+ @, ]/ I" T" S0 ^" X) j" v8 _6 E
Count of elements : 784
& l1 R4 x% ?, J4 K4 {- ZStream size : 28.5 KiB (0%)0 ], o- Z' X( c
Title : SDH
# ^0 J; U% F* v% VLanguage : Portuguese
8 ?4 X! v. K0 cDefault : No
! N+ A# L* {4 k7 G( I* s4 XForced : No
$ y6 Q; a8 i8 @/ m' W  ]3 J, ]% E9 Y8 s) i5 x5 s, X8 P3 L
1 C4 s" B# A" [7 Y
Text #2
6 u, l* O5 d% W0 I  E' Y+ M/ ZID : 4
, t2 H8 J/ H  b9 Y4 B3 GFormat : UTF-8, c% D2 _) |; H% P: m  ]3 c+ z' p
Codec ID : S_TEXT/UTF8
3 u6 F: n+ O( K4 m, d% c7 k! oCodec ID/Info : UTF-8 Plain Text
/ Y# G" J, r9 A( `. I2 o0 t9 D) IDuration : 1 h 21 min
- Z8 d% i6 n( f- B' sBit rate : 38 b/s
8 r6 E  p6 n; vFrame rate : 0.133 FPS6 o0 o: i7 i+ T+ Z2 y
Count of elements : 651' G: y- S7 n$ ~( m4 w# }  t! O
Stream size : 22.9 KiB (0%)
! D7 B( z3 ^" X& l7 ]" i1 RLanguage : Portuguese# b0 E( M5 C1 q" y' Q  b
Default : No, U% d/ n. ~3 e
Forced : No
0 V) U% D+ b# K/ y, R; s/ e
0 a. D5 D3 d7 Y
  y5 J( O# E& f
Text #3
6 A6 x9 m5 r* e8 f* d/ fID : 5
8 z: ?& E, S: `, g4 ]) K( ~2 {Format : UTF-81 E6 |) I" n! @1 p1 W) b) F
Codec ID : S_TEXT/UTF8
# p0 o$ D# D: B+ oCodec ID/Info : UTF-8 Plain Text
! M' I) P. D) O2 o1 g' V# ^Duration : 1 h 21 min+ O2 B- k2 S5 s! R/ L6 d. ]+ m
Bit rate : 35 b/s
7 F1 f$ t- r  F; a: }- BFrame rate : 0.133 FPS* z* _. s) t% y+ `
Count of elements : 652% x0 d4 r( X  [! L1 v7 [
Stream size : 21.3 KiB (0%)& o. O& p% }  G! ~. n. M0 Y4 w1 E4 z
Language : Czech' m7 w' Y- X& X& ]! Y" Q) V
Default : No5 a8 }. @, h0 A2 }" r) v
Forced : No
3 x' r# Y9 L+ L
4 K5 V2 H0 B& ^0 ], ^
# a' w2 R/ L" A/ ]
Text #4! A$ ]- D* n9 |
ID : 6
# r( D1 V8 s% Y+ }" N* @, A# R. m2 TFormat : UTF-8* ]) }/ J' @0 }  M% _
Codec ID : S_TEXT/UTF8
; c2 V4 n1 o% u$ @( CCodec ID/Info : UTF-8 Plain Text
7 g& H. b6 K  wDuration : 1 h 21 min
( Z- H, Z3 ]7 c2 ^' ^$ j: z4 \" f" hBit rate : 38 b/s
" h, y: x# X! {$ X" v# FFrame rate : 0.132 FPS
$ d& G) E+ V& NCount of elements : 649  ~  L9 g* p& q  X+ l. r4 y5 K
Stream size : 23.2 KiB (0%)
/ o! W, }# N; H; vTitle : SDH
! d! t$ B! G) C, l) qLanguage : Danish
2 i7 @! K; m) R% E7 XDefault : No
5 }5 n% T* u2 G6 M5 l0 X0 |Forced : No- K8 F7 @9 _- s' U

- O9 G9 J0 D/ ]$ }9 s

2 u; o) `4 C: ^* T$ O+ cText #52 U2 F) O. w  Y5 u. ~
ID : 7
- w$ v9 L/ |3 e8 f4 JFormat : UTF-8
8 d! E2 ?! q: _. L5 pCodec ID : S_TEXT/UTF8
; q9 o& L- {# U( t+ xCodec ID/Info : UTF-8 Plain Text4 }% {' a# ]0 ~- h
Duration : 1 h 21 min
. U2 p3 ?+ b7 S, _Bit rate : 40 b/s
$ O) n' g0 G9 P/ pFrame rate : 0.133 FPS, Q) N$ c1 s1 t- U
Count of elements : 651
) x" p- y) w. ^$ rStream size : 24.5 KiB (0%)# G2 E9 Y0 ]2 t1 V% T
Language : German
/ B% `6 Y9 l0 j( G$ X0 B3 ]Default : No
  G# [* Z9 _) R! c' EForced : No" m$ m$ a4 r6 ?. T

( `  `) t: U4 B7 [2 H
1 M9 t% {1 x$ x5 c% [& b3 _6 l5 a
Text #6; [. ^* F8 b7 }* W
ID : 87 ?3 N/ m: o& }5 q, c# W
Format : UTF-8- a, t# ^( o5 L# I, q+ _% u
Codec ID : S_TEXT/UTF8
5 L0 S. C9 P! j5 z/ e! uCodec ID/Info : UTF-8 Plain Text$ L* K' E7 W) D$ ~4 }0 b
Duration : 1 h 21 min
& ~2 A( i' X( q: t/ n+ U5 k9 p3 dBit rate : 69 b/s
! Z% N* y2 _: ~. w1 BFrame rate : 0.134 FPS& y; ~8 Y7 o, W6 A5 S. k
Count of elements : 658
% \8 k% g1 e( t3 t1 p- XStream size : 41.4 KiB (0%)
1 |$ H0 {* h% B8 QLanguage : Greek
3 e# _" U' C- X  j- tDefault : No1 m) @* R" A0 o5 @  T# w
Forced : No* Z: ~$ s$ h# P* }
# W  l- ]6 ]9 u% k4 `
1 u  _" |  v3 K4 w! i# Y* K
Text #7
/ B9 w0 i. F# ?* o  _# @8 iID : 9
" O; J; Q5 b2 @Format : UTF-8
& V# G4 ]/ K! q7 g/ DCodec ID : S_TEXT/UTF84 Q1 E+ D* u+ H
Codec ID/Info : UTF-8 Plain Text
/ M+ @, A9 h& H) G* A6 E7 Y, rDuration : 1 h 15 min' O) B. e7 ?/ }' y3 D
Bit rate : 38 b/s
% O4 \  f) k& m: x! L7 Y& o- e+ z. s$ DFrame rate : 0.130 FPS/ U  C  m3 k" l* T; R/ N7 g
Count of elements : 590
% i( d+ h. f# W' H# G1 rStream size : 21.5 KiB (0%)
# X# V9 p* J8 w1 j: w( g. l( U5 h0 pLanguage : English  U2 R' l( Z! S3 t
Default : No
% T! w5 E- `9 Z5 W: |Forced : No
: e* s* d2 q5 l- p* x  s( d6 s5 e$ T! y

, k- k; e* }: P6 C) t0 d5 H* kText #8) q0 ]3 N- ~& E1 C- ^
ID : 10
, o6 z' X6 ^1 g: a4 _9 X; KFormat : UTF-87 P+ B$ O# u" }0 Q/ h5 G
Codec ID : S_TEXT/UTF8
0 w( ^2 |3 L$ G/ a& x/ zCodec ID/Info : UTF-8 Plain Text
9 E6 h* {4 K3 a3 r# p: C5 IDuration : 1 h 24 min( X9 k! W$ |3 S0 {! o# C6 X7 o9 m( c
Bit rate : 43 b/s
* t' o5 {8 |1 G" |3 V; G/ _Frame rate : 0.151 FPS
2 }2 w, I$ ~" U6 L3 r& X: wCount of elements : 764
( W& Z& Y5 ^0 q+ ~$ vStream size : 27.1 KiB (0%)
  f- s5 T+ w1 h1 t3 t% sTitle : SDH# _5 w0 y5 N% k" h' G
Language : English
0 F& z! s/ H8 v- r" V0 xDefault : No$ ?, s$ |* u& ]5 ^  V: k
Forced : No6 b4 u0 ~1 }9 a) r/ T7 h; T/ W9 _+ V
: j$ ~( _, a% t+ \9 Q. ?( F
- b; j9 h) g0 g- c3 p- k  Q
7 s# G  O% P9 U* e* n/ f" C
& C) ]0 r" }: I+ y
Text #24) g9 @4 i; t9 f4 G4 _6 a- W- U
ID : 26* M( g/ g& d3 {5 O; j
Format : UTF-8" M5 `4 m; S; A& F" C$ t
Codec ID : S_TEXT/UTF8
  v% x, c2 R4 F4 t9 j+ B( d/ ^Codec ID/Info : UTF-8 Plain Text& z* u( F& |3 Z1 I! l2 f3 e
Duration : 1 h 21 min% N" ~, L, B9 x* Y4 p% v2 |
Bit rate : 31 b/s* d+ B  ^3 ^* m" S+ y! v, @9 @
Frame rate : 0.134 FPS
7 h& h9 ]5 T1 S8 ^0 u) p) HCount of elements : 658
) h$ Z0 I0 ~1 B5 J) pStream size : 18.7 KiB (0%)
& ~5 n3 U; u" d$ LTitle : Hong Kong
' n7 `; g7 H( i6 q) JLanguage : Chinese* ^6 v5 `% @8 c# G1 m
Default : No: c/ T0 M% F" W) r1 k
Forced : No
) e: J/ w$ `+ U4 b; u7 v+ _/ ^2 _3 x7 V% Z, D% q7 J

- s5 c0 m  _2 ?  m3 A, D; EText #256 C' y5 d. L# f" z2 t
ID : 27  h* v- G0 x6 [
Format : UTF-8
3 t% n8 G; y$ ]( jCodec ID : S_TEXT/UTF8
, y8 ]9 W+ l/ `: k: JCodec ID/Info : UTF-8 Plain Text
: e4 e) N8 S" F* s6 O' QDuration : 1 h 21 min
' k, O; o: p( _; ~2 B; j# y3 wBit rate : 31 b/s
0 u8 S( a5 M- |# G4 zFrame rate : 0.134 FPS
. P- o, @  p6 F6 _, g' pCount of elements : 6581 q: m4 @2 I4 ~& ]$ z& S& h
Stream size : 18.8 KiB (0%)$ @8 L( Z. C' [+ N- i0 ~$ W: P- I
Title : Simplified
" W5 }. T; g2 k. }Language : Chinese
, P2 b# q6 d. @0 yDefault : No% _$ v8 n) [* V  X0 ^
Forced : No
) I, D+ |+ Q. k5 D) E8 g
/ P2 d2 y3 l4 Q& K

) ~. {$ Q3 X6 E, {, QText #26
4 B* O. B5 T4 U9 h7 ?7 U7 bID : 28
0 y* m  s8 u7 R; N) {. TFormat : UTF-8
2 a# L, Y5 \* R% S: k2 mCodec ID : S_TEXT/UTF8
6 g; C% ]1 z' W$ a- SCodec ID/Info : UTF-8 Plain Text  x+ |& B1 C% e! r6 s
Duration : 1 h 21 min# d! b# k1 e+ D. g) [, T# o- Q  x
Bit rate : 31 b/s4 w! |: P! s: k$ l0 r( F2 S5 y
Frame rate : 0.134 FPS
& y4 M+ C; W. J8 oCount of elements : 6582 f$ L8 O- w4 }. J! F- Z
Stream size : 18.7 KiB (0%)
$ H6 d, R. V5 S5 \% ~8 k- u0 w' }Title : Traditional
; A1 E9 m* j2 KLanguage : Chinese
; ~. w; E2 G/ }/ {5 \9 c8 d6 WDefault : No
5 T8 r2 w7 @# I- A  o2 L0 g4 Q2 F4 XForced : No
3 R* d8 `; D0 d- y0 ~% J' R! a% E  b
Menu
/ F4 C) A- d* i. {" c8 H2 C* J' }01:21:49.159 : en:Credits
  v5 z- u) s( X( Y" t
/ N4 Y# M! g: H' o/ s: C  E0 v
领地4K.The.Territory.2022.PORTUGUESE.2160p.DSNP.WEB-DL.x265.10bit.HDR.DDP5.1.Atmos-4K电影下载1 l# x% L$ e: j# z9 s/ [: B

+ }# V! a% I' F( `8 z  d: W% [领地4K.The.Territory.2022.PORTUGUESE.2160p.DSNP.WEB-DL.x265.10bit.HDR.DDP5.1.Atmos【简繁中字】【HDR 9.10 GB】7 u; o) E) K2 ~' Y/ H& Y% g

领地4K.The.Territory.2022.PORTUGUESE.2160p.DSNP.WEB-DL.x265.10bit.HDR.DDP5.1.Atmos-APEX.torrent ( 23.4 KB )

% I' M8 o1 _# J0 _& x" q
1 W1 O& N# _" ]. M9 g6 Y

7 O& V3 X) x7 n' A, c5 B+ d7 I, E# d' P4 z
登录 发布 快速回复 返回顶部 返回列表