开启辅助访问
 找回密码
 立即注册

白”热:A&F的起与落4K.White.Hot.The.Rise.and.Fall.of.Abercrombie.and.Fitch.2022.2160p.NF.WEB-DL.x265.10bit.HDR.DDP5.1-4K电影

#4k记录视频#时间:2023-04-28 阅读:350 回复:0
' p8 ]! i3 ~  |% v  V
" Y, K  A: p' q0 u' r" J% {
7 J5 P" {$ x5 [& ^6 S$ V
092547ksuz0ewrs66n29bw.jpg.jpg - n# w# \+ h/ T# g  ]: }

4 ^" v1 X6 l5 h# W& |. a5 Q: _# H* w3 i
简       介
6 s$ S/ d- c0 D: k

5 g" s& T6 t* F  当年的潮人必备品!这部纪录片探索A&F在90年代后期及21世纪初所掀起的流行风潮,讲述该品牌如何凭借排他性而发展壮大。
4 k  h; t& T# o" z/ V* F& f5 q( R9 N! A2 d" O
影片参数
白”热:A&F的起与落4K.White.Hot.The.Rise.and.Fall.of.Abercrombie.and.Fitch.2022.2160p.NF.WEB-DL.x265.10bit.HDR.DDP5.1-信息
" g  ?/ \& ^8 iVideo' F0 G; l, q% Y! G
ID : 1
3 v, }/ ~0 M0 n8 h- r8 TFormat : HEVC
$ r) v' B2 [5 rFormat/Info : High Efficiency Video Coding
. z5 O1 r0 m# r8 {0 U$ bFormat profile : Main 10@L5@Main
+ @2 c* ^8 ?& G4 aHDR format : Dolby Vision, Version 1.0, dvhe.08.06, BL+RPU, HDR10 compatible / SMPTE ST 2086, HDR10 compatible: d  S; O1 ]8 }, F5 g
Codec ID : V_MPEGH/ISO/HEVC
% g: a2 C' \2 G1 i8 O  wDuration : 1 h 26 min
8 j$ Z9 A: o9 O# ?Bit rate : 14.2 Mb/s
) q+ p$ c2 A6 g+ B7 WWidth : 3 840 pixels
7 Y+ t5 m1 H% y: y3 n5 E# }Height : 2 160 pixels
# f/ r6 Q/ a) H! XDisplay aspect ratio : 16:9$ i1 v* m2 K. W/ I
Frame rate mode : Constant/ o: j- W4 R7 \' C$ S% Z- s( i# j
Frame rate : 23.976 (24000/1001) FPS
5 R* C& y- ?$ [" e6 A$ l: IColor space : YUV* I9 S4 k% I  D
Chroma subsampling : 4:2:0 (Type 2)7 B& X! ]0 I1 S& n2 ^
Bit depth : 10 bits5 n" D, \2 d7 l) I9 F( R
Bits/(Pixel*Frame) : 0.071
; i$ i* s- U3 j1 S7 i8 p2 V6 OStream size : 8.56 GiB (96%)( O: c/ P( r0 o; o% e( |& M8 u
Default : Yes- n* K0 [* s' i+ N" x, [/ c4 T
Forced : No7 W$ i3 ]8 V. l& B
Color range : Limited6 g8 F9 V; J; q1 O
Color primaries : BT.2020
  A+ R& b7 k/ ]0 [Transfer characteristics : PQ
; `2 L0 }4 H/ N7 c, o$ wMatrix coefficients : BT.2020 non-constant
* Q( _: Z; a  S( [4 KMastering display color primaries : Display P3) c: K" p9 p- Z! Z5 h4 g
Mastering display luminance : min: 0.0001 cd/m2, max: 1000 cd/m2
9 ?7 m1 B- I5 h. G  dMaximum Content Light Level : 10000 cd/m2" E# v) i$ r1 U; {6 R! v
Maximum Frame-Average Light Level : 895 cd/m2' t2 A& Y7 e( C

& r( P* s$ Y. k! n. F

, f0 S4 k/ R8 AAudio: k# M* K8 @' B$ x7 W* e, x+ f8 {
ID : 25 y9 V5 b; o3 I* i% P, a
Format : E-AC-3
, F6 w4 h/ {3 |& V* U6 L0 uFormat/Info : Enhanced AC-39 G: L( Q/ w; O# q7 H& G
Commercial name : Dolby Digital Plus1 o9 \, |1 J3 h6 Z: P7 I# c3 r
Codec ID : A_EAC3
/ U. r7 N) }3 ]Duration : 1 h 26 min
6 c8 V3 @6 ?4 Y  B% bBit rate mode : Constant! f1 v0 b& g) Y' s1 ~0 u
Bit rate : 640 kb/s0 T% a  y. D( K/ f9 j
Channel(s) : 6 channels8 o+ i1 F! N+ C3 ~) s
Channel layout : L R C LFE Ls Rs
9 [0 M7 T( g2 o" [) k9 {, M' E% zSampling rate : 48.0 kHz- c6 C- @& y& }5 q4 {# l" q! a
Frame rate : 31.250 FPS (1536 SPF)
* O! g. ^( c+ A1 a( m1 M/ xCompression mode : Lossy& W7 l# g' X8 ~2 b8 }, t1 s( ?
Stream size : 396 MiB (4%), t" q# ~( K6 {. c% O. d
Language : English' ]' f* [* E; L0 y( e
Service kind : Complete Main
7 K* t# I2 [+ u4 M7 F; d9 p& HDefault : Yes* E; b, o) Z) ~& I$ S
Forced : No
% L- i7 d1 R  m( V* V$ d3 ~; J6 P* _3 r
! V, N& l% K3 g1 y- U6 {" ~
Text #14 Y( \" A5 v! g( p* a1 R1 B
ID : 3
) |2 L6 o0 Q  r2 J3 W5 WFormat : UTF-8. `5 `' Y2 b4 \: t; Q
Codec ID : S_TEXT/UTF8
! ?  C% D" L! ]7 Z( _. xCodec ID/Info : UTF-8 Plain Text
) v( d2 C3 C% P  kDuration : 1 h 26 min/ {' Y# ~5 ?6 O3 a7 V1 o6 s
Bit rate : 140 b/s# n7 ?( }; @8 t  O' {/ I
Frame rate : 0.297 FPS
3 M( N- L) M/ V! x2 x4 y( _3 z6 BCount of elements : 1538) p9 ^" B9 \% m1 |
Stream size : 88.4 KiB (0%)
+ r$ B2 @. |' V; b3 {& NLanguage : English+ N$ e: ^) y+ b2 ~% H  g
Default : No
, P: Q( [- B) {3 rForced : No; x! s/ |( N- e- i
1 h0 E$ t9 f) O* `
- t9 i0 X* G! T& a. S! j  p) W1 r
Text #2! Y( L& u1 U1 ?: ~, X( l
ID : 42 B4 X0 o" F+ t
Format : UTF-8" ]$ p# y7 a4 x1 `& h/ b
Codec ID : S_TEXT/UTF85 Y" A  V5 ~" `1 ~# J3 Y
Codec ID/Info : UTF-8 Plain Text8 v0 |$ _4 X1 ]) l
Duration : 1 h 26 min! Z) |. [) k( v' Q9 B: D' |
Bit rate : 143 b/s; v  ?* S* T1 [' B/ Z) q. w! f
Frame rate : 0.302 FPS# l/ m9 ]( ^" o& w$ T$ M
Count of elements : 1560
( z: c$ U& L* I  v6 a, U* DStream size : 90.6 KiB (0%)% N9 p  R6 t0 B2 g: l9 g- e
Title : SDH: j  H& r2 V2 `6 a% R/ j; E- R( v$ _
Language : English: [2 v% @' Y/ G
Default : No
/ L0 _. N3 z" r7 Z/ o* u7 CForced : No" u- x$ e# r' n
! s4 t5 e0 [% S& U) @3 b. h
2 p1 X" ~! G, F: @3 i& s
Text #3
* D* M+ G+ c0 w, v" ^ID : 5
" [7 C) q" n9 g( k  Y: wFormat : UTF-8. G$ u4 U7 h  w# e; f3 N
Codec ID : S_TEXT/UTF8
+ s" j, C6 P# v3 G  j, y3 Y' |# j; HCodec ID/Info : UTF-8 Plain Text( U6 R3 q3 H( x( J# k
Duration : 1 h 26 min1 }9 W+ S' K  d8 N
Bit rate : 190 b/s- Y0 E  N( A+ H% f0 z! ?2 {  w
Frame rate : 0.297 FPS
9 ]  ]/ p' G+ W$ WCount of elements : 15359 W/ [4 @5 F# W- Z; D2 h
Stream size : 120 KiB (0%)! j! `4 v( I) O: C1 ]- u
Language : Arabic% n" E! ]. W8 U+ M6 m! k
Default : No/ y9 Y3 u3 [& Z; U( k
Forced : No: k! U* x- r9 X; K9 \

6 t8 I6 @* Q& P6 }- f. G

4 x, I% B) a/ X/ cText #41 I7 [  S! D1 d, _
ID : 62 R) A9 l, \. O' e: {3 a
Format : UTF-8
+ e; R, w& a7 l* s3 F( P1 J& cCodec ID : S_TEXT/UTF8
" S5 h" [  f8 C: D9 l; ^# jCodec ID/Info : UTF-8 Plain Text0 M' _" z# V4 a2 B
Duration : 1 h 26 min
, D. {- j2 t4 V$ wBit rate : 102 b/s
* `" L8 q& r" v4 G* K& uFrame rate : 0.295 FPS
0 X+ d0 c# e9 `& g. dCount of elements : 1523
! ^9 V! P: x! R- \# @" }Stream size : 64.8 KiB (0%)
  Q9 J  e6 ^- Y. p- pTitle : Simplified& n6 q. {" v; g& s& |9 @' l7 r% n
Language : Chinese( p6 F6 W9 x+ r& v! {/ \9 _
Default : No
) I' P/ G& J8 T6 VForced : No
; J% A; }+ ~- n2 X9 V, r( t
) u- y. J& _" L) C9 W
2 X; y' V$ l% d
Text #5
& X( H$ x6 u% E1 n5 e4 f' k! PID : 77 p& R/ G+ w1 d+ [; V! U
Format : UTF-8
' M$ d5 I, v9 W2 s# S# o: a  v* bCodec ID : S_TEXT/UTF8
/ K7 o7 g4 W& X( t4 CCodec ID/Info : UTF-8 Plain Text
; E5 K( K2 L1 B2 v% }4 J3 x& mDuration : 1 h 26 min3 }+ ?* d( s( N; N9 I! a$ V, H
Bit rate : 102 b/s8 s* W, |+ I3 z. s, a
Frame rate : 0.299 FPS
5 I1 w3 }9 b, P, [/ x* C) l/ }Count of elements : 15448 |3 m( H# m0 d( U
Stream size : 64.5 KiB (0%)# A! p5 x. F; h( y; D* n
Title : Traditional: C9 i2 I4 a- |) V
Language : Chinese
: F& }# g7 W8 R9 a5 b7 Z4 BDefault : No) L- b0 q$ _0 u
Forced : No

. ?& Z5 d4 ?$ }
' ~# d! K+ @: z: a+ w+ ?4 C, n4 p3 P$ j- F3 Q: V" b: i" [9 t

( q5 M$ U; `$ L+ L: T白”热:A&F的起与落4K.White.Hot.The.Rise.and.Fall.of.Abercrombie.and.Fitch.2022.2160p.NF.WEB-DL.x265.10bit.HDR.DDP5.1-4K电影下载
: e- Q7 L) \* R  `  O6 v7 q
! g2 q( D- r& v4 L: j( M% `0 @白”热:A&F的起与落4K.White.Hot.The.Rise.and.Fall.of.Abercrombie.and.Fitch.2022.2160p.NF.WEB-DL.x265.10bit.HDR.DDP5.1【简繁中字】【HDR 8.95 GB】- O- y3 V+ y- c2 j# u6 y

“白”热:AF的起与落4K.White.Hot.The.Rise.and.Fall.of.Abercrombie.and.Fitch.2022.2160p.NF.WEB-DL.x265.10bit.HDR.DDP5.1-SiC.torrent ( 23.09 KB )

' T# K3 k. b  W+ }5 J$ E8 a
3 V7 v- C2 a6 t# j6 Y% ?; r
登录 发布 快速回复 返回顶部 返回列表