开启辅助访问
 找回密码
 立即注册

白”热:A&F的起与落4K.White.Hot.The.Rise.and.Fall.of.Abercrombie.and.Fitch.2022.2160p.NF.WEB-DL.x265.10bit.HDR.DDP5.1-4K电影

#4k记录视频#时间:2023-04-28 阅读:256 回复:0

3 z' N2 f9 ~8 ?7 n3 l: h3 B3 e# G0 r$ X

) d4 @* N- H# p: ] 092547ksuz0ewrs66n29bw.jpg.jpg
9 [" A/ H! v" Z: A. G. c, X6 c, y' @/ K. c$ U

, j+ `* p0 Q' B, r* b简       介
  _* _# W' @2 D. e
2 e5 B" E6 B5 H. P5 m; W( `: z# {
  当年的潮人必备品!这部纪录片探索A&F在90年代后期及21世纪初所掀起的流行风潮,讲述该品牌如何凭借排他性而发展壮大。
1 m: o) h( e: u. r9 |3 n8 V
5 R7 w5 u. _$ M: U# _% [影片参数
白”热:A&F的起与落4K.White.Hot.The.Rise.and.Fall.of.Abercrombie.and.Fitch.2022.2160p.NF.WEB-DL.x265.10bit.HDR.DDP5.1-信息
7 x8 u% V6 G( P# pVideo
6 o$ e3 `( e5 C$ QID : 10 x: x# y8 k5 H8 t+ I2 A" ~! T
Format : HEVC$ H* v0 k+ q3 P
Format/Info : High Efficiency Video Coding/ z# l9 a% L9 e; z. \
Format profile : Main 10@L5@Main0 z0 M) n& |7 u4 y
HDR format : Dolby Vision, Version 1.0, dvhe.08.06, BL+RPU, HDR10 compatible / SMPTE ST 2086, HDR10 compatible
5 p! b5 K) U, ?% uCodec ID : V_MPEGH/ISO/HEVC
3 a7 B) R7 \& D/ q0 h  B1 ADuration : 1 h 26 min
$ X8 `, O. C' T, x# hBit rate : 14.2 Mb/s" j* s/ Z) R# c& P' H9 Q
Width : 3 840 pixels" r) e) R! K5 E9 q$ S
Height : 2 160 pixels
+ g, j4 ^8 s7 @Display aspect ratio : 16:9; O- D* g+ n, d" h9 D
Frame rate mode : Constant
: h) v, I4 ]* f5 H; C( J; E7 e0 _0 OFrame rate : 23.976 (24000/1001) FPS0 O3 I% K6 ]. U( |
Color space : YUV" Z& [# p6 e2 j6 {' m
Chroma subsampling : 4:2:0 (Type 2)
' _: U& }% z$ N' X+ vBit depth : 10 bits
% d7 N3 Y; J$ S/ ABits/(Pixel*Frame) : 0.071' h& ~, L) X; q" E1 Z' |% y
Stream size : 8.56 GiB (96%)/ ]1 O% [9 Z2 ~# p( `2 `$ j
Default : Yes' U5 K. A, E& e5 q
Forced : No" I3 m& u& f" ~$ e( E* D
Color range : Limited
$ C# ]  k. }3 EColor primaries : BT.2020
/ x! i; e) }9 s! V1 R9 ?% GTransfer characteristics : PQ
' ~7 U! m& @' x5 E* mMatrix coefficients : BT.2020 non-constant" L$ W" Y4 q8 r. i( T, c! w  s
Mastering display color primaries : Display P3
7 @0 |1 D0 @6 ~+ g7 p$ x6 rMastering display luminance : min: 0.0001 cd/m2, max: 1000 cd/m2
/ U6 S; }5 Z' c7 l5 VMaximum Content Light Level : 10000 cd/m2# d6 G: Q0 C  C# u" f
Maximum Frame-Average Light Level : 895 cd/m2
' k9 o# Y8 M" m7 d& p) ]- e2 q/ y1 Q+ ~# ~6 a/ V

% z- l: ]5 h2 OAudio5 l: \. d9 B* A( s/ L
ID : 2
* S( g* M% s4 s4 l! AFormat : E-AC-3, B; |7 Y& R. Z+ a' O) y- X
Format/Info : Enhanced AC-3
; D* v! X& J/ {( dCommercial name : Dolby Digital Plus
5 G' L6 v& q6 J; aCodec ID : A_EAC3
1 M! H* ?# ?) RDuration : 1 h 26 min
: P6 M) o( q/ O' ZBit rate mode : Constant  G7 [" U$ |5 }$ @
Bit rate : 640 kb/s
& m% l$ ?4 k+ X# `7 K' @Channel(s) : 6 channels
' V  B  a3 C4 Z2 qChannel layout : L R C LFE Ls Rs. c$ m8 I0 @; {4 b! P
Sampling rate : 48.0 kHz
, p* Y9 `) o3 c* L% {Frame rate : 31.250 FPS (1536 SPF)4 d! ~! |& Y: D9 a* I) c
Compression mode : Lossy( g7 c# J% X$ Y
Stream size : 396 MiB (4%)
8 Y* t+ y$ n9 p3 X1 E* N* q$ f; Q' PLanguage : English8 v2 e# P& w' q+ _! D3 p
Service kind : Complete Main- _& M2 G# g; [9 {5 V, S( ?7 I
Default : Yes5 d+ c& F5 ]7 M, @
Forced : No
, i1 m7 `; H& O' m: D* j
; s. `, a: A5 t# H, V  A7 Z

8 M9 J' d) }( V, Q' s% r5 R% MText #1
9 V" L% r( L. KID : 3
0 M  C' r8 g& i; C0 zFormat : UTF-8
2 O2 Z7 }1 X2 Z0 K/ A; S/ g2 ICodec ID : S_TEXT/UTF8- T. \1 e! _% @/ x
Codec ID/Info : UTF-8 Plain Text
0 c; o: t5 F. PDuration : 1 h 26 min7 L: r- H' G2 v$ e
Bit rate : 140 b/s
) z" i6 Q% M) \2 j" h& h& OFrame rate : 0.297 FPS
$ @" N( j5 ^) }) W1 p! ?- o) PCount of elements : 1538# l; @+ P- f7 g
Stream size : 88.4 KiB (0%)5 h: ?3 }1 h+ R% d' A
Language : English4 J% d- N" {! U2 g" n9 B; Q
Default : No' D4 C+ L- e8 L/ i# p; t
Forced : No
) Y- l2 S4 p5 S6 q" }& s& [# v! i
2 w) s; \6 Z6 ?1 S) Y

: y: B7 q' q6 [2 N; \Text #2# V, Z& k+ k7 K! f, p
ID : 4' i4 a, ~" r: u4 D9 x
Format : UTF-8) W- ^/ q, y5 z0 y- {7 Y( m7 m
Codec ID : S_TEXT/UTF8
# S7 Z$ }# T' @( h/ bCodec ID/Info : UTF-8 Plain Text
) |- Y' J# v2 Q! g- zDuration : 1 h 26 min6 \/ `2 N; v+ J  \
Bit rate : 143 b/s
4 x4 K, K  P) H* d! z# zFrame rate : 0.302 FPS
  v  _4 C7 a" [* z3 qCount of elements : 1560+ [+ y5 v2 W( Z9 x
Stream size : 90.6 KiB (0%)
- l' F! M4 E% d/ q- H/ FTitle : SDH4 p  D) j/ L# J; S7 N
Language : English
5 V: m# @6 D) v5 ~7 \/ q* u6 oDefault : No3 t& x5 X, j& o: A( d
Forced : No
* S0 a3 m% ~: J& E$ u) P% o  L0 K4 V2 D( a0 f5 G7 O0 n; {' i

5 m0 \7 E* @. tText #3
; Y1 `- d+ [% {$ XID : 5
9 s3 v" P9 h* T8 CFormat : UTF-8
* w' ?& o# ]4 i/ X+ K/ [& R7 zCodec ID : S_TEXT/UTF8: Q- U, ]; R! R3 L% o
Codec ID/Info : UTF-8 Plain Text! i& |$ Y8 A  n# B6 B* P
Duration : 1 h 26 min
) i4 r+ K+ s/ U8 b; DBit rate : 190 b/s
; i/ j0 u& Z- a) e0 @Frame rate : 0.297 FPS) b% C, D, j% Z" \
Count of elements : 1535
, l- Q" i8 z3 A8 \; TStream size : 120 KiB (0%)6 r- K* u! G1 l4 o$ g
Language : Arabic
% R. `1 U" l$ E3 U; `- J/ U1 p, u7 UDefault : No
' O# ]" {8 v. i6 `* N7 d0 G: E  BForced : No8 d2 n2 j1 I6 T8 U* T: Y
4 [( [2 u5 L; G. a0 n( k& F( F
) @3 N: _9 R0 f
Text #4
/ k7 g; `8 r: v  f! I( S4 ^ID : 65 ~7 x$ P' h0 P* R
Format : UTF-8- o6 O4 Y% R0 P. ?
Codec ID : S_TEXT/UTF8
! g% C, Y3 x. N: c+ N- D0 h* |4 sCodec ID/Info : UTF-8 Plain Text
0 r7 i# _. ~; c% p3 lDuration : 1 h 26 min
9 m/ i4 w& W' w/ GBit rate : 102 b/s+ W; c; k1 a/ ]2 X
Frame rate : 0.295 FPS0 M7 z, f3 E. t, G
Count of elements : 15238 _3 i/ t% ]: t/ o. {
Stream size : 64.8 KiB (0%)
. n, G+ r+ w/ A1 kTitle : Simplified
% j# M) `% ?4 j, C8 l& NLanguage : Chinese
2 ]' L% p) q. E8 ^Default : No
- w  Q/ s2 ]/ t* y+ ZForced : No$ f7 A; E( Y$ F3 B8 \  ~

" A  G1 [3 T: M- ^7 J0 I* T

" q; o1 l0 C  C% Q- R# mText #5
% w1 x& R0 Z$ h4 Y& c8 sID : 79 G6 _7 C8 ~  e9 g; `- j
Format : UTF-8
/ _# p% M/ r. {) d$ [0 GCodec ID : S_TEXT/UTF8
: @2 ^5 \) ~# j. ACodec ID/Info : UTF-8 Plain Text
& g1 D4 m8 ^% j8 X% @Duration : 1 h 26 min
6 Y- d+ G& W/ w" SBit rate : 102 b/s
* ]3 U) y8 G" [9 uFrame rate : 0.299 FPS) k3 w( b* P7 t8 C/ a7 F  B
Count of elements : 15448 {! |+ f% V2 J- l+ }' j8 T! Z
Stream size : 64.5 KiB (0%)
; d4 n) q$ I/ e6 g1 \Title : Traditional! Z3 O: o8 L$ `, @2 f+ a
Language : Chinese2 `0 O2 |- b0 X4 D% Q7 d% z
Default : No  ]# o3 X6 k- c9 \- G% W
Forced : No
. w  a- D! ]9 i4 ~) z

6 u0 N5 N/ }' k
6 [4 w/ R1 Q- H$ S  O, q- G) N; v7 N* B4 K' o
白”热:A&F的起与落4K.White.Hot.The.Rise.and.Fall.of.Abercrombie.and.Fitch.2022.2160p.NF.WEB-DL.x265.10bit.HDR.DDP5.1-4K电影下载3 H! X2 P( s* _/ @9 x8 F

, q1 X8 l0 p' D& `白”热:A&F的起与落4K.White.Hot.The.Rise.and.Fall.of.Abercrombie.and.Fitch.2022.2160p.NF.WEB-DL.x265.10bit.HDR.DDP5.1【简繁中字】【HDR 8.95 GB】) _4 _* B% M) b  C

“白”热:AF的起与落4K.White.Hot.The.Rise.and.Fall.of.Abercrombie.and.Fitch.2022.2160p.NF.WEB-DL.x265.10bit.HDR.DDP5.1-SiC.torrent ( 23.09 KB )

2 y$ A1 u1 C* V/ [

9 h$ p7 i2 ~+ t1 g9 y
登录 发布 快速回复 返回顶部 返回列表