开启辅助访问
 找回密码
 立即注册

山姆之子:黑暗深渊4k.The.Sons.Of.Sam.A.Descent.Into.Darkness.S01.2160p.NF.WEB-DL.x265.10bit.SDR.DDP5.1-4k纪录片

#4k记录视频#时间:2023-04-28 阅读:318 回复:0
122542rz2om05olzmold7b.jpg.jpg 6 Y6 }5 W6 P/ C1 I: C: h

) v+ ?/ g7 D2 {+ d! p3 h# h) K' o
山姆之子:黑暗深渊4k.The.Sons.Of.Sam.A.Descent.Into.Darkness.S01.2160p.NF.WEB-DL.x265.10bit.SDR.DDP5.1-4k纪录片信息
$ J3 D7 Z! x& p6 W" k! iVideo7 b, c( _8 y4 r$ F) c3 g6 _" C
ID : 1
1 I5 f1 z' V3 n+ A8 ]' ZFormat : HEVC
( e: ?. `8 p/ bFormat/Info : High Efficiency Video Coding
8 Z0 K3 |1 j4 O( w: V2 i5 F" B3 nFormat profile : Main 10@L5@Main
+ `- B: n1 Q! \5 q" [. bCodec ID : V_MPEGH/ISO/HEVC+ d9 T) Y8 x9 p" y
Duration : 1 h 1 min
8 O( w3 I) K( E9 j' cBit rate : 11.7 Mb/s
. l# a. g, O/ [5 pWidth : 3 840 pixels
7 |) B- c5 i" t0 T. _Height : 2 160 pixels' K. u3 o( i; a2 j. t3 `
Display aspect ratio : 16:9
2 `5 v' x1 k5 @. W1 kFrame rate mode : Constant  |! j0 m/ X4 C0 W
Frame rate : 23.976 (24000/1001) FPS' T' D3 z% w7 L) U6 g9 }( V) I
Color space : YUV
7 o, ?. R! r( u) jChroma subsampling : 4:2:0
% K2 u+ {( H3 O# \( g4 p) T+ k. HBit depth : 10 bits6 f- z3 A7 h$ c% j" K
Bits/(Pixel*Frame) : 0.059
8 Z" o" i  u4 ]2 o# BStream size : 5.00 GiB (96%)
1 l9 E, {1 o9 ]% |7 LDefault : Yes
: ?# o# c$ V, F( ?! YForced : No
( O' l* v$ [1 `( LColor range : Limited0 {; A) D) u" A4 u2 D5 ^9 ]) d
Color primaries : BT.709: k: g9 C$ B- @+ D- D
Transfer characteristics : BT.709
- v2 I+ e: \3 pMatrix coefficients : BT.7093 x7 _/ V1 D% n8 L9 ~
9 a3 S) @; s& r

. H% ^+ @0 f6 zAudio
1 _6 N2 S' v0 A$ z# O7 e& L$ N/ h- bID : 2
7 A0 d# \2 u9 i6 n4 \; B) }  ^# kFormat : E-AC-33 i* y7 v& M: M9 ]( Q' g2 _, M
Format/Info : Enhanced AC-3% ?: t/ ?" @7 L1 F5 ~
Commercial name : Dolby Digital Plus4 K; x  z! v9 P' F8 N/ [* [
Codec ID : A_EAC3  m4 n: m0 @- E' a: c+ {
Duration : 1 h 1 min+ h  u6 a6 I. g: c
Bit rate mode : Constant
7 G( r( P. }# cBit rate : 448 kb/s
! I+ ?; [0 k% P/ U, w- cChannel(s) : 6 channels
, L/ z: C' n& y/ X3 rChannel layout : L R C LFE Ls Rs
! L& d$ ]1 S9 `/ I! t& @0 {Sampling rate : 48.0 kHz, f! N0 R4 _# y
Frame rate : 31.250 FPS (1536 SPF)- L4 L& P  Y6 s, K, t8 \
Compression mode : Lossy
, ^2 ~- o) U2 [. |4 ]8 JStream size : 196 MiB (4%)
5 n2 z+ b" G( x9 wLanguage : English7 q$ n7 v/ [5 w& q
Service kind : Complete Main- I. R! Y3 J6 H& O) }3 [  }0 z
Default : Yes+ K; K1 a  ^: r/ C& Y& X5 e
Forced : No6 S. }$ h1 ?$ i0 @3 W2 r7 N
+ D6 [4 q. y$ p+ B* o
0 s% v9 G& d: Y
Text #19 ^/ g+ m( @% H! \# \3 S
ID : 37 p" K+ l5 s' y. O& d- d
Format : UTF-8
7 a* g( M( L, N$ v7 c0 TCodec ID : S_TEXT/UTF8
: e* N  p4 t/ v0 H7 C! zCodec ID/Info : UTF-8 Plain Text0 q- R" Q8 o5 \5 |
Duration : 29 min 25 s  N! [$ O" r+ S8 S$ m
Bit rate : 1 b/s0 ~; S, B7 t; O# M& B1 n* z6 Y
Frame rate : 0.012 FPS
( v& D# @: d+ H: @% M5 sCount of elements : 21
  a* |8 l: \1 y* g6 v4 sStream size : 408 Bytes (0%)
! b* i6 u4 R7 L5 NTitle : Forced. }& T* L/ H% ?2 A0 j$ m2 H  i
Language : English0 R8 G: b; f0 }7 _; P- O
Default : No
* m9 i  |9 v9 k  q2 u1 SForced : Yes+ Y& i. C/ z0 t& M' I7 K2 ^

  P3 ]3 @! c( S9 p' b
. r! P5 @) W7 \
Text #2
' ]9 U) ^& v3 U* VID : 4
: D) C4 g' i$ NFormat : UTF-8; i: l; Q/ w9 D
Codec ID : S_TEXT/UTF8
+ g  ~8 h( ]0 V% \0 ICodec ID/Info : UTF-8 Plain Text+ k! e/ I+ b' f1 e3 `, h; a9 f
Duration : 58 min 54 s: l" n1 v( F) D6 @
Bit rate : 92 b/s7 q" l$ s3 c8 h* `) f
Frame rate : 0.253 FPS+ h9 y' [/ I6 `& D) A' S5 C
Count of elements : 894& o7 A) B; u$ }- p) {8 o7 n
Stream size : 39.8 KiB (0%)9 `, e; A3 P) i# w0 {+ A
Language : English- k1 s  y) }2 A6 q8 l
Default : No
2 @  [- j6 ?: M0 n! J+ V+ H! {Forced : No
) h0 c  x; `- w& D. C( g& C( I# L$ }! z, [. y3 `8 }  Q
  h5 N1 o$ I: {
Text #3
5 n$ C( s1 u5 JID : 5
! g$ N8 }4 q" Q& ~. Z( p1 j4 WFormat : UTF-8
( r3 i* ~9 T8 v! L) D- o. eCodec ID : S_TEXT/UTF8
  n' ]  k' n1 a9 oCodec ID/Info : UTF-8 Plain Text' H3 j# Y( ^% P9 o" i
Duration : 59 min 53 s
1 E7 J; C$ l) E( H3 @& k& K' wBit rate : 96 b/s% ?- K7 S8 D) e4 K4 A( p
Frame rate : 0.264 FPS
1 s  D4 I# q4 [Count of elements : 9501 n- ]. D. j( g* [
Stream size : 42.4 KiB (0%)5 G( u! I5 w6 m* B+ U8 G
Title : SDH
. U1 f+ n- W' b& T+ V' C, R' _8 FLanguage : English% W; y  ]; `3 g& o5 O
Default : No
7 ?/ d3 a5 P( D9 J9 P" g2 J  mForced : No3 n2 T2 B- d; G

3 u  N2 D' I4 h4 J) ~+ M0 w2 Y% G
. R% [1 {' C, X2 [* F
Text #4
$ u: U% n( H1 S+ Z  uID : 6
, ~0 V& a  ~; l: ?; C, k1 d( Q4 C4 Y# z; nFormat : UTF-83 _9 @5 n, s) a4 w
Codec ID : S_TEXT/UTF8
5 v$ [  S2 I$ n0 X" Q$ g2 NCodec ID/Info : UTF-8 Plain Text
# x* d- d% V! p* l, ADuration : 1 h 0 min+ Q2 x* y; N( T' ~. W; W
Bit rate : 143 b/s
! i- A/ p5 H$ \Frame rate : 0.243 FPS
' ^' A/ u. S. o- W+ z4 ACount of elements : 888+ n" I! e# i$ K
Stream size : 63.9 KiB (0%)
% {# f+ ]( j/ W/ T7 V. ALanguage : Arabic# l8 I: n' Q" M9 T
Default : No
- o+ H0 j# m% l' s, G8 H- f  qForced : No
# b1 y) t1 F& W, b8 [6 }
9 C! N- g" z! `
% s7 G* T: ]* ~
Text #5" Q# y$ J  `+ W! E* A
ID : 7; {9 R9 Y6 K& e) U  m& s  V
Format : UTF-8
' `6 m% d" B: Z" JCodec ID : S_TEXT/UTF8
& K+ b' u- {$ h3 k3 dCodec ID/Info : UTF-8 Plain Text: M3 `/ ]2 h+ `- ~0 q* r/ B
Duration : 1 h 0 min5 ?) f% E$ c( t4 O
Bit rate : 82 b/s8 t5 q1 {) g8 ?( Q& Z
Frame rate : 0.242 FPS
* v5 v3 f* {+ E# ]: rCount of elements : 885
1 E. `. ~6 i3 n, L+ A6 }Stream size : 36.8 KiB (0%)6 w0 f4 \, E" o& U
Title : Simplified  S3 c  U8 j6 _0 y* `# P
Language : Chinese9 B4 z" A5 v# G: ?5 N
Default : No4 f( Q3 ~) U' \3 T" X: m
Forced : No
2 u- b: N9 Q0 ^# `5 n6 ~7 P6 |* Z  o1 ~# ~0 ^- U1 X& ]3 R
- i6 @" _6 g3 }! f" X3 f3 ?
Text #6( ]# }! W$ `4 O7 E$ L% ^2 N! @/ e
ID : 8
5 p+ L# D5 @8 ~; ?; YFormat : UTF-8
, N, K! ~; w  {Codec ID : S_TEXT/UTF8
& l' H& @, M5 C( A9 e# J7 L2 VCodec ID/Info : UTF-8 Plain Text( @+ R* h5 m2 V  R4 B  z. L
Duration : 1 h 0 min
3 A9 T% k% ~/ O4 H3 A* P( X6 a( E. r" yBit rate : 71 b/s
! `# ?/ ^2 L1 S/ [. HFrame rate : 0.244 FPS
. t& M0 A8 m( R, }' L% z! t. v( `& c% NCount of elements : 8901 i  [! [* {5 J. l" V
Stream size : 31.9 KiB (0%)( \! K( H  [1 ]" N  {0 R' M2 S
Title : Traditional) N( |  F2 K7 k2 S( ^6 t
Language : Chinese9 M- |( ]# D2 r5 j, H3 n
Default : No7 B' ^# e# r: `- r, N* t
Forced : No

2 C0 o7 ]! N; n% L
) J! P5 A. F* C" d6 n' y5 T山姆之子:黑暗深渊4k.The.Sons.Of.Sam.A.Descent.Into.Darkness.S01.2160p.NF.WEB-DL.x265.10bit.SDR.DDP5.1-4k纪录片下载3 F4 R1 s, R9 n/ o; T

4 S9 e  a7 o; {9 _山姆之子:黑暗深渊4k.The.Sons.Of.Sam.A.Descent.Into.Darkness.S01.2160p.NF.WEB-DL.x265.10bit.SDR.DDP5.1-简繁中字【20.01 GB】
0 Y* ]- S& A' j( H/ I$ j7 r! B0 @5 g3 V% O" L) c1 F/ r
- X: |2 k8 M1 E0 P/ ~6 W3 S3 Q  `

% U% A8 U, ~, O! C4 ^0 u# Y# e7 X% _$ g4 t8 k9 T0 e; y
8 C0 z, l. ~, ^6 w9 N% T8 ^. h- C
% v  C5 a; O' I6 E* k+ `
登录 发布 快速回复 返回顶部 返回列表