开启辅助访问
 找回密码
 立即注册

致命收视 第一季4k.Killer.Ratings.S01.PORTUGUESE.2160p.NF.WEB-DL.x265.10bit.SDR.DDP5.1-4k纪录片

#4k记录视频#时间:2023-04-28 阅读:383 回复:0

  K2 d  G5 k; Z! w
8 a+ V0 S% }  S. R8 H3 y 123544m6gq0siil89st6ni.png.jpg * s% T" G9 D, a+ n; W4 n

" y8 X! D: z9 J& @  \& |
致命收视 第一季4k.Killer.Ratings.S01.PORTUGUESE.2160p.NF.WEB-DL.x265.10bit.SDR.DDP5.1-4k纪录片信息
) z. D! h$ N" R* ]Video: r' `. x! s. U% @- R8 y
ID : 1) M# z' H8 \- y3 t+ _
Format : HEVC
' Y7 ?9 c& G* P" r1 v+ E% V  ^. RFormat/Info : High Efficiency Video Coding
* Q7 E* m6 ?# d/ \+ jFormat profile : Main 10@L5@Main
, d0 E/ n9 i1 r$ |+ aCodec ID : V_MPEGH/ISO/HEVC  D. _3 ?. ?% h5 S& I
Duration : 58 min 17 s
, }/ l; |, ^/ S( z" o( MBit rate : 11.7 Mb/s
6 q4 h( \7 f: n. W6 u3 D& qWidth : 3 840 pixels$ Q( R. @1 b- `+ j" l! e
Height : 2 160 pixels
: |& I8 |1 G# {3 n6 gDisplay aspect ratio : 16:94 _0 w- g, B. p7 v3 \3 Y6 d, e
Frame rate mode : Constant: Y# j2 q$ n3 o8 g$ ?" _) U# K9 z
Frame rate : 25.000 FPS
5 u# x6 g5 R6 P. R- g$ h9 W2 P7 HColor space : YUV
4 V* x8 h5 p: I% uChroma subsampling : 4:2:0& A+ T( N' @& h# I
Bit depth : 10 bits6 b1 x) N3 R# M3 a1 g
Bits/(Pixel*Frame) : 0.056: j8 L. m+ y: M
Stream size : 4.77 GiB (95%)
4 `, s: u6 Y% R& e) F( f8 x% wDefault : Yes
8 k+ E% i: R" c8 V! v& hForced : No( ^. \' S. v1 q+ s, j6 f4 l- m
Color range : Limited
, @3 V. t# Y, C9 P" ZColor primaries : BT.709
3 k* ~+ T" C9 E; l/ X5 ITransfer characteristics : BT.709
+ U; E: u6 @( o/ n' YMatrix coefficients : BT.7097 O+ O7 R- y) D: ^, ?, r
4 ?5 t5 M$ \, d
" O4 ?% u  u1 p5 x$ Z+ E
Audio
- y, Y5 V& c0 U" CID : 2  O* _( A6 g" L: |1 G( u( g
Format : E-AC-3# P1 Q. b! w7 @* F4 l
Format/Info : Enhanced AC-3& |  f' r0 b* z8 ^( w
Commercial name : Dolby Digital Plus# ]+ z1 B: U8 d9 B4 t
Codec ID : A_EAC3: r' Y5 g' C2 k4 f# R7 m& ~
Duration : 58 min 17 s
& H- y3 a/ n% M9 k2 B7 q. y0 cBit rate mode : Constant  o2 |+ D* {4 U
Bit rate : 640 kb/s7 @/ d# R5 H( \  N1 M
Channel(s) : 6 channels
. i1 a$ r' X) d2 w# CChannel layout : L R C LFE Ls Rs- Z2 w- L- [% t# e0 H0 q7 t! c
Sampling rate : 48.0 kHz0 v7 o9 C, C+ f) f# h. k
Frame rate : 31.250 FPS (1536 SPF)) m+ ~& ~+ C! Z" M; ~& V5 F5 b, s) U6 @
Compression mode : Lossy
' @9 l0 e# L. [Stream size : 267 MiB (5%)
6 b% ?3 [* ~5 H; m! b1 _4 K5 xLanguage : Portuguese- a" L3 H8 ]$ y( ~# v
Service kind : Complete Main/ N$ f& N1 O8 {' |3 Z
Default : Yes/ [" G- g. i# n  B* x, u
Forced : No3 G' k. D/ C0 G% K; ~
5 L% n+ N0 D; Z6 {6 }. {) u
% Q3 D3 j! v$ z0 b( c' `' T
Text #10 S- Y; K  A% j3 d* @5 g
ID : 30 }+ C+ C4 |  a1 B6 d+ n
Format : UTF-8
# Y# ^# p4 f$ g7 j2 KCodec ID : S_TEXT/UTF8. f  u9 x" j9 x% w
Codec ID/Info : UTF-8 Plain Text6 B3 V1 \4 y: L
Duration : 57 min 42 s
8 ]2 K& Q* _) |7 M3 [Bit rate : 57 b/s2 W/ t8 F4 C8 y, U$ c# N
Frame rate : 0.200 FPS
! ]8 @! s( ]5 c2 b2 L9 ?, o9 TCount of elements : 693$ k8 s# c. {0 b) n9 V
Stream size : 24.4 KiB (0%)/ u& E3 q9 r, V5 d' O1 ]- M+ t
Language : English1 x% R, e1 H% d; V
Default : Yes
0 ]$ Q, N% Z( P# b$ |6 |, \6 v: pForced : No. i+ a( {( D, D, k  C7 r& {# e  J4 l
1 N6 U1 H  j/ ]  j! Z+ r: \0 Q

+ q/ |! Q" h4 i% ^Text #29 d3 V) D: s* u# M2 ~. W6 U
ID : 4
* t8 Y5 \  x# u6 G6 d7 G& A7 Z# \Format : UTF-8) O0 p* ]+ C1 W
Codec ID : S_TEXT/UTF8+ _3 o8 E! {9 l& q* p6 C' S
Codec ID/Info : UTF-8 Plain Text
! z# {7 E' e: V/ vDuration : 56 min 21 s
1 s- N( o- q1 RBit rate : 92 b/s5 m; W0 h% ?+ n( U& w. s) C, L
Frame rate : 0.205 FPS
" H% k% j; l8 SCount of elements : 694  O/ a+ K4 f' F' h4 Y
Stream size : 38.4 KiB (0%)
$ i5 ]6 D+ r+ F+ f# k0 V; q- z5 A. A) uLanguage : Arabic
2 G! w- [# S, X6 A' x1 BDefault : No" N! T3 q, J, h% b' s- a" i
Forced : No1 v# T1 n( p9 Q+ w, ~, e

  s* c/ m# e- c
- |% z! J  q" F0 s- W" W8 u" z
Text #32 D2 r/ s- c, Y# P  t% I
ID : 53 Q2 v& z+ _) K
Format : UTF-8
" ?6 X+ Q4 d/ R0 J, nCodec ID : S_TEXT/UTF8" d' H& H4 E2 Q4 k
Codec ID/Info : UTF-8 Plain Text
& Z/ b" l$ P! j- g0 ~+ L* f! fDuration : 57 min 43 s
2 B8 A+ v$ W5 \$ XBit rate : 57 b/s  o! p$ H$ `/ V- M: b5 d
Frame rate : 0.202 FPS
$ B$ b5 c0 h6 [+ p$ l1 d6 A, ]4 pCount of elements : 7008 n; `/ C# `. E# |+ j; J
Stream size : 24.1 KiB (0%)' C9 |# l7 \4 w, E, P
Title : Simplified" {! H$ h# z% p  e3 C) ]/ {
Language : Chinese4 \3 i- Y5 s6 d2 P; ?; U4 w+ g
Default : No2 |/ T, P2 R, o$ G
Forced : No
7 U% Z1 {' G9 y$ C# x0 b2 k+ D. h2 y8 n
: z4 C% R* c% \9 U5 T" q
7 N7 [' R% R0 b5 X) z+ y' L0 y8 J
Text #45 m: }9 E$ w2 X+ e0 ^9 y
ID : 6/ v9 P; f  f) G+ m
Format : UTF-82 L+ q2 z5 v# ^' _& u! L) C
Codec ID : S_TEXT/UTF8# J' S! ]0 @! }% f
Codec ID/Info : UTF-8 Plain Text
: A5 r/ Z1 }' A6 `Duration : 57 min 43 s6 p$ P5 @6 p4 L7 R' J4 o( ^- V! @
Bit rate : 54 b/s
8 o( Z' v) [4 `Frame rate : 0.202 FPS/ ^# o8 g! N8 s/ U5 w2 ~
Count of elements : 698
$ k( E8 D0 J& |: \) e9 zStream size : 22.8 KiB (0%)
1 m9 f, ^" H& PTitle : Traditional  [6 u4 r9 k. `6 x+ [7 H
Language : Chinese
. C# _9 M8 S( h+ @Default : No# R* M/ h- T# y4 r, a' q
Forced : No
* u# R; G3 F# }- F
5 r- T; j& N9 ^0 q
致命收视 第一季4k.Killer.Ratings.S01.PORTUGUESE.2160p.NF.WEB-DL.x265.10bit.SDR.DDP5.1-4k纪录片下载
- }6 S: q3 m. P3 [) \' W1 c" m, t9 D- e5 a/ B6 L
致命收视 第一季4k.Killer.Ratings.S01.PORTUGUESE.2160p.NF.WEB-DL.x265.10bit.SDR.DDP5.1-简繁中字【29.84 GB】7 ^1 u9 ?3 p! m2 l

致命收视 第一季4k.Killer.Ratings.S01.PORTUGUESE.2160p.NF.WEB-DL.x265.10bit.SDR.DDP5.1-SOUZA[rartv].torrent ( 38.51 KB )


0 r5 V! N7 m) K. _+ U7 S
登录 发布 快速回复 返回顶部 返回列表