开启辅助访问
 找回密码
 立即注册

致命收视 第一季4k.Killer.Ratings.S01.PORTUGUESE.2160p.NF.WEB-DL.x265.10bit.SDR.DDP5.1-4k纪录片

#4k记录视频#时间:2023-04-28 阅读:267 回复:0

3 ~0 b) G) F- V6 z( ~6 N0 r" I3 u, z: Y/ N0 R  x& u- H  ~& f- l
123544m6gq0siil89st6ni.png.jpg 1 i" r' k/ r' [' L) J

& M( V/ q" O4 @: Q3 U3 a0 s
致命收视 第一季4k.Killer.Ratings.S01.PORTUGUESE.2160p.NF.WEB-DL.x265.10bit.SDR.DDP5.1-4k纪录片信息6 o$ g6 T' r% f2 ]; o
Video/ P% P2 \2 x+ S- A
ID : 15 ]% t9 t# V% l5 I% n
Format : HEVC
5 J% h2 V8 z: y, _% Y+ I9 n5 VFormat/Info : High Efficiency Video Coding- q) N9 g( n3 M" z
Format profile : Main 10@L5@Main
; [) C- {9 R. X( |' ~' B: hCodec ID : V_MPEGH/ISO/HEVC- K8 m% K2 p# j. }. X
Duration : 58 min 17 s! L# O  Q  v, s6 j' U4 K% g
Bit rate : 11.7 Mb/s9 I+ j! e$ H! k$ p
Width : 3 840 pixels  \) N7 [$ R2 i8 \, G
Height : 2 160 pixels
& `% z4 Z& z& X1 N$ G/ nDisplay aspect ratio : 16:9
3 D! x& ^) }. e5 `Frame rate mode : Constant2 _, i" R) j8 y, [2 o$ N
Frame rate : 25.000 FPS3 |. h5 K# I6 k7 X1 y; |. w
Color space : YUV
7 e! L0 O/ k. P% [' S( H: ]6 x) @Chroma subsampling : 4:2:0
7 S4 z1 j/ v4 y+ C: NBit depth : 10 bits# E+ q+ h. ?& \% n9 R1 \5 ?
Bits/(Pixel*Frame) : 0.056
! `/ a8 m6 ^: h; e1 o* Z  O  B2 JStream size : 4.77 GiB (95%)* ?6 U5 J4 {# {& H
Default : Yes
8 Y: p" W2 E* \  }) @' U9 yForced : No' L) f2 y2 Y0 A3 q6 p) P/ e, \7 J6 h
Color range : Limited
) ], L9 K5 y4 y- x. J4 _# S+ |1 ^Color primaries : BT.709
/ E. v4 q! }; D; ^Transfer characteristics : BT.709$ T$ S& M4 R+ F8 W) k# \8 f
Matrix coefficients : BT.709
7 L' ]( r9 i" x/ E! r9 b$ {5 Y6 u2 y# u" T0 m& c

' Q8 A/ D/ M# x- yAudio
7 \/ u4 e: s3 J' y0 c8 E/ h4 m" ^0 \ID : 2+ G# _- s/ e, p5 ?' F
Format : E-AC-3% P$ }& X  z5 C
Format/Info : Enhanced AC-3
3 A0 Y" ?, T& `  f6 e  z( C% e$ VCommercial name : Dolby Digital Plus
! y- x1 t" w/ hCodec ID : A_EAC32 ]. R" B. W* i! E- E! E/ a: _
Duration : 58 min 17 s
5 ~  x0 ?* n. TBit rate mode : Constant0 ~& F5 `* h& y+ ]  w) H
Bit rate : 640 kb/s2 k& i; |) X) w3 \' q- C  j
Channel(s) : 6 channels
+ E5 Q/ X& U( {: ^Channel layout : L R C LFE Ls Rs2 F+ S5 A/ G7 I, Q1 E# E( C3 p
Sampling rate : 48.0 kHz
: J  Z: l' j2 r6 o- T6 c- dFrame rate : 31.250 FPS (1536 SPF)* U1 ^. V/ q$ ]) V$ Z
Compression mode : Lossy# k; T; y  j# a2 z
Stream size : 267 MiB (5%)7 j: J  V+ B& W
Language : Portuguese! m% h7 s# W7 [" x% u
Service kind : Complete Main
; r6 F8 ^. s% V/ L  w; qDefault : Yes
* T% N' C8 s+ Q( A, v+ G; {1 EForced : No9 e& n2 d  ~- M% k4 N. j( Y

; Q8 j3 ^5 j& p. \' l. [8 `- _

4 i) Q! n7 V7 D! sText #1
+ F/ B1 J& V8 Q, q+ i/ iID : 3$ C2 }; y. @+ ?' q
Format : UTF-8+ R& M1 Y# t- v) _
Codec ID : S_TEXT/UTF8
" N* `6 [$ P) k+ h9 vCodec ID/Info : UTF-8 Plain Text
9 ?5 w/ E' m* g. KDuration : 57 min 42 s
7 ~2 b* E1 d/ G/ S/ ^Bit rate : 57 b/s
# j4 w& g9 o. _% o0 ~, o/ MFrame rate : 0.200 FPS
. i$ t. D0 |  g1 gCount of elements : 693+ z- I1 Z2 ]( J) k7 T* ?, y2 F
Stream size : 24.4 KiB (0%)
" E9 ?3 s$ c' x0 r. c) ?Language : English
: Y% H* V& m% z, dDefault : Yes& P: }$ L& A# N3 V. X' l. ?
Forced : No
9 p1 O7 x- x  y" ^2 s* D4 d0 o- t  J0 j' [2 `6 k( d+ f, Y9 `2 ^; ~

$ S* A( U$ Y6 {) ^3 b9 c# W3 m$ c- BText #2
5 L5 a% x( V* AID : 4
% A+ _- }! q2 ^) g6 w5 P# j( V- z( BFormat : UTF-8% q: m- |' V, }. X+ ^
Codec ID : S_TEXT/UTF8
) X& B, o* L6 X% S3 @# R& FCodec ID/Info : UTF-8 Plain Text' H6 c1 R( }* N7 K- t  A
Duration : 56 min 21 s5 W: L' ?0 V& a$ w! A
Bit rate : 92 b/s2 Z7 s( r7 ^6 q8 `
Frame rate : 0.205 FPS3 J6 a) d! l4 X6 L4 B1 }
Count of elements : 6942 d7 E" u9 p' q. o
Stream size : 38.4 KiB (0%)
8 n0 A1 V$ L# RLanguage : Arabic, O3 J1 g/ t! Y0 c
Default : No+ P% w" ]1 w$ o/ S+ {
Forced : No' i( P! J! q: q( ?/ o

1 x3 F* }* e+ U0 w2 Z
8 b( I$ b% n, |( [5 ?
Text #35 J; J0 c2 i  c& j" I9 O, Q+ Z
ID : 5
9 P3 E# ?7 m' l" H/ A+ s5 }( x2 UFormat : UTF-8! F0 P4 K( E( v
Codec ID : S_TEXT/UTF8
' ^7 [$ Z0 a& D, jCodec ID/Info : UTF-8 Plain Text8 n% c  N5 N0 w, T4 N" o
Duration : 57 min 43 s
9 V& f* P: [1 P" U: uBit rate : 57 b/s# `4 X3 ]5 W; Y  Q& u( E  v
Frame rate : 0.202 FPS
' T! u8 v$ ~0 T4 p1 CCount of elements : 700
" R6 O& _5 ]8 }, S, B7 xStream size : 24.1 KiB (0%); q  K" V/ A0 |( K/ E8 |* p
Title : Simplified/ T4 U8 N2 q( i8 m1 W3 h' g; V
Language : Chinese
  n# O2 |  J$ M1 y$ X7 D! cDefault : No# `; ?4 v/ g; g% u3 s; R
Forced : No+ x$ A' ]6 Y  L- `( M2 y
7 {0 n3 l2 y- g1 t( O
0 ?1 w8 s/ c1 x! I
Text #41 b( @* m) E/ M# x, R
ID : 6
* Q" Z& m: n' H  T" ~3 rFormat : UTF-87 G. {2 s4 K4 @" t5 L: |
Codec ID : S_TEXT/UTF8* I, ~) s; q( m
Codec ID/Info : UTF-8 Plain Text# [+ ^5 p7 T5 E: w9 b
Duration : 57 min 43 s
/ d  K, j7 J( tBit rate : 54 b/s
' l+ B+ @! ?$ H; O% }* p# i4 O5 TFrame rate : 0.202 FPS
- a2 H9 T& \1 mCount of elements : 698
  w+ \; Z' v% E+ L4 rStream size : 22.8 KiB (0%)
0 ]5 [1 P. ~. j4 |( nTitle : Traditional- M8 ]3 r0 w8 D
Language : Chinese. h3 f+ r" t: D- G
Default : No
/ K. j& P' T8 w% h0 H# |Forced : No
/ P3 T' W- E1 K, d2 k
6 s# m* C+ }4 n# a
致命收视 第一季4k.Killer.Ratings.S01.PORTUGUESE.2160p.NF.WEB-DL.x265.10bit.SDR.DDP5.1-4k纪录片下载" }  E4 O: S* h
4 Z0 @. }2 S* I, Q/ a% p- @! f
致命收视 第一季4k.Killer.Ratings.S01.PORTUGUESE.2160p.NF.WEB-DL.x265.10bit.SDR.DDP5.1-简繁中字【29.84 GB】: D+ e, g- b9 m( R( |7 |  Y6 r% c  I

致命收视 第一季4k.Killer.Ratings.S01.PORTUGUESE.2160p.NF.WEB-DL.x265.10bit.SDR.DDP5.1-SOUZA[rartv].torrent ( 38.51 KB )

# y9 h) u4 T8 s; z4 `
登录 发布 快速回复 返回顶部 返回列表