开启辅助访问
 找回密码
 立即注册

杰弗里·爱泼斯坦:肮脏的财富4k.Jeffrey.Epstein.Filthy.Rich.S01.2160p.NF.WEB-DL.x265.10bit.SDR.DDP5.1-纪录片

#4k记录视频#时间:2023-04-28 阅读:402 回复:0
124941fl92gs99vvjkkj2m.jpg.jpg
5 n; f4 Q+ ?  J0 B" [( Z4 _
& J" n5 `8 D- M( \
杰弗里·爱泼斯坦:肮脏的财富4k.Jeffrey.Epstein.Filthy.Rich.S01.2160p.NF.WEB-DL.x265.10bit.SDR.DDP5.1-纪录片信息; }+ a9 w( R, t- u( t' h
Video" `+ ?7 J5 e" W/ b  U
ID : 1$ J* E3 d9 {9 T& c1 ?
Format : HEVC
4 H# `9 u5 Y, {8 M1 j* ^8 q9 t7 _Format/Info : High Efficiency Video Coding+ p1 w' Y; B) H) i3 Q- l% ^
Format profile : Main 10@L5@Main
9 m# n( ]2 ]. Q7 G; bCodec ID : V_MPEGH/ISO/HEVC
/ f9 H7 ]- l0 ]" ~* s! T: z  u# V, BDuration : 55 min 56 s
7 _7 r; s' g! C, M/ SBit rate : 11.4 Mb/s
9 X1 [/ l& r; i( A: r- f6 TWidth : 3 840 pixels
% X2 w; S4 _. f" qHeight : 2 160 pixels
( d3 m, t4 M  g' P3 SDisplay aspect ratio : 16:9& ~0 {+ N' W7 T; W- c1 a3 w- G
Frame rate mode : Constant3 W4 e2 v# g! d3 ^. F+ w  A
Frame rate : 23.976 (24000/1001) FPS& _) G2 ?. g0 q1 H. m5 Q! {$ p
Color space : YUV/ R, t4 S( l# X1 o) E: o: S) ~3 t
Chroma subsampling : 4:2:0
3 n$ s5 n+ N1 [) K, T/ r- N5 wBit depth : 10 bits
4 @* @  s* `% y; T( g3 ?Bits/(Pixel*Frame) : 0.057
. W; X+ j( O7 W2 e' l( eStream size : 4.45 GiB (95%)  S) L- F# ?( M) G
Default : Yes5 f. K% c, |# }! P) z! B$ b7 t
Forced : No" j- [, b$ Q/ {& y
Color range : Limited1 u) j& W% B2 @1 r9 |
Color primaries : BT.709! @$ C, ]! u# e( }8 ^6 g
Transfer characteristics : BT.7099 l- m" x- s7 Q/ G7 `/ }
Matrix coefficients : BT.709
3 X: m9 E7 p; `8 e7 a
" B  w' b2 X: _- f8 ]! S3 u& F

& h: d1 l4 Z/ y  Y- n/ q. ~1 R4 U. P  OAudio
; a7 j* e/ A* G+ p" _) UID : 2) @( l1 m& p% E# u4 G
Format : E-AC-3# S7 y# Y9 x1 H) O, z- ~
Format/Info : Enhanced AC-3
) {- |5 ~" X4 `2 b9 o7 q6 {* RCommercial name : Dolby Digital Plus
2 Q) K+ b. U* b; r( N$ e  vCodec ID : A_EAC32 c2 e2 k+ ?7 I6 v3 D2 U
Duration : 55 min 56 s
# C7 i; Y2 N4 k9 q! `Bit rate mode : Constant% B/ {2 ^! b4 ]
Bit rate : 640 kb/s  I, v7 {2 V  Z) S
Channel(s) : 6 channels, p5 ~9 A  T: ?$ C0 M' p
Channel layout : L R C LFE Ls Rs5 T, p* k  }  g, M9 H
Sampling rate : 48.0 kHz$ K3 Z' K2 g$ g3 G# s' `$ D6 _# h
Frame rate : 31.250 FPS (1536 SPF)
6 e$ ~5 e( [/ t! OCompression mode : Lossy
+ h5 \6 ]7 ^3 `0 w; K+ d% tStream size : 256 MiB (5%)5 R+ }$ B* |+ I% ?3 z# G
Language : English7 i; B2 F% F7 g
Service kind : Complete Main
8 F4 n, m0 X- Y6 }( t) ~" aDefault : Yes. l! v1 V, u2 S8 r7 [6 D8 i
Forced : No6 [  ~+ k' {# @7 r

2 F, t+ B% q- G, j; p  c

* p. C2 B# \( G3 X6 d  @Text #1
8 S6 R5 V1 b" z4 e8 d" ~" HID : 3
8 p  d* e, w5 D6 s) `2 NFormat : UTF-87 j: Z2 ]" b8 n: X1 c
Codec ID : S_TEXT/UTF8
+ B* A$ w" _( _$ m; sCodec ID/Info : UTF-8 Plain Text7 @+ J8 K, T# O" o, {
Duration : 13 min 30 s
* o' M% r$ W" ^. y. uBit rate : 2 b/s1 j* t3 d  f3 V7 W" ?
Frame rate : 0.009 FPS' n& F7 j! P# n% l% ^0 C+ ^1 W$ ]4 _
Count of elements : 7
! H* M  A6 i- l  ^Stream size : 229 Bytes (0%)
' @0 ?! H! v3 x( W) UTitle : Forced
( Q, g" t3 g' U- w: W- ~- fLanguage : English
% q. e5 {' A+ H2 C1 A$ LDefault : No
: V/ Q3 f( a+ B) EForced : Yes7 C0 f6 C" O7 F: e
9 W' H$ w% }4 z2 o3 A) s$ s

9 o" ]" f8 v, J! g6 mText #2
: k( ~1 f4 {, ?, t. s( hID : 4  ?, D7 b' U0 O* C
Format : UTF-8
, J5 V% f, q0 Z1 _/ qCodec ID : S_TEXT/UTF8
; ]  |3 T# i6 v! q9 k% FCodec ID/Info : UTF-8 Plain Text
. u8 @4 v1 b* O( lDuration : 53 min 50 s( A9 y. s9 g  F; b0 O( M3 F/ D& j
Bit rate : 92 b/s
5 l0 H4 f: A) t1 Q5 B- fFrame rate : 0.256 FPS  e# Z2 W" B& u& f4 T) o
Count of elements : 8278 W4 O# n! g7 Z( r& z" C
Stream size : 36.5 KiB (0%)
3 C& }3 g" J/ _; B6 N) L0 N+ w" g+ ELanguage : English
- q8 D% |3 q! }  W1 L3 A; yDefault : No4 o2 U5 W1 t% f" J, C# T- q
Forced : No! {. X$ k$ J  |! D: C9 R5 }- @

. D# ?' q& D& N# t; ^

1 ?0 k( r, U0 G8 QText #3
. Y6 l3 A: U( f7 UID : 54 {+ s8 C- N- P9 a
Format : UTF-8
# T8 k, m. C% s: \% H" \Codec ID : S_TEXT/UTF8
: d' N( ^% i- ^8 N# ECodec ID/Info : UTF-8 Plain Text
0 `5 _6 M+ y6 `; K( C! sDuration : 53 min 50 s2 F' J% ^& \: F3 t' t. Q
Bit rate : 98 b/s
9 O+ B6 \: ~# T6 NFrame rate : 0.265 FPS
( h6 W( r$ c, g$ K5 D- VCount of elements : 857& {. p5 M  d; V1 k: ]
Stream size : 38.8 KiB (0%)2 f1 R  O* M2 d! D: p
Title : SDH
+ b3 \4 p' q* p4 {6 Y' cLanguage : English9 M( @, {, G" ~) z3 W
Default : No
" ~1 J% n7 G% R/ bForced : No
' P$ B2 g4 S; Q' X& O
) [7 D3 L9 x- e5 @6 m) B
2 |3 |" |( v+ w, }
Text #4
. L* [7 i9 y. g0 B; ~0 l/ ^/ qID : 6
& t+ [7 w! l( ?3 Y$ O/ QFormat : UTF-8
: R1 ^/ r% F: P" R" f: U5 b5 LCodec ID : S_TEXT/UTF8
3 F, V9 o; I* P: p% GCodec ID/Info : UTF-8 Plain Text& k9 i7 a2 b- _! z! X
Duration : 55 min 14 s  b% e5 A" C/ }
Bit rate : 151 b/s4 [6 X% F' E- V9 q' b9 ~
Frame rate : 0.266 FPS1 Z/ o! d/ Z6 B
Count of elements : 882+ b+ u9 v" [' N3 [) q
Stream size : 61.2 KiB (0%)
$ |, u6 p" G% L" p( jLanguage : Arabic
1 c! ~& T8 v, z. |6 d. G+ H& ?0 WDefault : No. @2 Q6 Z* v! Y! ?4 x2 h
Forced : No
4 ~/ P& L& b* [
# |" P# j# h9 B$ N+ u8 Z( j

- R% ?. p6 X' Z/ \2 P  b: C6 H( iText #5
. A6 L9 w: E# x$ aID : 7
: q" A- p1 N: @# v5 EFormat : UTF-8
9 y5 A  X; t2 VCodec ID : S_TEXT/UTF8
, e* B- V0 r0 v; O, l1 I$ ZCodec ID/Info : UTF-8 Plain Text( S4 w& Q0 U" e% Q4 K
Duration : 55 min 14 s( u! m7 W/ @0 r
Bit rate : 84 b/s4 ^0 H1 O% W( i, |% e
Frame rate : 0.266 FPS! \, H: d- ~: x' F3 p* F9 r
Count of elements : 8818 y! ]% |( H% D
Stream size : 34.3 KiB (0%)
" ]/ A" Q: g$ dTitle : Simplified. q6 Q* T2 H* m, ^; p+ J$ N4 E
Language : Chinese! F3 I# T1 l7 _/ p" Q% T5 Y$ _
Default : No
- r( i% z2 G' |3 ]" \+ @Forced : No# I6 T; i# B$ p  n3 K3 J: E

" \4 _( ~) \6 p0 z: Z! P7 D

! K; W" m0 Q" v6 e' i- I/ ]1 R3 d; ~+ w* ~Text #6- t0 ?* K4 [0 v
ID : 8
$ G+ p1 |' A+ ^% }# E; SFormat : UTF-8
7 |5 N+ \4 G7 F6 P2 p1 XCodec ID : S_TEXT/UTF8
+ [  ?+ h" P5 I) M% QCodec ID/Info : UTF-8 Plain Text
2 ?/ F( U5 `, G9 dDuration : 55 min 14 s1 H9 [) p# B7 f( w# m2 }. s' _
Bit rate : 80 b/s
. w. g2 x+ p% ?4 ^6 o. GFrame rate : 0.264 FPS
" S6 e3 t4 S/ U! Y5 qCount of elements : 874
7 A( K9 P+ z+ L5 e# pStream size : 32.4 KiB (0%), x' j) T- B( S  R' t
Title : Traditional; a- `( i7 I# d, @* l, I$ T7 h& I  Z: Z
Language : Chinese8 P" j. F. S" B/ W' z4 G
Default : No
, h1 o3 R" W0 dForced : No

% ?! Y- {; T+ v+ M
' a7 b( T/ c: `/ h杰弗里·爱泼斯坦:肮脏的财富4k.Jeffrey.Epstein.Filthy.Rich.S01.2160p.NF.WEB-DL.x265.10bit.SDR.DDP5.1-纪录片下载
. \4 {5 o: M# [6 _6 g; D2 q. I9 f1 ^! M1 d3 ?
杰弗里·爱泼斯坦:肮脏的财富4k.Jeffrey.Epstein.Filthy.Rich.S01.2160p.NF.WEB-DL.x265.10bit.SDR.DDP5.1-简繁中字【18.40 GB】+ J" e; T4 H: m& \7 M( E4 ]5 P; R

杰弗里·爱泼斯坦:肮脏的财富4k.Jeffrey.Epstein.Filthy.Rich.S01.2160p.NF.WEB-DL.x265.10bit.SDR.DDP5.1-DiSGUSTiNG[rartv].torrent ( 24.02 KB )


' F  R, [5 l# A9 ]4 }: l' o3 e- T  O
# Z- q2 @: q% m1 v* m9 ?
登录 发布 快速回复 返回顶部 返回列表