开启辅助访问
 找回密码
 立即注册

体坛秘史:凯特琳·詹纳4KUntold.Caitlyn.Jenner.2021.2160p.NF.WEB-DL.x265.10bit.HDR.DDP5.1-4K电影

#4k记录视频#时间:2023-04-28 阅读:345 回复:0
( c- s2 n0 M: e  B, Z; d

3 o- i" P- i& r  d; L  F. J2 l1 r% U7 z% z4 A1 q
204930s3xldhss3b5rx3ur.jpg.jpg 6 w* J7 C: P% i: }2 \$ L' P
7 K% x4 G  i" c# J# P

: h8 }- Q$ a0 D简       介
) e- h% t! r" o3 L" G! R# X, M$ K
) Z% b) v/ s, C0 ]& H+ a. H
  由《异狂国度》创剧人打造的五集纪录片以全新视角讲述了广阔体育世界中的故事。从网球到拳击再到篮球,即使您认为已经听过这些故事,但观看时仍会有种焕然一新的感觉。每周更新,每部电影的开头都是标志性的大事件(大战、奥运会、季后赛),然后再根据亲身经历之人的叙述深入挖掘新闻头条之外发生的事情,揭示了隐藏在汗水之下的勇气、韧性、心碎、胜利、暴力、喜剧和悲伤。著名的“奥本山宫殿斗殴事件”的亲历者揭露内情;奥运选手凯瑟琳·詹纳反思她赢得金牌的旅程;拳击手克里斯蒂·马丁在拳击场外进行了一场生死搏斗;职业网球运动员马迪·费什讲述他与心理健康问题所做的斗争;“Trashers”球队不合群的曲棍球运动员们听命于据称是黑帮老大儿子的少年...《体坛秘史》讲述了成为冠军所需要的激情和专注的核心,以及在场外剥去胜利外衣的种种方法。
, y, M$ u5 x/ L) |1 }+ v  人们都说,这是一场争夺世界最伟大运动员桂冠的比赛。在为期两天的残酷比赛中,参赛者的奔跑、跳跃和投掷能力将受到考验。1972 年的一次尝试失败后,凯特琳·詹纳为自己设定了目标:在 1976 年蒙特利尔奥运会上赢得十项全能金牌。连续四年坚持不懈地训练,詹纳成为了当时的夺冠热门。但对詹纳来说,1976 年奥运会的十项全能比赛不仅仅是一项运动测试。这是一种易于接受的分散注意力的方式,可以让她从更具有挑战性的内心动荡中解脱出来。在蒙特利尔创造了新的世界纪录并赢得金牌后,詹纳的形象成为了运动员卓越表现的标准,她也瞬间成为了美国的超级明星。然而,她渴望的运动成就和她塑造的名人形象,也成了她接受自己身份的主要障碍。通过一系列从未公开的档案影像(包括新发现的奥运录像和詹纳家族的家庭录像),从赢得金牌到决定回归家庭和孩子身边,詹纳以全新的视角回忆了自己的生活,她对过去的自己和现在的自己有着清晰的认识。
! x, _  d( b, b2 Y' j
8 s/ m! Z7 D9 j* C6 Y# m2 S
影片参数
体坛秘史:凯特琳·詹纳4KUntold.Caitlyn.Jenner.2021.2160p.NF.WEB-DL.x265.10bit.HDR.DDP5.1-信息
1 P9 _% s! V- W" {1 D' h, ~Video
" ]2 g- T8 @$ hID : 1
0 `% E1 z6 b5 [' u3 EFormat : HEVC( ?) P/ u  k. V" D' v% L
Format/Info : High Efficiency Video Coding" B4 D* }* n( z- M8 o3 i
Format profile : Main 10@L5@Main& T6 m3 {& e0 @! g6 E* r
HDR format : Dolby Vision, Version 1.0, dvhe.08.06, BL+RPU, HDR10 compatible / SMPTE ST 2086, HDR10 compatible
$ L4 F# |( T- R0 kCodec ID : V_MPEGH/ISO/HEVC6 h" k. ?$ [$ J  L* Q2 i* T0 v% x7 ^
Duration : 1 h 9 min7 |  e6 Z* _0 C
Bit rate : 15.4 Mb/s
0 i( E! s2 T3 r( S+ P1 NWidth : 3 840 pixels% h, q( }5 K, q; a
Height : 2 160 pixels
9 x% |( ?# b; t" L/ D: R2 oDisplay aspect ratio : 16:9; T8 v) n5 ?! Z5 h
Frame rate mode : Constant
+ u, x# ^$ ^' f& a' [3 iFrame rate : 23.976 (24000/1001) FPS
- L, a3 q2 {5 H% G0 jColor space : YUV
) [  v: S# ]+ g- o6 mChroma subsampling : 4:2:0 (Type 2)+ G( w. [' j' I! Q7 V) B* @6 I
Bit depth : 10 bits
" Y% \4 _; G; K+ v3 Z8 y) {# O9 eBits/(Pixel*Frame) : 0.077
, d; B. y' T2 Q% gStream size : 7.45 GiB (96%)
' V: n9 ]9 N- M1 K) }6 z2 dDefault : Yes5 ?5 m# J5 A! `) s
Forced : No
, m1 ?6 v. [: f+ q, Z3 v, a+ WColor range : Limited
4 `& u# O) ?. x3 ~9 u  B! |$ B( |* l5 VColor primaries : BT.2020
# C. ^& ?+ f" s# ?Transfer characteristics : PQ" z* h: Z6 r! ^/ s
Matrix coefficients : BT.2020 non-constant2 U6 @4 J3 n8 m4 ]
Mastering display color primaries : Display P3
+ T" y6 ^, R0 H2 {Mastering display luminance : min: 0.0001 cd/m2, max: 1000 cd/m2
- M- m4 N, O+ K. l6 J. d, \Maximum Content Light Level : 873 cd/m22 n& I8 {' T( K4 z
Maximum Frame-Average Light Level : 217 cd/m2
1 Y; w& S8 E1 Y3 E0 V! x/ l8 v9 k& L/ G8 [6 {
% c1 R: t  b3 {, y
Audio
/ b% ~( K6 d- a/ V+ JID : 2
% p' l1 ^- {% {& N+ s0 U/ ZFormat : E-AC-3
9 @) b9 V! L' [1 J( s; OFormat/Info : Enhanced AC-32 L* z" r( H7 l; b( k
Commercial name : Dolby Digital Plus
3 h( T7 V  c# ]8 X+ ~7 n# qCodec ID : A_EAC3  H+ ^( o2 n$ b4 O) R% ?
Duration : 1 h 9 min
5 m2 p/ Z# w/ A3 R' F5 ?' CBit rate mode : Constant
& g, X0 a+ ?. E8 aBit rate : 640 kb/s) x6 P; T4 }2 @7 x/ ^# Y4 z7 V
Channel(s) : 6 channels% g& G4 i9 c8 s4 h
Channel layout : L R C LFE Ls Rs# @4 Q3 R# q7 r/ V) t6 w! n3 o
Sampling rate : 48.0 kHz2 ?  V2 |: R% d; w# W
Frame rate : 31.250 FPS (1536 SPF)1 o( Z- n9 S- m1 @) ~1 N" f: F
Compression mode : Lossy9 ^" A( w, ?6 d' v3 E6 G8 b
Stream size : 318 MiB (4%)+ j+ D! C9 x) U/ @, c# Y( q
Language : English# S; J' P, Q/ ~* `" s
Service kind : Complete Main! x9 H4 z; J5 ?& q# P( v
Default : Yes
) h) ?" I! u/ Q8 X, Q- M2 @% ?8 }8 MForced : No
3 V& a6 c* ^6 k- z: W
0 y, F* B% x4 }7 H4 `' n' ^1 j, ^4 i6 P
+ l2 O/ W2 q# s; c+ ~4 H7 o& R4 b
Text #1) k$ `2 r1 q3 v3 x
ID : 3
, K& L. T. T- [4 {9 FFormat : UTF-8# T% w# l2 ~' d* q* r
Codec ID : S_TEXT/UTF8
* }9 t; {- x+ ]9 WCodec ID/Info : UTF-8 Plain Text" }0 M7 o% a3 }9 m) d/ f
Duration : 1 s 961 ms
3 |" a2 O5 e0 x% ?  c' Z! IBit rate : 134 b/s
/ t2 Z+ _' C5 M& p/ w7 @; qFrame rate : 0.510 FPS
" u! b: q8 S( @' k& v+ w1 UCount of elements : 13 B8 V6 E' X' N; e+ X
Stream size : 33.0 Bytes (0%)
( M6 s( u8 [3 b% A5 E$ iTitle : Forced, K7 F- p; b7 g( Y, u
Language : English
( @# f, A( n# S; rDefault : No
3 m5 k) ]/ O# f$ ]. FForced : Yes
& f- d8 \, u9 z0 I# c
2 _' f" `1 A" |

6 ?, ]/ U$ L; q3 B2 _/ dText #29 ], C; e, r, j- k0 d
ID : 4
/ s) s. I; d2 D6 }  z4 q/ S( MFormat : UTF-86 i0 ^9 _/ Z! h3 A4 V3 B  r8 n3 Y
Codec ID : S_TEXT/UTF8
8 ?! b$ H4 z6 C4 O: P5 [Codec ID/Info : UTF-8 Plain Text
0 M" D- m! c: S6 JDuration : 1 h 7 min
7 e- K+ P1 K. w. V' oBit rate : 80 b/s
4 e$ ?6 j+ P8 E+ {/ GFrame rate : 0.246 FPS
6 F! [- ]% d# o: I8 S5 R" uCount of elements : 996: _5 R1 J+ b6 B# D$ Z# G' z5 k
Stream size : 39.8 KiB (0%)
3 R/ |$ R# \  }" g2 O, QLanguage : English( A/ {+ f) H) R8 {; b1 }
Default : No* L" A" c) x- I/ a! o
Forced : No
' \! ]) I( n1 @% `* y, E4 b
# c+ s" q6 e; i+ O# w. k

0 T1 e3 ~0 D3 y+ ^% I( r5 CText #3+ T/ }/ t0 u: b( W. k1 G3 L
ID : 5
" ]' E5 k; m& m/ K" m7 EFormat : UTF-8
1 k1 O! k$ R3 Y. E5 R, a* Y) UCodec ID : S_TEXT/UTF8
1 u6 e# H6 G/ P0 e8 HCodec ID/Info : UTF-8 Plain Text' M/ Y, e: V( U
Duration : 1 h 7 min
, W0 L: K# {9 C5 `1 D1 @Bit rate : 89 b/s- }, S& B! G$ r5 p4 `, O
Frame rate : 0.276 FPS+ F, C1 t6 X+ `3 i7 n, W& k0 B/ |
Count of elements : 1119! Q# z& g5 ]% D$ t+ K
Stream size : 44.6 KiB (0%)
! U0 z/ \" \/ R# l5 L+ wTitle : SDH
) ?7 u  P. S) z+ l# LLanguage : English$ ]2 @; w3 x5 Z! I8 e: F" U/ f
Default : No$ ~* Y2 ]6 D* `9 v
Forced : No
# ~* f5 T+ f& n' |! w
' V* J+ A& X, \$ u

& S+ p( g0 X+ s+ R5 ]Text #4$ A2 G. D9 D8 g. Y
ID : 6: Q) Y, o  f  y+ o
Format : UTF-8
6 B2 }1 ^; n% r5 F( W% YCodec ID : S_TEXT/UTF8, P% P# u/ f" o& x& l3 |, N6 a5 |
Codec ID/Info : UTF-8 Plain Text+ }& {% M; ?2 a7 M7 @
Duration : 1 h 7 min
  w% s- }# B0 l& k6 `7 Y: BBit rate : 127 b/s
0 f# u4 ^. K$ u0 jFrame rate : 0.238 FPS* `  m. ]( R/ r3 b9 I! A
Count of elements : 965* B# T! B- h# u: s
Stream size : 63.2 KiB (0%)) J( _+ [# Y5 M, t( {8 R& [' c
Language : Arabic
* Y& j4 w$ D( f1 D6 m( d2 E% s8 M* JDefault : No/ a8 F) ?7 I: L; Q+ t# ?4 c7 w4 Z
Forced : No+ M+ t) F; X1 |' w" v
" C' o# L* \! t
1 k& Q1 n( [, w; {6 u1 f3 c
Text #5' M: @7 D; k* v/ _' w) `1 x
ID : 7/ D4 T6 v6 k8 ~; K2 d6 e
Format : UTF-8
/ I- e8 P) |% g1 P3 p, E  gCodec ID : S_TEXT/UTF8& e0 t( ?) {8 c' q
Codec ID/Info : UTF-8 Plain Text5 s3 k. G" H4 r! H5 h9 c, N
Duration : 1 h 8 min$ N& ~8 ?1 W+ k" m; H2 ~
Bit rate : 74 b/s
* m# q. j$ y% l: JFrame rate : 0.237 FPS
  L+ r# f  G0 q' W: CCount of elements : 982$ v; h2 f7 t5 S4 F3 ]
Stream size : 37.7 KiB (0%)
. |1 W3 n1 a: H. I# X% `: WTitle : Simplified8 x# G; Q% d  c8 {
Language : Chinese
9 v4 ?9 O. o: tDefault : No1 J' V1 q8 A; l2 r2 `6 {
Forced : No
. X. B# Y4 x' E+ C! S& e0 @4 m  q* F' M* E! r

) R- E4 b/ X2 c9 @Text #6
) N  p3 D4 O+ @6 c4 `& H, k6 m8 YID : 8- L( y2 F) L5 t3 k
Format : UTF-8" T4 Y: ?6 ~0 ?/ Z9 q8 ^0 \. z  W
Codec ID : S_TEXT/UTF84 @2 q5 \  g1 w/ i
Codec ID/Info : UTF-8 Plain Text4 _) h7 x5 R4 O
Duration : 1 h 8 min. y- I( T3 b5 ]: a2 M1 {
Bit rate : 72 b/s
# i# h9 k; b+ `' {Frame rate : 0.237 FPS
2 T' A6 u: ]4 j3 |+ ~Count of elements : 981
5 k2 P1 r+ ?4 J; VStream size : 36.7 KiB (0%)
$ i0 h$ H0 U& w( |. A( Z3 s; rTitle : Traditional
# E, S5 L( @, x1 hLanguage : Chinese
: N+ T* F! W% L0 j$ m5 @Default : No$ g8 X8 U, v" F1 e. S
Forced : No
; ^. Z+ K5 }# J$ Y6 J$ A5 o
. Y4 A, O8 t2 f0 k; `6 Y( m; W9 a
2 w! g5 G) B5 ^
体坛秘史:凯特琳·詹纳4KUntold.Caitlyn.Jenner.2021.2160p.NF.WEB-DL.x265.10bit.HDR.DDP5.1-4K电影下载
9 c4 r. C: v9 b+ \% y( @
9 i! |) U/ I* F/ D9 u* H; S) A体坛秘史:凯特琳·詹纳4KUntold.Caitlyn.Jenner.2021.2160p.NF.WEB-DL.x265.10bit.HDR.DDP5.1【简繁中字】【HDR  7.76 GB】/ g8 A9 k8 b8 |4 L1 |

体坛秘史:凯特琳·詹纳4K.Untold.Caitlyn.Jenner.2021.2160p.NF.WEB-DL.x265.10bit.HDR.DDP5.1-SiC.torrent ( 20.06 KB )


% r! \7 v5 B& A! G
/ g3 ?+ Y0 Z% O( u
登录 发布 快速回复 返回顶部 返回列表